osu file format v14

[General]
AudioFilename: Nightcore - Run (1).mp3
AudioLeadIn: 0
PreviewTime: 50452
Countdown: 0
SampleSet: Soft
StackLeniency: 0.7
Mode: 0
LetterboxInBreaks: 0
WidescreenStoryboard: 0

[Editor]
DistanceSpacing: 1.4
BeatDivisor: 4
GridSize: 4
TimelineZoom: 1

[Metadata]
Title:Run ft. RedFoo of LMFAO (Speed Up Ver.)
TitleUnicode:Run ft. RedFoo of LMFAO (Speed Up Ver.)
Artist:Flo Rida
ArtistUnicode:Flo Rida
Creator:ohad1881
Version:Nya's Hard
Source:
Tags:nightcore WILD ONES A Mystery to you -Nya- rap
BeatmapID:641439
BeatmapSetID:283731

[Difficulty]
HPDrainRate:6
CircleSize:4
OverallDifficulty:6
ApproachRate:8
SliderMultiplier:1.30000000596046
SliderTickRate:1

[Events]
//Background and Video events
0,0,"fae.jpg",0,0
//Break Periods
2,64071,66314
2,118249,120592
//Storyboard Layer 0 (Background)
//Storyboard Layer 1 (Fail)
//Storyboard Layer 2 (Pass)
//Storyboard Layer 3 (Foreground)
//Storyboard Sound Samples

[TimingPoints]
16,399.1,4,2,1,50,1,0
33988,-100,4,2,1,50,0,0
51100,-80,4,2,1,80,0,1
63872,-100,4,2,1,50,0,0
105378,-80,4,2,1,80,0,1
118149,-100,4,2,1,50,0,0
159656,-80,4,2,1,80,0,1
172227,-80,4,2,1,50,0,0
172427,-80,4,2,1,80,0,1
185198,-100,4,2,1,50,0,0

[Colours]
Combo1 : 0,63,125
Combo2 : 255,128,255
Combo3 : 255,111,111

[HitObjects]
320,120,12587,5,8,0:0:0:0:
320,120,12687,1,8,0:0:0:0:
320,120,12787,2,0,P|280:96|248:88,1,65.000000298023,8|0,0:0|0:0,0:0:0:0:
180,124,13186,2,0,P|140:148|108:156,1,65.000000298023,8|0,1:1|0:0,0:0:0:0:
32,176,13585,1,0,0:0:0:0:
68,260,13784,1,0,0:0:0:0:
156,284,13984,2,0,P|160:248|140:200,1,65.000000298023,8|0,1:1|0:0,0:0:0:0:
68,260,14383,1,0,0:0:0:0:
152,360,14583,5,0,0:0:0:0:
196,356,14682,1,0,0:0:0:0:
236,336,14782,2,0,P|252:296|244:260,1,65.000000298023,8|0,1:1|0:0,0:0:0:0:
280,188,15181,2,0,P|264:148|272:112,1,65.000000298023
280,84,15481,1,0,0:0:0:0:
320,60,15580,2,0,L|400:96,1,65.000000298023,8|0,1:1|0:0,0:0:0:0:
464,124,15980,1,0,0:0:0:0:
460,252,16179,5,0,0:0:0:0:
460,252,16279,1,0,0:0:0:0:
460,252,16379,2,0,P|412:264|388:284,1,65.000000298023,8|0,1:1|0:0,0:0:0:0:
328,328,16778,1,0,0:0:0:0:
244,300,16977,2,0,L|208:280,2,32.5000001490115,0|0|8,0:0|0:0|1:1,0:0:0:0:
328,328,17376,2,0,L|328:256,1,65.000000298023
320,132,17775,5,0,0:0:0:0:
284,104,17875,1,0,0:0:0:0:
244,84,17975,2,0,L|168:104,1,65.000000298023,8|0,1:1|0:0,0:0:0:0:
112,44,18374,2,0,L|36:64,1,65.000000298023
28,148,18773,2,0,P|32:196|20:232,1,65.000000298023,8|8,1:1|0:0,0:0:0:0:
24,256,19073,1,8,0:0:0:0:
20,300,19172,1,8,0:0:0:0:
148,332,19372,6,0,L|168:300,2,32.5000001490115,0|0|8,0:0|0:0|1:1,0:0:0:0:
236,352,19771,2,0,L|264:288,1,65.000000298023
292,204,20170,2,0,L|264:176,2,32.5000001490115,0|0|8,0:0|0:0|1:1,0:0:0:0:
364,260,20569,2,0,P|384:216|372:180,1,65.000000298023
400,112,20968,5,0,0:0:0:0:
372,76,21068,1,0,0:0:0:0:
340,44,21168,2,0,P|304:44|260:40,1,65.000000298023,8|0,1:1|0:0,0:0:0:0:
228,36,21467,1,0,0:0:0:0:
184,24,21567,2,0,L|128:80,1,65.000000298023
132,160,21966,2,0,L|177:205,1,65.000000298023,8|0,1:1|0:0,0:0:0:0:
244,268,22365,1,0,0:0:0:0:
364,260,22565,6,0,L|370:291,2,32.5000001490115,0|0|8,0:0|0:0|1:1,0:0:0:0:
372,76,23163,2,0,L|336:52,1,32.5000001490115
300,56,23363,2,0,L|272:74,1,32.5000001490115
240,104,23562,2,0,P|208:124|152:124,1,65.000000298023,8|0,1:1|0:0,0:0:0:0:
92,140,23962,1,0,0:0:0:0:
32,256,24161,5,0,0:0:0:0:
32,256,24261,1,0,0:0:0:0:
32,256,24361,2,0,L|80:328,1,65.000000298023,8|0,1:1|0:0,0:0:0:0:
92,348,24660,1,0,0:0:0:0:
136,356,24760,2,0,P|172:344|212:348,1,65.000000298023,0|8,0:0|0:0,0:0:0:0:
288,328,25159,2,0,L|316:260,1,65.000000298023,8|8,1:1|0:0,0:0:0:0:
348,184,25558,5,8,0:0:0:0:
468,48,25957,1,8,0:0:0:0:
484,228,26356,1,8,0:0:0:0:
364,68,26755,1,8,0:0:0:0:
364,68,27154,6,0,B|308:64|280:88|280:88|224:84|216:80,1,130.000000596046,8|8,0:0|0:0,0:0:0:0:
148,64,27753,1,0,0:0:0:0:
88,136,27953,2,0,B|96:172|72:200|72:200|96:232|76:280,1,130.000000596046,8|8,0:0|0:0,0:0:0:0:
68,348,28551,1,0,0:0:0:0:
196,328,28751,6,0,B|176:288|192:256|192:256|240:224,1,130.000000596046,8|8,0:0|0:0,0:0:0:0:
320,184,29349,1,0,0:0:0:0:
400,140,29549,2,0,L|468:96,1,65.000000298023,8|0,0:0|0:0,0:0:0:0:
376,56,29948,2,0,L|321:91,1,65.000000298023,8|0,0:0|0:0,0:0:0:0:
320,184,30347,6,0,P|260:164|228:104,1,130.000000596046,8|8,0:0|0:0,0:0:0:0:
272,28,30946,1,0,0:0:0:0:
184,44,31145,2,0,L|104:96,1,65.000000298023,8|0,0:0|0:0,0:0:0:0:
52,128,31544,2,0,P|60:188|40:272,1,130.000000596046,8|8,0:0|0:0,0:0:0:0:
24,344,32143,5,0,0:0:0:0:
24,344,32343,2,0,P|72:336|112:336,1,65.000000298023,8|0,0:0|0:0,0:0:0:0:
184,328,32742,1,8,0:0:0:0:
260,276,32941,2,0,L|284:232,2,32.5000001490115,0|0|8,0:0|0:0|0:0,0:0:0:0:
340,320,33340,2,0,L|372:248,1,65.000000298023,0|8,0:0|0:0,0:0:0:0:
396,176,33739,5,0,0:0:0:0:
396,176,33939,2,0,P|360:172|336:152,1,65.000000298023,8|0,0:0|0:0,0:0:0:0:
280,84,34338,2,0,P|254:65|222:62,1,65.000000298023,8|0,0:0|0:0,0:0:0:0:
140,104,34737,2,0,L|96:172,1,65.000000298023,8|0,0:0|0:0,0:0:0:0:
68,240,35136,1,8,0:0:0:0:
176,312,35336,6,0,L|208:272,2,32.5000001490115,0|0|8,0:0|0:0|0:0,0:0:0:0:
256,360,35735,2,0,L|296:300,1,65.000000298023,0|8,0:0|0:0,0:0:0:0:
348,232,36134,1,0,0:0:0:0:
416,172,36334,2,0,P|384:152|352:144,1,65.000000298023,8|0,0:0|0:0,0:0:0:0:
268,152,36733,1,8,0:0:0:0:
196,208,36932,5,0,0:0:0:0:
196,208,37032,1,0,0:0:0:0:
196,208,37132,2,0,P|152:208|124:192,1,65.000000298023,8|0,0:0|0:0,0:0:0:0:
60,144,37531,1,8,0:0:0:0:
108,68,37730,1,0,0:0:0:0:
200,56,37930,2,0,P|232:36|264:32,1,65.000000298023,8|0,0:0|0:0,0:0:0:0:
348,36,38329,5,12,1:1:0:0:
376,216,38728,1,8,1:1:0:0:
380,36,39127,1,8,1:1:0:0:
340,212,39526,1,8,1:1:0:0:
412,44,39926,1,8,1:1:0:0:
308,196,40325,1,8,1:1:0:0:
440,68,40724,1,8,1:1:0:0:
288,168,41123,1,8,1:1:0:0:
148,52,41522,6,0,P|140:88|56:120,1,130.000000596046,8|8,1:1|1:1,0:0:0:0:
60,32,42121,1,0,0:0:0:0:
60,32,42320,2,0,L|140:156,1,130.000000596046,8|8,1:1|1:1,0:0:0:0:
184,216,42919,1,0,0:0:0:0:
268,252,43118,2,0,L|368:272,2,97.5000004470345,8|8|0,1:1|0:0|0:0,0:0:0:0:
184,216,43917,1,8,1:1:0:0:
184,216,44316,1,8,1:1:0:0:
328,104,44715,6,0,B|296:80|260:88|260:88|236:56|200:60,1,130.000000596046,4|8,0:0|1:1,0:0:0:0:
120,64,45313,1,2,1:1:0:0:
76,144,45513,2,0,L|44:200,1,65.000000298023,8|0,1:1|0:0,0:0:0:0:
80,284,45912,2,0,L|112:228,1,65.000000298023,8|0,1:1|0:0,0:0:0:0:
160,152,46311,1,8,1:1:0:0:
232,204,46511,6,0,P|248:172|248:136,1,65.000000298023,2|8,1:1|1:1,0:0:0:0:
236,52,46910,1,0,0:0:0:0:
328,44,47109,2,0,L|404:72,1,65.000000298023,8|0,1:1|0:0,0:0:0:0:
388,156,47508,2,0,L|312:184,1,65.000000298023,8|0,1:1|0:0,0:0:0:0:
304,216,47808,1,8,0:0:0:0:
284,256,47908,1,8,0:0:0:0:
340,328,48107,6,0,L|424:296,1,65.000000298023,2|0,1:1|0:0,0:0:0:0:
476,252,48506,2,0,P|472:216|476:172,1,65.000000298023,2|0,1:1|0:0,0:0:0:0:
468,96,48905,2,0,L|384:64,1,65.000000298023,2|0,1:1|0:0,0:0:0:0:
320,44,49304,1,2,1:1:0:0:
232,68,49504,2,0,L|192:100,3,32.5000001490115,2|0|0|0,1:1|0:0|0:0|0:0,0:0:0:0:
160,84,49903,2,0,L|120:116,3,32.5000001490115,2|0|0|0,1:1|0:0|0:0|0:0,0:0:0:0:
52,204,50502,5,0,0:0:0:0:
52,204,50701,2,0,L|112:264,1,65.000000298023
192,316,51100,6,0,B|236:304|272:312|272:312|332:256,1,162.500000745057,4|8,0:0|3:3,0:0:0:0:
392,200,51699,1,0,0:0:0:0:
440,132,51899,2,0,P|432:56|428:44,1,81.2500003725287,2|0,0:0|0:0,0:0:0:0:
352,32,52298,2,0,L|248:48,1,81.2500003725287,8|0,3:3|0:0,0:0:0:0:
192,64,52697,5,2,0:0:0:0:
164,140,52896,1,0,0:0:0:0:
208,208,53096,2,0,P|240:168|240:128,2,81.2500003725287,8|0|2,3:3|0:0|0:0,0:0:0:0:
144,256,53694,2,0,L|108:336,1,81.2500003725287,0|8,0:0|3:3,0:0:0:0:
32,352,54094,1,0,0:0:0:0:
32,240,54293,6,0,B|48:160|48:160|32:80,1,162.500000745057,4|8,0:0|3:3,0:0:0:0:
100,36,54892,1,0,0:0:0:0:
180,36,55091,2,0,L|256:64,1,81.2500003725287,2|0,0:0|0:0,0:0:0:0:
232,140,55490,2,0,L|156:112,1,81.2500003725287,8|0,3:3|0:0,0:0:0:0:
128,188,55890,6,0,L|184:264,1,81.2500003725287,2|0,0:0|0:0,0:0:0:0:
228,316,56289,1,8,3:3:0:0:
308,312,56488,1,0,0:0:0:0:
376,264,56688,1,2,0:0:0:0:
376,184,56887,2,0,L|380:96,2,81.2500003725287,0|8|0,0:0|3:3|0:0,0:0:0:0:
460,108,57486,6,0,P|420:36|336:36,1,162.500000745057,4|8,0:0|3:3,0:0:0:0:
272,68,58085,1,0,0:0:0:0:
224,132,58284,2,0,P|188:201|110:209,1,162.500000745057,2|8,0:0|3:3,0:0:0:0:
36,176,58883,1,0,0:0:0:0:
56,96,59082,6,0,L|112:28,1,81.2500003725287
184,60,59481,1,8,3:3:0:0:
224,132,59681,2,0,B|224:176|272:196|272:196|248:240|292:300,1,162.500000745057
328,332,60280,2,0,L|424:368,1,81.2500003725287,8|0,3:3|0:0,0:0:0:0:
436,284,60679,6,0,L|359:255,1,81.2500003725287,4|0,0:0|0:0,0:0:0:0:
328,180,61078,2,0,B|340:128|380:116|380:116|312:48,1,162.500000745057,8|2,3:3|0:0,0:0:0:0:
256,24,61676,1,0,0:0:0:0:
184,60,61876,1,8,3:3:0:0:
160,172,62076,6,0,P|104:188|136:272,1,162.500000745057,4|0,0:0|0:0,0:0:0:0:
204,296,62674,1,8,3:3:0:0:
280,324,62874,2,0,P|336:308|304:224,1,162.500000745057,4|0,0:0|0:0,0:0:0:0:
240,192,63472,1,8,3:3:0:0:
272,116,63672,2,0,L|304:80,2,40.6250001862644
100,76,67064,6,0,B|136:52|176:64|176:64|216:28,1,130.000000596046,4|8,0:0|1:1,0:0:0:0:
304,44,67663,2,0,L|356:80,2,32.5000001490115
244,112,68062,2,0,L|300:152,1,65.000000298023,0|8,0:0|1:1,0:0:0:0:
288,240,68461,2,0,L|235:202,1,65.000000298023
148,180,68860,6,0,L|96:184,2,32.5000001490115,0|0|8,0:0|0:0|1:1,0:0:0:0:
164,268,69259,2,0,L|92:276,1,65.000000298023
8,288,69658,1,0,0:0:0:0:
0,196,69858,2,0,B|8:104|8:104|40:72,1,130.000000596046,8|0,1:1|0:0,0:0:0:0:
120,48,70457,6,0,L|172:32,2,32.5000001490115,0|0|8,0:0|0:0|1:1,0:0:0:0:
136,136,70856,2,0,L|220:112,1,65.000000298023
284,88,71255,1,0,0:0:0:0:
340,160,71454,2,0,P|368:128|372:88,1,65.000000298023,8|0,1:1|0:0,0:0:0:0:
284,88,71854,5,0,0:0:0:0:
244,212,72053,2,0,L|168:248,1,65.000000298023,0|8,0:0|1:1,0:0:0:0:
96,260,72452,1,0,0:0:0:0:
56,240,72552,1,0,0:0:0:0:
36,200,72652,2,0,P|40:148|36:124,1,65.000000298023
84,56,73051,2,0,L|152:40,1,65.000000298023,8|0,1:1|0:0,0:0:0:0:
192,36,73350,1,8,0:0:0:0:
236,48,73450,1,8,0:0:0:0:
292,120,73649,6,0,L|316:160,2,32.5000001490115,0|0|8,0:0|0:0|1:1,0:0:0:0:
372,80,74049,2,0,L|412:140,1,65.000000298023
456,212,74448,1,0,0:0:0:0:
440,300,74647,2,0,P|496:292|520:276,2,65.000000298023,8|0|0,1:1|0:0|0:0,0:0:0:0:
316,260,75246,6,0,P|288:240|248:232,1,65.000000298023,0|8,0:0|1:1,0:0:0:0:
168,252,75645,2,0,L|144:280,2,32.5000001490115
196,164,76044,1,0,0:0:0:0:
172,128,76144,1,0,0:0:0:0:
140,96,76244,2,0,L|64:72,1,65.000000298023
40,160,76643,5,4,0:0:0:0:
68,248,76842,2,0,L|96:320,1,65.000000298023,0|8,0:0|1:1,0:0:0:0:
176,348,77241,1,0,0:0:0:0:
268,340,77441,2,0,P|304:312|344:300,1,65.000000298023
364,288,77740,1,0,0:0:0:0:
408,280,77840,2,0,L|420:192,1,65.000000298023,8|0,1:1|0:0,0:0:0:0:
432,124,78239,5,0,0:0:0:0:
368,60,78439,2,0,L|328:40,2,32.5000001490115,0|0|8,0:0|0:0|1:1,0:0:0:0:
332,144,78838,2,0,L|260:112,1,65.000000298023
188,88,79237,1,0,0:0:0:0:
108,48,79436,2,0,P|100:80|108:132,1,65.000000298023,8|0,1:1|0:0,0:0:0:0:
104,156,79736,1,8,0:0:0:0:
120,200,79836,5,8,0:0:0:0:
248,328,80235,1,8,0:0:0:0:
92,232,80634,1,8,0:0:0:0:
264,292,81033,1,8,0:0:0:0:
84,272,81432,1,8,0:0:0:0:
264,256,81831,1,8,0:0:0:0:
92,308,82230,1,8,0:0:0:0:
252,220,82629,1,8,0:0:0:0:
180,52,83028,6,0,B|232:56|280:44|280:44|312:60,1,130.000000596046,8|8,0:0|0:0,0:0:0:0:
376,116,83627,1,0,0:0:0:0:
432,188,83827,2,0,P|456:160|464:128,1,65.000000298023,8|0,0:0|0:0,0:0:0:0:
376,116,84226,2,0,P|352:144|344:176,1,65.000000298023,8|0,0:0|0:0,0:0:0:0:
356,260,84625,6,0,L|384:288,2,32.5000001490115,8|0|0,0:0|0:0|0:0,0:0:0:0:
308,336,85024,2,0,L|264:280,1,65.000000298023,8|0,0:0|0:0,0:0:0:0:
212,212,85423,1,8,0:0:0:0:
128,180,85622,1,0,0:0:0:0:
76,252,85822,2,0,P|48:220|40:176,1,65.000000298023,8|0,0:0|0:0,0:0:0:0:
48,108,86221,5,8,0:0:0:0:
220,44,86620,1,8,0:0:0:0:
40,72,87019,1,8,0:0:0:0:
220,84,87418,1,8,0:0:0:0:
44,36,87818,1,8,0:0:0:0:
220,84,88217,6,0,L|288:128,1,65.000000298023,8|0,0:0|0:0,0:0:0:0:
312,148,88516,1,0,0:0:0:0:
352,172,88616,2,0,P|392:168|420:160,1,65.000000298023,8|0,0:0|0:0,0:0:0:0:
480,224,89015,2,0,L|484:320,1,65.000000298023,8|0,0:0|0:0,0:0:0:0:
412,348,89414,5,8,0:0:0:0:
244,284,89813,1,8,0:0:0:0:
424,316,90212,1,8,0:0:0:0:
244,324,90611,1,8,0:0:0:0:
420,276,91010,1,8,0:0:0:0:
260,364,91409,1,8,0:0:0:0:
420,276,91809,6,0,L|344:232,1,65.000000298023,8|0,0:0|0:0,0:0:0:0:
320,224,92108,1,0,0:0:0:0:
276,216,92208,2,0,P|244:220|188:216,1,65.000000298023,8|0,0:0|0:0,0:0:0:0:
120,208,92607,5,8,1:1:0:0:
232,64,93006,1,8,1:1:0:0:
56,112,93405,1,8,1:1:0:0:
224,180,93804,1,8,1:1:0:0:
124,28,94203,1,8,1:1:0:0:
224,180,94602,6,0,P|284:152|360:152,1,130.000000596046,8|8,1:1|1:1,0:0:0:0:
432,180,95201,1,0,0:0:0:0:
464,96,95400,2,0,L|472:32,1,65.000000298023,8|0,1:1|0:0,0:0:0:0:
380,40,95800,2,0,L|372:104,1,65.000000298023,8|0,1:1|0:0,0:0:0:0:
280,112,96199,2,0,L|288:48,1,65.000000298023,8|0,1:1|0:0,0:0:0:0:
196,60,96598,2,0,L|188:124,1,65.000000298023,8|0,1:1|0:0,0:0:0:0:
96,136,96997,2,0,L|104:72,1,65.000000298023,8|0,1:1|0:0,0:0:0:0:
24,116,97396,6,0,P|32:176|108:212,1,130.000000596046,8|8,1:1|1:1,0:0:0:0:
176,220,97995,1,0,0:0:0:0:
260,188,98194,2,0,B|272:240|248:276|248:276|304:312,1,130.000000596046,8|8,1:1|1:1,0:0:0:0:
360,340,98793,1,0,0:0:0:0:
432,232,98992,6,0,L|448:168,1,65.000000298023,4|0,0:0|0:0,0:0:0:0:
412,84,99391,1,8,1:1:0:0:
324,56,99591,1,2,1:1:0:0:
236,84,99791,1,8,1:1:0:0:
196,164,99990,1,0,0:0:0:0:
228,248,100190,2,0,P|184:256|156:240,1,65.000000298023,8|0,1:1|0:0,0:0:0:0:
92,196,100589,1,8,1:1:0:0:
160,88,100788,6,0,P|168:48|184:24,1,65.000000298023,2|8,1:1|1:1,0:0:0:0:
236,84,101187,2,0,P|260:104|280:136,1,65.000000298023,0|8,0:0|1:1,0:0:0:0:
304,220,101586,1,0,0:0:0:0:
280,308,101786,1,8,1:1:0:0:
196,340,101986,1,8,0:0:0:0:
152,332,102085,1,8,0:0:0:0:
112,308,102185,6,0,L|96:244,2,65.000000298023,2|0|8,1:1|0:0|1:1,0:0:0:0:
176,244,102784,1,0,0:0:0:0:
220,164,102983,2,0,L|236:100,2,65.000000298023,2|0|8,1:1|0:0|1:1,0:0:0:0:
156,100,103582,1,0,0:0:0:0:
68,120,103782,2,0,L|32:136,7,32.5000001490115,2|0|0|0|0|0|0|0,1:1|0:0|0:0|0:0|0:0|0:0|0:0|0:0,0:0:0:0:
152,292,104779,5,0,0:0:0:0:
236,252,104979,2,0,L|312:216,1,65.000000298023
372,140,105378,6,0,B|356:96|304:92|304:92|240:32,1,162.500000745057,4|8,0:0|3:3,0:0:0:0:
168,28,105977,1,0,0:0:0:0:
120,92,106176,2,0,L|88:168,2,81.2500003725287,0|0|8,0:0|0:0|3:3,0:0:0:0:
168,28,106775,1,0,0:0:0:0:
200,104,106974,6,0,L|232:180,1,81.2500003725287
260,256,107373,1,8,3:3:0:0:
336,284,107573,2,0,B|384:264|420:260|420:260|420:224|448:180,1,162.500000745057
480,116,108172,1,8,3:3:0:0:
412,68,108371,1,0,0:0:0:0:
336,156,108571,6,0,P|304:108|320:-4,1,162.500000745057,4|8,0:0|3:3,0:0:0:0:
232,12,109169,1,0,0:0:0:0:
152,8,109369,2,0,P|166:86|128:156,1,162.500000745057,0|8,0:0|3:3,0:0:0:0:
56,196,109968,1,0,0:0:0:0:
44,276,110167,6,0,L|108:336,1,81.2500003725287
184,296,110566,2,0,L|124:240,1,81.2500003725287,8|0,3:3|0:0,0:0:0:0:
160,168,110965,1,0,0:0:0:0:
240,172,111165,2,0,P|224:120|200:96,1,81.2500003725287,0|8,0:0|3:3,0:0:0:0:
160,36,111564,1,8,0:0:0:0:
200,24,111664,1,8,0:0:0:0:
241,27,111764,6,0,L|312:80,1,81.2500003725287,4|0,0:0|0:0,0:0:0:0:
440,92,112163,2,0,L|376:32,1,81.2500003725287,8|0,3:3|0:0,0:0:0:0:
306,75,112562,1,0,0:0:0:0:
332,152,112761,1,0,0:0:0:0:
324,232,112961,2,0,P|304:272|272:288,1,81.2500003725287,8|0,3:3|0:0,0:0:0:0:
160,292,113360,6,0,L|92:244,2,81.2500003725287,0|0|8,0:0|0:0|3:3,0:0:0:0:
180,212,113959,2,0,L|36:116,1,162.500000745057
56,40,114557,1,8,3:3:0:0:
136,24,114757,1,0,0:0:0:0:
212,56,114956,6,0,P|248:76|292:88,1,81.2500003725287,4|0,0:0|0:0,0:0:0:0:
364,116,115355,2,0,L|404:196,1,81.2500003725287,8|0,3:3|0:0,0:0:0:0:
428,268,115755,1,0,0:0:0:0:
380,332,115954,1,0,0:0:0:0:
300,352,116154,1,8,3:3:0:0:
200,300,116353,6,0,B|192:248|152:228|152:228|136:144,1,162.500000745057,4|8,0:0|0:0,0:0:0:0:
140,116,116852,1,8,0:0:0:0:
144,76,116952,1,8,3:3:0:0:
220,52,117151,2,0,B|268:40|300:60|300:60|344:44|392:68,1,162.500000745057,4|8,0:0|0:0,0:0:0:0:
412,84,117650,2,0,L|444:128,1,40.6250001862644,8|8,0:0|3:3,0:0:0:0:
444,200,117950,2,0,L|412:244,1,40.6250001862644,8|8,0:0|3:3,0:0:0:0:
260,76,121342,6,0,B|280:96|288:128|288:128|352:176,1,130.000000596046,8|0,0:0|0:0,0:0:0:0:
408,212,121941,1,0,0:0:0:0:
480,244,122140,2,0,B|460:288|404:292|404:292|380:320,1,130.000000596046,8|0,3:3|0:0,0:0:0:0:
312,360,122739,1,0,0:0:0:0:
200,296,122938,6,0,P|184:268|84:240,1,130.000000596046,8|0,0:0|0:0,0:0:0:0:
20,220,123537,1,0,0:0:0:0:
64,156,123737,2,0,L|152:32,1,130.000000596046,8|0,3:3|0:0,0:0:0:0:
216,36,124335,1,0,0:0:0:0:
340,80,124535,6,0,B|336:116|400:160|384:204,1,130.000000596046,8|0,0:0|0:0,0:0:0:0:
352,268,125133,1,0,0:0:0:0:
352,268,125233,1,0,0:0:0:0:
352,268,125333,2,0,B|312:264|284:276|284:276|252:256|220:256,1,130.000000596046,8|0,3:3|0:0,0:0:0:0:
148,252,125932,1,0,0:0:0:0:
72,148,126131,6,0,B|96:108|96:108|96:44,1,97.5000004470345,4|0,0:0|0:0,0:0:0:0:
212,36,126730,1,8,0:0:0:0:
252,44,126830,1,8,0:0:0:0:
292,52,126929,2,0,P|308:84|400:100,1,130.000000596046,8|0,3:3|0:0,0:0:0:0:
468,88,127528,1,0,0:0:0:0:
496,160,127728,1,8,0:0:0:0:
404,252,127927,5,0,0:0:0:0:
404,252,128127,2,0,P|332:244|272:276,1,130.000000596046,0|8,0:0|3:3,0:0:0:0:
212,304,128725,1,0,0:0:0:0:
160,248,128925,2,0,L|112:184,1,65.000000298023
140,88,129324,6,0,L|179:140,1,65.000000298023,8|0,0:0|0:0,0:0:0:0:
248,176,129723,1,0,0:0:0:0:
320,148,129923,1,0,0:0:0:0:
348,76,130122,2,0,P|392:120|384:188,1,130.000000596046,8|0,3:3|0:0,0:0:0:0:
344,248,130721,1,0,0:0:0:0:
244,328,130920,6,0,B|208:320|148:368|104:336,1,130.000000596046,8|0,0:0|0:0,0:0:0:0:
48,308,131519,1,0,0:0:0:0:
40,232,131719,2,0,P|52:192|40:88,1,130.000000596046,8|0,3:3|0:0,0:0:0:0:
80,36,132317,1,0,0:0:0:0:
208,60,132517,6,0,L|296:124,1,97.5000004470345,4|0,0:0|0:0,0:0:0:0:
380,188,133115,1,8,0:0:0:0:
368,224,133215,1,8,0:0:0:0:
340,252,133315,2,0,P|304:264|200:232,1,130.000000596046,8|0,3:3|0:0,0:0:0:0:
148,204,133914,1,0,0:0:0:0:
148,204,134113,1,8,0:0:0:0:
145,76,134313,6,0,L|213:58,1,65.000000298023
284,40,134712,1,0,0:0:0:0:
360,60,134911,2,0,P|396:96|428:108,1,65.000000298023,8|0,3:3|0:0,0:0:0:0:
444,116,135211,2,0,L|472:212,1,97.5000004470345
460,288,135710,6,0,L|432:324,2,32.5000001490115,8|0|0,0:0|0:0|0:0,0:0:0:0:
400,240,136109,2,0,L|352:304,1,65.000000298023
308,348,136508,2,0,B|240:328|240:328|200:272,1,130.000000596046,8|0,3:3|0:0,0:0:0:0:
160,216,137106,1,0,0:0:0:0:
132,88,137306,6,0,B|172:72|212:96|212:96|256:68,1,130.000000596046,8|0,0:0|0:0,0:0:0:0:
316,28,137905,1,0,0:0:0:0:
352,36,138004,1,0,0:0:0:0:
388,56,138104,2,0,L|468:176,1,130.000000596046,8|0,3:3|0:0,0:0:0:0:
496,232,138703,1,0,0:0:0:0:
464,304,138902,6,0,L|396:356,1,65.000000298023,4|0,0:0|0:0,0:0:0:0:
372,348,139202,2,0,P|328:328|296:284,1,97.5000004470345,4|8,0:0|0:0,0:0:0:0:
272,260,139601,1,0,0:0:0:0:
256,224,139701,2,0,L|256:120,1,97.5000004470345,8|0,3:3|0:0,0:0:0:0:
256,88,140100,2,0,P|236:52|144:40,1,130.000000596046,8|0,0:0|0:0,0:0:0:0:
52,112,140698,5,0,0:0:0:0:
52,112,140898,2,0,P|60:160|52:248,1,130.000000596046,0|8,0:0|3:3,0:0:0:0:
20,272,141397,1,0,0:0:0:0:
24,316,141496,2,0,L|84:348,1,65.000000298023
160,356,141896,1,0,0:0:0:0:
220,304,142095,6,0,B|224:264|264:252|264:252|316:196,1,130.000000596046,8|0,0:0|0:0,0:0:0:0:
360,156,142694,1,0,0:0:0:0:
368,80,142893,2,0,P|424:112|428:188,1,130.000000596046,8|0,3:3|0:0,0:0:0:0:
360,156,143492,1,0,0:0:0:0:
244,100,143692,6,0,B|188:64|188:64|96:68,1,130.000000596046
52,88,144290,1,0,0:0:0:0:
32,120,144390,1,0,0:0:0:0:
28,160,144490,2,0,P|44:200|48:240,1,65.000000298023,8|0,3:3|0:0,0:0:0:0:
84,292,144889,2,0,L|180:284,1,65.000000298023
224,272,145288,1,0,0:0:0:0:
284,224,145487,6,0,L|308:184,2,32.5000001490115
352,260,145887,2,0,L|388:200,1,65.000000298023
404,168,146186,1,0,0:0:0:0:
420,132,146286,2,0,P|408:92|376:72,1,65.000000298023
316,56,146685,1,0,0:0:0:0:
192,92,146884,6,0,P|168:136|80:124,1,130.000000596046,4|8,0:0|1:1,0:0:0:0:
116,64,147483,1,0,0:0:0:0:
116,64,147683,2,0,L|188:204,1,130.000000596046,8|8,1:1|1:1,0:0:0:0:
212,248,148281,1,0,0:0:0:0:
340,272,148481,6,0,L|428:248,1,65.000000298023,8|0,1:1|0:0,0:0:0:0:
472,160,148880,2,0,L|409:177,1,65.000000298023,8|0,1:1|0:0,0:0:0:0:
284,140,149279,2,0,L|372:116,1,65.000000298023,8|0,1:1|0:0,0:0:0:0:
412,24,149678,2,0,L|349:41,1,65.000000298023,8|0,1:1|0:0,0:0:0:0:
228,88,150077,6,0,P|208:136|252:208,1,130.000000596046,4|8,0:0|1:1,0:0:0:0:
300,252,150676,1,0,0:0:0:0:
356,304,150875,2,0,L|236:372,1,130.000000596046,8|8,1:1|1:1,0:0:0:0:
168,344,151474,1,0,0:0:0:0:
120,284,151674,6,0,L|96:248,2,32.5000001490115,8|0|0,1:1|0:0|0:0,0:0:0:0:
192,252,152073,2,0,L|160:192,1,65.000000298023,8|0,1:1|0:0,0:0:0:0:
120,128,152472,2,0,B|116:92|148:68|148:68|184:16,2,130.000000596046,8|8|8,1:1|1:1|1:1,0:0:0:0:
248,156,153469,5,0,0:0:0:0:
312,200,153669,2,0,L|376:240,1,65.000000298023,8|0,1:1|0:0,0:0:0:0:
488,224,154068,2,0,L|432:189,1,65.000000298023,8|0,1:1|0:0,0:0:0:0:
368,148,154467,1,8,1:1:0:0:
368,148,154667,1,0,0:0:0:0:
256,80,154866,6,0,P|188:108|172:168,1,130.000000596046,8|8,1:1|1:1,0:0:0:0:
172,236,155465,1,0,0:0:0:0:
156,312,155665,2,0,P|112:288|96:264,1,65.000000298023,8|0,1:1|0:0,0:0:0:0:
76,204,156064,2,0,L|44:136,1,65.000000298023,8|0,1:1|0:0,0:0:0:0:
36,108,156363,1,0,0:0:0:0:
24,72,156463,6,0,P|56:32|92:24,1,65.000000298023,4|0,0:0|0:0,0:0:0:0:
144,32,156862,1,8,1:1:0:0:
208,76,157061,1,0,0:0:0:0:
212,152,157261,2,0,P|256:136|280:56,1,130.000000596046,8|8,1:1|1:1,0:0:0:0:
352,32,157860,1,0,0:0:0:0:
424,60,158059,6,0,L|464:120,1,65.000000298023,8|0,1:1|0:0,0:0:0:0:
472,152,158358,1,0,0:0:0:0:
476,192,158458,2,0,P|476:228|488:280,1,65.000000298023,8|0,1:1|0:0,0:0:0:0:
448,328,158857,2,0,L|392:352,7,32.5000001490115,8|0|0|0|0|0|0|0,1:1|0:0|0:0|0:0|0:0|0:0|0:0|0:0,0:0:0:0:
372,356,159656,6,0,B|336:324|280:360|280:360|260:316|224:304,1,162.500000745057,4|8,0:0|3:3,0:0:0:0:
176,264,160254,1,0,0:0:0:0:
116,208,160454,2,0,L|136:128,1,81.2500003725287
232,44,160853,2,0,L|212:122,1,81.2500003725287,8|0,3:3|0:0,0:0:0:0:
272,180,161252,5,0,0:0:0:0:
352,196,161451,1,0,0:0:0:0:
420,156,161651,1,8,3:3:0:0:
416,76,161851,2,0,P|472:96|484:200,1,162.500000745057
448,260,162449,2,0,P|396:288|392:328,1,81.2500003725287,8|0,3:3|0:0,0:0:0:0:
280,340,162848,6,0,B|204:304|204:304|124:300,1,162.500000745057,4|8,0:0|3:3,0:0:0:0:
44,296,163447,1,0,0:0:0:0:
40,216,163647,2,0,P|60:176|48:120,2,81.2500003725287,0|0|8,0:0|0:0|3:3,0:0:0:0:
44,296,164245,1,0,0:0:0:0:
116,256,164445,6,0,L|192:204,1,81.2500003725287
324,184,164844,2,0,L|256:229,1,81.2500003725287,8|0,3:3|0:0,0:0:0:0:
212,300,165243,1,0,0:0:0:0:
280,344,165442,1,0,0:0:0:0:
360,336,165642,1,8,3:3:0:0:
424,284,165842,1,0,0:0:0:0:
400,172,166041,6,0,P|352:112|272:128,1,162.500000745057,4|8,0:0|3:3,0:0:0:0:
204,168,166640,1,0,0:0:0:0:
148,224,166839,2,0,P|71:237|22:177,1,162.500000745057,0|8,0:0|3:3,0:0:0:0:
36,96,167438,1,0,0:0:0:0:
108,56,167638,6,0,P|152:44|184:56,1,81.2500003725287
260,88,168037,2,0,P|298:100|336:88,1,81.2500003725287,8|0,3:3|0:0,0:0:0:0:
408,48,168436,1,0,0:0:0:0:
464,104,168635,1,0,0:0:0:0:
448,184,168835,1,8,3:3:0:0:
376,220,169034,1,0,0:0:0:0:
276,164,169234,6,0,P|212:152|184:68,1,162.500000745057,4|8,0:0|3:3,0:0:0:0:
104,48,169833,1,0,0:0:0:0:
48,108,170032,2,0,L|24:268,1,162.500000745057,0|8,0:0|3:3,0:0:0:0:
112,344,170631,6,0,B|144:320|184:316|184:316|196:272|232:248,1,162.500000745057,4|0,0:0|0:0,0:0:0:0:
304,216,171229,1,8,3:3:0:0:
384,216,171429,2,0,P|344:144|264:148,1,162.500000745057,4|0,0:0|0:0,0:0:0:0:
304,216,172028,1,8,3:3:0:0:
384,216,172227,1,0,0:0:0:0:
448,124,172427,6,0,L|384:64,1,81.2500003725287,4|0,0:0|0:0,0:0:0:0:
316,28,172826,1,8,3:3:0:0:
244,64,173025,2,0,P|216:112|176:128,1,81.2500003725287
120,160,173424,1,0,0:0:0:0:
80,232,173624,2,0,L|100:328,1,81.2500003725287,8|0,3:3|0:0,0:0:0:0:
208,332,174023,6,0,P|268:312|372:328,1,162.500000745057,0|8,0:0|3:3,0:0:0:0:
444,312,174622,2,0,L|400:156,1,162.500000745057
368,80,175220,1,8,3:3:0:0:
288,64,175420,1,0,0:0:0:0:
196,128,175620,6,0,L|136:212,1,81.2500003725287,4|0,0:0|0:0,0:0:0:0:
156,312,176019,2,0,L|203:245,1,81.2500003725287,8|0,3:3|0:0,0:0:0:0:
260,188,176418,1,0,0:0:0:0:
340,184,176617,1,0,0:0:0:0:
408,140,176817,6,0,P|416:212|344:264,1,162.500000745057,8|0,3:3|0:0,0:0:0:0:
340,184,177415,1,0,0:0:0:0:
304,112,177615,2,0,B|268:84|232:84|232:84|140:32,1,162.500000745057,8|0,3:3|0:0,0:0:0:0:
80,20,178214,1,0,0:0:0:0:
64,100,178413,1,8,3:3:0:0:
92,176,178613,1,0,0:0:0:0:
196,224,178812,6,0,B|180:268|148:280|148:280|236:356,1,162.500000745057,4|8,0:0|3:3,0:0:0:0:
292,356,179411,1,0,0:0:0:0:
368,328,179611,2,0,P|408:284|408:172,1,162.500000745057,0|8,0:0|3:3,0:0:0:0:
364,120,180209,1,0,0:0:0:0:
300,72,180409,6,0,P|268:48|208:24,1,81.2500003725287
184,100,180808,2,0,P|147:82|114:58,1,81.2500003725287,8|0,3:3|0:0,0:0:0:0:
44,16,181207,1,0,0:0:0:0:
20,92,181406,1,0,0:0:0:0:
44,168,181606,1,8,3:3:0:0:
108,216,181806,1,0,0:0:0:0:
220,220,182005,6,0,B|304:216|304:216|384:164,1,162.500000745057,4|8,0:0|3:3,0:0:0:0:
432,124,182604,1,0,0:0:0:0:
380,64,182803,2,0,P|296:76|224:40,1,162.500000745057,0|8,0:0|3:3,0:0:0:0:
148,20,183402,1,0,0:0:0:0:
256,192,183602,12,4,185198,0:0:0:0:
