osu file format v14

[General]
AudioFilename: Nightcore - Run (1).mp3
AudioLeadIn: 0
PreviewTime: 50452
Countdown: 0
SampleSet: Soft
StackLeniency: 0.7
Mode: 0
LetterboxInBreaks: 0
WidescreenStoryboard: 0

[Editor]
Bookmarks: 12787,25558,51100,67064,75445,92607,105378,121342,146884,172427,174223
DistanceSpacing: 2
BeatDivisor: 4
GridSize: 8
TimelineZoom: 2.1

[Metadata]
Title:Run ft. RedFoo of LMFAO (Speed Up Ver.)
TitleUnicode:Run ft. RedFoo of LMFAO (Speed Up Ver.)
Artist:Flo Rida
ArtistUnicode:Flo Rida
Creator:ohad1881
Version:Insane
Source:
Tags:nightcore WILD ONES A Mystery to you -Nya- rap
BeatmapID:641441
BeatmapSetID:283731

[Difficulty]
HPDrainRate:6.5
CircleSize:4
OverallDifficulty:8
ApproachRate:9
SliderMultiplier:1.50000000596046
SliderTickRate:1

[Events]
//Background and Video events
0,0,"aaaa.jpg",0,0
//Break Periods
2,63971,66464
2,118249,120742
//Storyboard Layer 0 (Background)
//Storyboard Layer 1 (Fail)
//Storyboard Layer 2 (Pass)
//Storyboard Layer 3 (Foreground)
//Storyboard Sound Samples

[TimingPoints]
16,399.1,4,2,1,50,1,0
25558,-100,4,2,1,50,0,0
38329,-100,4,2,1,35,0,0
38529,-111.111111111111,4,2,1,35,0,0
41522,-80,4,2,1,35,0,0
41921,-100,4,2,1,35,0,0
42320,-133.333333333333,4,2,1,35,0,0
42719,-200,4,2,1,35,0,0
43118,-100,4,2,1,35,0,0
44715,-100,4,2,1,50,0,0
49504,-66.6666666666667,4,2,1,50,0,0
50502,-100,4,2,1,50,0,0
51100,-66.6666666666667,4,2,1,80,0,1
63872,-100,4,2,1,50,0,0
92607,-100,4,2,1,35,0,0
95800,-83.3333333333333,4,2,1,35,0,0
96199,-100,4,2,1,35,0,0
96598,-133.333333333333,4,2,1,35,0,0
96997,-200,4,2,1,35,0,0
97396,-100,4,2,1,35,0,0
98992,-100,4,2,1,50,0,0
103782,-66.6666666666667,4,2,1,50,0,0
104779,-100,4,2,1,50,0,0
105378,-66.6666666666667,4,2,1,80,0,1
117950,-50,4,2,1,80,0,1
118149,-100,4,2,1,50,0,0
127328,-100,4,2,1,25,0,0
127927,-100,4,2,1,50,0,0
133714,-100,4,2,1,25,0,0
134313,-100,4,2,1,50,0,0
146884,-83.3333333333333,4,2,1,50,0,0
156463,-74.0740740740741,4,2,1,50,0,0
159057,-58.8235294117647,4,2,1,50,0,0
159656,-66.6666666666667,4,2,1,80,0,1
172227,-66.6666666666667,4,2,1,80,0,0
172427,-66.6666666666667,4,2,1,80,0,1
185198,-100,4,2,1,50,0,0

[Colours]
Combo1 : 0,128,192
Combo2 : 255,128,192
Combo3 : 255,0,0

[HitObjects]
296,176,12587,5,8,0:0:0:0:
318,145,12687,1,8,0:0:0:0:
341,115,12787,2,0,P|354:93|376:67,2,37.5000001490115,0|0|0,0:0|0:0|0:0,0:0:0:0:
250,227,13186,2,0,P|205:222|152:232,1,75.000000298023,8|0,0:0|0:0,0:0:0:0:
143,245,13485,1,0,0:0:0:0:
110,263,13585,2,0,P|72:266|35:261,1,75.000000298023,0|0,0:0|0:0,0:0:0:0:
136,149,13984,2,0,P|173:145|210:150,1,75.000000298023,8|2,0:0|0:0,0:0:0:0:
423,170,14383,5,0,0:0:0:0:
250,227,14583,1,0,0:0:0:0:
250,227,14682,1,0,0:0:0:0:
250,227,14782,1,8,0:0:0:0:
357,79,14982,1,0,0:0:0:0:
357,262,15181,1,0,0:0:0:0:
250,114,15381,2,0,P|213:104|200:96,1,37.5000001490115
181,78,15580,2,0,P|151:61|86:48,1,75.000000298023,8|0,0:0|0:0,0:0:0:0:
104,192,15980,5,0,0:0:0:0:
219,263,16179,1,0,0:0:0:0:
234,229,16278,1,0,0:0:0:0:
262,204,16379,1,8,0:0:0:0:
297,191,16478,1,0,0:0:0:0:
334,192,16578,2,0,L|278:127,1,75.000000298023,0|0,0:0|0:0,0:0:0:0:
104,192,16977,5,0,0:0:0:0:
120,226,17076,1,0,0:0:0:0:
147,251,17176,1,8,0:0:0:0:
182,264,17276,1,0,0:0:0:0:
219,263,17376,2,0,L|170:319,1,75.000000298023,2|0,0:0|0:0,0:0:0:0:
51,359,17775,5,0,0:0:0:0:
120,226,17975,2,0,L|164:166,1,75.000000298023,8|0,0:0|0:0,0:0:0:0:
280,283,18374,2,0,L|324:343,1,75.000000298023
437,225,18773,2,0,P|402:191|361:184,1,75.000000298023,8|8,0:0|0:0,0:0:0:0:
340,178,19072,1,8,0:0:0:0:
303,180,19172,6,0,P|268:166|244:139,1,75.000000298023
224,109,19471,1,0,0:0:0:0:
206,74,19571,2,0,L|241:-22,1,75.000000298023,8|0,0:0|0:0,0:0:0:0:
348,58,19971,1,0,0:0:0:0:
303,180,20170,2,0,L|278:237,1,37.5000001490115
266,293,20370,2,0,P|216:294|160:306,1,75.000000298023,8|0,0:0|0:0,0:0:0:0:
78,331,20769,5,2,0:0:0:0:
119,218,20968,2,0,L|144:154,1,37.5000001490115
161,112,21168,2,0,P|200:110|246:97,1,75.000000298023,8|0,0:0|0:0,0:0:0:0:
269,78,21467,1,0,0:0:0:0:
300,50,21567,2,0,P|336:41|373:39,1,75.000000298023,0|0,0:0|0:0,0:0:0:0:
497,124,21966,1,8,0:0:0:0:
360,187,22166,1,0,0:0:0:0:
484,270,22365,5,0,0:0:0:0:
419,134,22565,1,0,0:0:0:0:
484,270,22764,2,0,P|476:332|455:370,1,75.000000298023,8|0,0:0|0:0,0:0:0:0:
346,272,23163,1,0,0:0:0:0:
326,240,23262,1,0,0:0:0:0:
297,216,23362,1,0,0:0:0:0:
262,204,23462,1,0,0:0:0:0:
225,204,23562,2,0,L|285:144,1,75.000000298023,8|0,0:0|0:0,0:0:0:0:
370,85,23962,5,2,0:0:0:0:
436,175,24161,2,0,L|438:225,1,37.5000001490115,0|0,0:0|0:0,0:0:0:0:
441,288,24361,2,0,P|380:303|344:299,1,75.000000298023,8|0,0:0|0:0,0:0:0:0:
327,296,24660,1,0,0:0:0:0:
287,284,24760,2,0,P|249:286|214:298,1,75.000000298023,0|8,0:0|0:0,0:0:0:0:
386,224,25159,1,8,0:0:0:0:
263,359,25358,1,8,0:0:0:0:
192,226,25558,5,4,0:0:0:0:
181,191,25657,1,0,0:0:0:0:
170,156,25757,1,0,0:0:0:0:
159,119,25857,1,0,0:0:0:0:
148,84,25957,2,0,P|105:95|89:95,1,37.5000001490115,8|0,0:0|0:0,0:0:0:0:
1,46,26157,2,0,P|43:34|59:34,1,37.5000001490115,0|0,0:0|0:0,0:0:0:0:
133,9,26356,5,0,0:0:0:0:
77,148,26556,1,0,0:0:0:0:
222,111,26755,1,8,0:0:0:0:
76,71,26955,1,0,0:0:0:0:
93,221,27154,5,0,0:0:0:0:
97,257,27253,1,0,0:0:0:0:
115,290,27353,1,0,0:0:0:0:
145,313,27453,1,0,0:0:0:0:
181,322,27553,2,0,L|238:323,1,37.5000001490115,8|0,0:0|0:0,0:0:0:0:
352,259,27753,2,0,L|295:258,1,37.5000001490115,0|0,0:0|0:0,0:0:0:0:
216,250,27953,5,0,0:0:0:0:
250,102,28152,1,0,0:0:0:0:
93,221,28352,1,8,0:0:0:0:
59,73,28551,1,0,0:0:0:0:
273,182,28751,6,0,P|328:176|366:151,1,75.000000298023
440,112,29150,2,0,L|464:140,1,37.5000001490115,8|0,0:0|0:0,0:0:0:0:
424,232,29349,2,0,L|448:260,1,37.5000001490115
352,320,29549,2,0,P|296:320|256:312,1,75.000000298023
273,182,29948,2,0,P|329:182|369:190,1,75.000000298023,8|0,0:0|0:0,0:0:0:0:
163,250,30347,5,0,0:0:0:0:
125,247,30446,1,0,0:0:0:0:
89,237,30546,1,0,0:0:0:0:
56,220,30646,1,0,0:0:0:0:
27,196,30746,2,0,L|10:137,1,37.5000001490115,8|0,0:0|0:0,0:0:0:0:
82,54,30946,2,0,L|99:113,1,37.5000001490115
206,135,31145,6,0,L|188:75,1,37.5000001490115
292,23,31345,1,0,0:0:0:0:
306,193,31544,2,0,P|292:254|234:284,1,112.500000447034,8|0,0:0|0:0,0:0:0:0:
253,280,31944,5,0,0:0:0:0:
411,273,32143,1,0,0:0:0:0:
482,140,32343,2,0,L|466:65,1,75.000000298023,8|0,0:0|0:0,0:0:0:0:
314,33,32742,2,0,L|330:108,1,75.000000298023
319,145,33041,1,0,0:0:0:0:
305,183,33141,2,0,L|321:258,1,75.000000298023,8|0,0:0|0:0,0:0:0:0:
165,84,33540,5,0,0:0:0:0:
305,183,33739,1,0,0:0:0:0:
241,46,33939,1,8,0:0:0:0:
225,217,34138,1,0,0:0:0:0:
313,95,34338,1,0,0:0:0:0:
157,166,34537,1,0,0:0:0:0:
305,183,34737,2,0,P|358:181|400:207,1,75.000000298023,8|0,0:0|0:0,0:0:0:0:
341,298,35136,6,0,P|288:300|246:274,1,75.000000298023
228,271,35436,1,0,0:0:0:0:
194,241,35535,2,0,P|159:229|122:233,1,75.000000298023,8|0,0:0|0:0,0:0:0:0:
191,99,35935,2,0,L|225:62,2,37.5000001490115
122,233,36334,2,0,P|110:299|90:327,1,75.000000298023,8|0,0:0|0:0,0:0:0:0:
294,165,36733,6,0,L|376:170,1,75.000000298023
398,192,37032,1,0,0:0:0:0:
429,213,37132,2,0,L|503:216,1,75.000000298023,8|0,0:0|0:0,0:0:0:0:
478,107,37531,1,0,0:0:0:0:
294,165,37730,1,0,0:0:0:0:
379,14,37930,1,8,0:0:0:0:
414,144,38130,1,0,0:0:0:0:
230,106,38329,5,4,0:0:0:0:
244,240,38529,1,0,0:0:0:0:
230,106,38728,2,0,P|196:101|163:104,1,67.4999982082842,8|0,0:0|0:0,0:0:0:0:
177,239,39127,2,0,P|210:243|244:240,2,67.4999982082842,8|0|8,0:0|0:0|0:0,0:0:0:0:
72,112,39726,1,0,0:0:0:0:
177,239,39926,5,8,0:0:0:0:
196,92,40125,1,0,0:0:0:0:
277,226,40325,2,0,P|273:268|242:312,1,67.4999982082842,8|0,0:0|0:0,0:0:0:0:
77,253,40724,2,0,P|80:210|111:166,1,67.4999982082842,8|0,0:0|0:0,0:0:0:0:
114,160,41023,1,0,0:0:0:0:
131,126,41123,2,0,P|144:95|144:61,1,67.4999982082842,8|0,0:0|0:0,0:0:0:0:
283,85,41522,6,0,L|384:92,1,93.7500003725287,8|0,0:0|0:0,0:0:0:0:
209,161,41921,6,0,L|217:235,1,75.000000298023,8|0,0:0|0:0,0:0:0:0:
321,172,42320,6,0,L|386:176,1,56.2500023692846,8|0,0:0|0:0,0:0:0:0:
290,251,42719,6,0,L|294:288,1,37.5000001490115,8|0,0:0|0:0,0:0:0:0:
261,64,43118,6,0,P|204:66|138:51,1,112.500000447034,8|0,0:0|0:0,0:0:0:0:
149,55,43517,1,8,0:0:0:0:
200,196,43717,1,0,0:0:0:0:
283,48,43917,2,0,L|319:125,1,75.000000298023,8|0,0:0|0:0,0:0:0:0:
200,196,44316,2,0,L|164:273,1,75.000000298023,8|0,0:0|0:0,0:0:0:0:
410,189,44715,5,4,0:0:0:0:
322,310,44914,1,0,0:0:0:0:
269,169,45114,1,2,0:0:0:0:
400,272,45313,1,8,0:1:0:0:
349,114,45513,1,0,0:0:0:0:
278,246,45712,1,0,0:0:0:0:
255,40,45912,1,8,0:1:0:0:
456,96,46112,1,0,0:0:0:0:
269,169,46311,5,2,0:0:0:0:
368,40,46511,1,8,0:1:0:0:
424,192,46710,2,0,P|448:240|472:264,1,75.000000298023,0|2,0:0|0:0,0:0:0:0:
278,246,47109,2,0,L|168:248,1,75.000000298023,8|0,0:1|0:0,0:0:0:0:
296,88,47508,2,0,L|368:160,1,75.000000298023,8|8,0:1|0:0,0:0:0:0:
384,154,47808,1,8,0:0:0:0:
418,168,47908,6,0,L|490:240,1,75.000000298023,8|0,1:1|1:1,1:1:0:0:
166,220,48307,2,0,L|220:167,1,75.000000298023,8|0,1:1|1:1,1:1:0:0:
384,57,48706,1,8,1:1:0:0:
302,182,48905,1,0,1:1:0:0:
255,40,49105,1,8,1:1:0:0:
369,136,49304,1,0,1:1:0:0:
230,129,49504,5,8,1:1:0:0:
193,170,49604,1,0,1:1:0:0:
140,186,49703,1,8,1:1:0:0:
86,173,49803,1,0,1:1:0:0:
47,133,49903,2,0,L|0:164,1,56.2500023692846,8|0,1:1|1:1,1:1:0:0:
4,278,50103,2,0,L|50:246,1,56.2500023692846,0|0,1:1|1:1,1:1:0:0:
293,264,50502,6,0,P|255:260|190:274,2,75.000000298023
380,145,51100,6,0,P|391:64|381:34,1,112.500004738569,4|0,3:3|3:3,3:3:0:0:
190,154,51499,2,0,P|179:235|189:265,1,112.500004738569,8|0,3:3|3:3,3:3:0:0:
277,100,51899,1,0,3:3:0:0:
360,272,52098,1,0,3:3:0:0:
188,262,52298,2,0,L|35:248,1,112.500004738569,8|0,3:3|3:3,3:3:0:0:
277,100,52697,6,0,L|388:110,1,112.500004738569,0|0,3:3|3:3,3:3:0:0:
483,250,53096,1,8,3:3:0:0:
276,338,53295,2,0,P|255:288|270:215,1,112.500004738569,0|0,3:3|3:3,3:3:0:0:
455,115,53694,1,0,3:3:0:0:
237,54,53894,2,0,P|287:33|360:48,1,112.500004738569,8|0,3:3|3:3,3:3:0:0:
512,268,54293,6,0,P|462:289|389:273,1,112.500004738569,0|0,3:3|3:3,3:3:0:0:
213,187,54692,1,8,3:3:0:0:
84,358,54892,1,0,3:3:0:0:
35,138,55091,2,0,B|35:75|35:75|9:0,1,112.500004738569,0|0,3:3|3:3,3:3:0:0:
213,187,55490,2,0,B|213:250|213:250|239:325,1,112.500004738569,8|0,3:3|3:3,3:3:0:0:
260,53,55890,6,0,P|198:48|113:83,1,112.500004738569,0|0,3:3|3:3,3:3:0:0:
143,298,56289,2,0,P|205:303|290:268,1,112.500004738569,8|0,3:3|3:3,3:3:0:0:
36,353,56688,1,0,3:3:0:0:
105,199,56887,1,0,3:3:0:0:
253,290,57087,2,0,L|210:182,1,112.500004738569,8|0,3:3|3:3,3:3:0:0:
94,79,57486,5,0,3:3:0:0:
228,84,57685,1,0,3:3:0:0:
105,199,57885,2,0,P|88:251|108:303,1,112.500004738569,8|0,3:3|3:3,3:3:0:0:
233,189,58284,2,0,P|248:136|229:85,1,112.500004738569,0|0,3:3|3:3,3:3:0:0:
94,79,58683,1,8,3:3:0:0:
316,40,58883,1,0,3:3:0:0:
233,189,59082,5,0,3:3:0:0:
449,126,59282,1,0,3:3:0:0:
366,334,59481,1,8,3:3:0:0:
284,152,59681,2,0,P|225:126|218:250,1,225.000009477138,0|0,3:3|3:3,3:3:0:0:
366,334,60280,1,8,3:3:0:0:
394,137,60479,1,0,3:3:0:0:
233,189,60679,5,0,3:3:0:0:
452,237,60878,1,0,3:3:0:0:
249,302,61078,2,0,P|165:341|130:371,1,112.500004738569,8|0,3:3|3:3,3:3:0:0:
233,189,61477,2,0,P|317:150|352:120,1,112.500004738569,0|0,3:3|3:3,3:3:0:0:
440,57,61876,1,8,3:3:0:0:
398,222,62076,1,0,3:3:0:0:
233,189,62275,6,0,P|171:144|95:122,1,112.500004738569,0|0,3:3|3:3,3:3:0:0:
94,120,62574,1,0,3:3:0:0:
49,114,62674,2,0,L|134:14,1,112.500004738569,8|0,3:3|3:3,3:3:0:0:
313,32,63073,1,0,3:3:0:0:
312,223,63273,1,0,3:3:0:0:
312,223,63373,1,0,3:3:0:0:
312,223,63472,1,8,3:3:0:0:
194,46,63672,2,0,P|145:18|134:15,1,56.2500023692846,0|0,3:3|3:3,3:3:0:0:
172,194,67064,6,0,P|234:171|265:131,1,112.500000447034
309,77,67463,2,0,P|356:122|398:134,1,75.000000298023,8|0,0:0|0:0,0:0:0:0:
479,183,67863,1,0,0:0:0:0:
361,275,68062,1,0,0:0:0:0:
364,125,68262,2,0,P|381:80|372:40,1,75.000000298023,8|0,0:0|0:0,0:0:0:0:
230,26,68661,6,0,P|213:71|222:111,1,75.000000298023,2|0,0:0|0:0,0:0:0:0:
226,132,68960,1,0,0:0:0:0:
241,166,69060,2,0,P|242:203|227:236,1,75.000000298023,8|0,0:0|0:0,0:0:0:0:
206,268,69359,1,0,0:0:0:0:
182,296,69459,2,0,L|79:301,1,75.000000298023
6,187,69858,2,0,L|109:182,1,75.000000298023,8|0,0:0|0:0,0:0:0:0:
241,166,70257,5,0,0:0:0:0:
164,36,70457,2,0,L|135:-8,1,37.5000001490115
82,60,70656,2,0,L|45:52,1,37.5000001490115,8|0,0:0|0:0,0:0:0:0:
37,135,70856,2,0,L|5:155,1,37.5000001490115
71,205,71055,2,0,B|107:200|107:200|166:210,1,75.000000298023
273,101,71454,2,0,B|237:106|237:106|178:95,1,75.000000298023,8|0,0:0|0:0,0:0:0:0:
405,209,71854,5,2,0:0:0:0:
381,46,72053,1,0,0:0:0:0:
298,173,72253,2,0,P|293:228|307:269,1,75.000000298023,8|0,0:0|0:0,0:0:0:0:
312,276,72552,1,0,0:0:0:0:
322,308,72652,2,0,P|327:344|321:381,1,75.000000298023
456,316,73051,2,0,P|451:280|457:243,1,75.000000298023,8|8,0:0|0:0,0:0:0:0:
462,208,73350,1,8,0:0:0:0:
466,175,73450,6,0,P|472:138|467:101,1,75.000000298023
433,102,73749,1,0,0:0:0:0:
399,106,73849,2,0,P|356:110|338:107,1,37.5000001490115,8|0,0:0|0:0,0:0:0:0:
349,192,74049,2,0,P|392:188|410:191,1,37.5000001490115
385,274,74248,2,0,P|312:276|287:266,1,75.000000298023
166,260,74647,2,0,P|128:255|92:261,1,75.000000298023,8|0,0:0|0:0,0:0:0:0:
193,150,75046,6,0,L|261:232,1,75.000000298023,2|0,0:0|0:0,0:0:0:0:
232,38,75445,2,0,P|194:33|158:39,1,75.000000298023,8|0,0:0|0:0,0:0:0:0:
132,67,75745,1,0,0:0:0:0:
107,95,75845,2,0,P|113:131|108:168,1,75.000000298023
97,204,76144,1,0,0:0:0:0:
83,239,76244,2,0,P|76:275|81:312,1,75.000000298023
231,312,76643,6,0,P|269:306|327:324,1,75.000000298023,0|0,0:0|0:0,0:0:0:0:
136,167,77042,2,0,P|142:205|124:263,1,75.000000298023,8|0,0:0|0:0,0:0:0:0:
281,72,77441,2,0,P|243:78|185:60,1,75.000000298023,0|0,0:0|0:0,0:0:0:0:
376,217,77840,2,0,P|370:179|388:121,1,75.000000298023,8|0,0:0|0:0,0:0:0:0:
447,11,78239,5,2,0:0:0:0:
315,84,78439,2,0,P|299:100|271:113,1,37.5000001490115,0|0,0:0|0:0,0:0:0:0:
245,118,78638,2,0,P|212:139|179:187,1,75.000000298023,8|0,0:0|0:0,0:0:0:0:
330,218,79037,2,0,P|363:197|396:149,1,75.000000298023,0|0,0:0|0:0,0:0:0:0:
277,65,79436,1,8,0:0:0:0:
197,193,79636,2,0,L|166:147,1,37.5000001490115,0|0,0:0|0:0,0:0:0:0:
109,121,79836,5,4,0:0:0:0:
109,121,79935,1,0,0:0:0:0:
109,121,80035,2,0,L|90:172,1,37.5000001490115
75,229,80235,2,0,P|134:247|155:245,1,75.000000298023,8|0,0:0|0:0,0:0:0:0:
182,235,80534,1,0,0:0:0:0:
217,222,80634,6,0,P|254:224|288:239,1,75.000000298023
321,221,80933,1,0,0:0:0:0:
348,194,81033,2,0,L|397:129,1,75.000000298023,8|0,0:0|0:0,0:0:0:0:
394,260,81432,6,0,L|394:316,1,37.5000001490115
320,351,81631,2,0,L|320:313,1,37.5000001490115
321,221,81831,2,0,P|280:218|214:231,1,75.000000298023,8|0,0:0|0:0,0:0:0:0:
212,237,82130,1,0,0:0:0:0:
176,249,82230,6,0,P|138:252|101:249,1,75.000000298023
146,69,82629,2,0,L|142:154,1,75.000000298023,8|0,0:0|0:0,0:0:0:0:
321,221,83028,5,0,0:0:0:0:
360,230,83127,1,0,0:0:0:0:
398,217,83227,1,0,0:0:0:0:
423,185,83327,1,0,0:0:0:0:
426,144,83427,1,8,0:0:0:0:
407,109,83526,1,0,0:0:0:0:
371,90,83626,1,0,0:0:0:0:
330,94,83726,1,0,0:0:0:0:
298,119,83826,5,0,0:0:0:0:
179,272,84026,1,0,0:0:0:0:
113,112,84226,1,8,0:0:0:0:
237,202,84425,2,0,L|277:240,1,37.5000001490115
312,169,84625,2,0,L|284:143,1,37.5000001490115
339,91,84824,2,0,L|379:129,1,37.5000001490115
428,160,85024,1,8,0:0:0:0:
341,282,85223,1,0,0:0:0:0:
284,143,85423,5,0,0:0:0:0:
404,231,85622,1,0,0:0:0:0:
254,216,85822,1,8,0:0:0:0:
339,91,86022,1,0,0:0:0:0:
328,240,86221,5,0,0:0:0:0:
433,133,86421,1,0,0:0:0:0:
249,211,86620,2,0,P|211:212|174:206,2,75.000000298023,8|0|0,0:0|0:0|0:0,0:0:0:0:
340,290,87219,2,0,L|345:235,1,37.5000001490115
395,166,87419,2,0,P|432:164|469:170,2,75.000000298023,8|0|0,0:0|0:0|0:0,0:0:0:0:
176,179,88017,5,0,0:0:0:0:
176,179,88117,1,0,0:0:0:0:
176,179,88217,2,0,P|170:225|150:262,1,75.000000298023,8|0,0:0|0:0,0:0:0:0:
133,277,88516,1,0,0:0:0:0:
111,307,88616,2,0,P|96:341|93:378,1,75.000000298023
89,199,89015,1,8,0:0:0:0:
182,362,89214,1,0,0:0:0:0:
336,254,89414,5,0,0:0:0:0:
218,163,89613,1,0,0:0:0:0:
366,139,89813,2,0,P|381:69|390:37,2,75.000000298023,8|0|0,0:0|0:0|0:0,0:0:0:0:
336,254,90412,1,0,0:0:0:0:
202,236,90611,2,0,P|217:166|226:134,2,75.000000298023,8|0|0,0:0|0:0|0:0,0:0:0:0:
112,360,91210,1,0,0:0:0:0:
77,345,91309,1,0,0:0:0:0:
49,320,91409,1,8,0:0:0:0:
30,288,91509,1,0,0:0:0:0:
21,252,91609,1,0,0:0:0:0:
24,215,91708,1,0,0:0:0:0:
39,180,91809,6,0,P|96:208|128:216,1,75.000000298023
312,128,92208,2,0,P|255:100|223:92,1,75.000000298023,8|0,0:0|0:0,0:0:0:0:
419,22,92607,5,4,0:0:0:0:
464,164,92806,2,0,P|441:191|422:232,1,75.000000298023,0|8,0:0|0:0,0:0:0:0:
386,372,93205,1,0,0:0:0:0:
325,234,93405,1,8,0:0:0:0:
454,309,93604,1,0,0:0:0:0:
304,324,93804,2,0,P|231:348|226:351,1,75.000000298023,8|0,0:0|0:0,0:0:0:0:
109,260,94203,6,0,P|181:235|186:232,1,75.000000298023,8|0,0:0|0:0,0:0:0:0:
208,211,94502,1,0,0:0:0:0:
229,180,94602,2,0,P|263:164|300:156,1,75.000000298023,8|0,0:0|0:0,0:0:0:0:
447,188,95001,1,8,0:0:0:0:
345,298,95201,1,0,0:0:0:0:
300,156,95400,1,8,0:0:0:0:
404,47,95600,1,0,0:0:0:0:
366,192,95800,6,0,P|339:222|287:259,1,89.9999976110456,8|0,0:0|0:0,0:0:0:0:
321,120,96199,6,0,P|299:88|283:46,1,75.000000298023,8|0,0:0|0:0,0:0:0:0:
243,190,96598,6,0,P|210:209|185:216,1,56.2500023692846,8|0,0:0|0:0,0:0:0:0:
233,115,96997,6,0,P|214:81|213:66,1,37.5000001490115,8|0,0:0|0:0,0:0:0:0:
390,41,97396,6,0,P|411:101|385:162,1,112.500000447034,8|0,0:0|0:0,0:0:0:0:
364,164,97795,2,0,L|469:153,1,75.000000298023,8|0,0:0|0:0,0:0:0:0:
349,312,98194,2,0,L|244:323,1,75.000000298023,8|0,0:0|0:0,0:0:0:0:
130,211,98593,2,0,L|205:208,1,75.000000298023,8|0,0:0|0:0,0:0:0:0:
410,189,98993,5,12,0:0:0:0:
317,306,99192,1,0,0:0:0:0:
281,160,99391,2,0,P|265:97|245:69,1,75.000000298023,2|8,0:0|0:1,0:0:0:0:
410,189,99791,2,0,P|426:252|446:279,1,75.000000298023
299,282,100190,2,0,L|202:286,1,75.000000298023,8|0,0:1|0:0,0:0:0:0:
281,133,100589,6,0,L|378:129,1,75.000000298023,2|8,0:0|0:1,0:0:0:0:
390,114,100888,1,0,0:0:0:0:
423,96,100988,2,0,L|520:92,1,75.000000298023,0|2,0:0|0:0,0:0:0:0:
326,192,101387,2,0,L|281:133,1,75.000000298023,8|0,0:1|0:0,0:0:0:0:
169,32,101786,1,8,0:1:0:0:
175,168,101986,1,8,0:0:0:0:
175,168,102085,1,8,0:0:0:0:
175,168,102185,5,8,1:1:0:0:
291,252,102385,1,0,1:1:0:0:
210,66,102584,1,8,1:1:0:0:
372,188,102784,1,0,1:1:0:0:
188,273,102983,1,8,1:1:0:0:
304,104,103183,1,0,1:1:0:0:
72,168,103382,1,8,1:1:0:0:
199,13,103582,1,0,1:1:0:0:
255,208,103782,5,8,1:1:0:0:
276,251,103881,1,0,1:1:0:0:
311,285,103981,1,0,1:1:0:0:
356,303,104081,1,0,1:1:0:0:
404,305,104181,6,0,L|390:367,1,56.2500023692846,8|0,1:1|1:1,1:1:0:0:
499,328,104380,2,0,L|511:273,1,56.2500023692846,8|0,1:1|1:1,1:1:0:0:
291,216,104779,6,0,P|285:198|286:127,2,75.000000298023
142,256,105378,6,0,B|80:259|80:259|54:240|42:193,1,112.500004738569,4|0,3:3|3:3,3:3:0:0:
252,118,105777,2,0,B|314:115|314:115|340:134|352:181,1,112.500004738569,8|0,3:3|3:3,3:3:0:0:
142,256,106176,1,0,3:3:0:0:
252,118,106376,1,0,3:3:0:0:
316,285,106575,1,8,3:3:0:0:
146,138,106775,1,0,3:3:0:0:
326,84,106974,6,0,P|410:81|441:98,1,112.500004738569,0|0,3:3|3:3,3:3:0:0:
287,216,107373,1,8,3:3:0:0:
147,84,107573,2,0,P|63:81|32:98,1,112.500004738569,0|0,3:3|3:3,3:3:0:0:
343,159,107972,1,0,3:3:0:0:
218,274,108172,2,0,P|176:311|155:362,1,112.500004738569,8|0,3:3|3:3,3:3:0:0:
406,247,108571,6,0,P|384:195|342:158,1,112.500004738569,0|0,3:3|3:3,3:3:0:0:
184,168,108970,1,8,3:3:0:0:
289,284,109169,1,0,3:3:0:0:
286,120,109369,1,0,3:3:0:0:
160,220,109568,1,0,3:3:0:0:
355,249,109768,1,8,3:3:0:0:
208,82,109968,1,0,3:3:0:0:
201,300,110168,5,0,3:3:0:0:
340,187,110367,1,0,3:3:0:0:
381,362,110567,1,8,3:3:0:0:
411,162,110766,1,0,3:3:0:0:
286,313,110966,1,0,3:3:0:0:
236,125,111165,1,0,3:3:0:0:
174,315,111364,2,0,P|255:311|300:315,1,112.500004738569,8|0,3:3|3:3,3:3:0:0:
333,321,111664,1,0,3:3:0:0:
378,320,111764,6,0,B|398:278|398:278|397:235|357:209,1,112.500004738569,0|0,3:3|3:3,3:3:0:0:
168,192,112163,1,8,3:3:0:0:
398,267,112362,2,0,B|469:210|469:210|354:144|373:230,1,225.000009477138,0|0,3:3|3:3,3:3:0:0:
284,339,112961,1,8,3:3:0:0:
468,209,113160,1,0,3:3:0:0:
301,127,113360,6,0,P|247:91|208:50,1,112.500004738569,0|0,3:3|3:3,3:3:0:0:
89,53,113759,1,8,3:3:0:0:
340,34,113959,2,0,P|401:128|337:223,1,225.000009477138,0|0,3:3|3:3,3:3:0:0:
1,121,114557,6,0,P|41:82|89:53,1,112.500004738569,8|0,3:3|3:3,3:3:0:0:
89,331,114956,2,0,P|41:302|1:263,1,112.500004738569,0|0,3:3|3:3,3:3:0:0:
215,194,115355,2,0,L|379:193,1,112.500004738569,8|0,3:3|3:3,3:3:0:0:
138,63,115755,2,0,L|49:183,1,112.500004738569,0|0,3:3|3:3,3:3:0:0:
441,153,116154,2,0,L|374:63,1,112.500004738569,8|0,3:3|3:3,3:3:0:0:
200,281,116553,5,0,3:3:0:0:
260,129,116752,1,0,3:3:0:0:
260,129,116852,1,0,3:3:0:0:
260,129,116952,1,8,3:3:0:0:
396,307,117151,1,0,3:3:0:0:
487,100,117351,1,0,3:3:0:0:
333,248,117550,2,0,P|292:263|277:264,1,56.2500023692846,0|0,3:3|3:3,3:3:0:0:
200,281,117750,1,8,3:3:0:0:
384,160,117950,2,0,P|436:222|439:229,1,75.000000298023,0|0,3:3|3:3,3:3:0:0:
256,192,121342,6,0,L|240:144,1,37.5000001490115,0|0,2:2|2:2,2:2:0:0:
302,60,121541,2,0,L|320:13,1,37.5000001490115,0|0,2:2|2:2,2:2:0:0:
188,30,121741,2,0,B|177:69|177:69|151:98,1,75.000000298023,0|0,2:2|2:2,2:2:0:0:
128,133,122040,1,0,0:0:0:0:
104,175,122140,2,0,B|123:217|148:250,1,75.000000298023,8|0,2:2|2:2,2:2:0:0:
202,295,122439,2,0,L|243:247,1,37.5000001490115,0|0,2:2|2:2,2:2:0:0:
434,105,122839,1,0,2:2:0:0:
396,107,122938,6,0,P|335:109|307:106,1,75.000000298023,0|0,2:2|2:2,2:2:0:0:
145,203,123337,2,0,P|182:201|220:203,1,75.000000298023,0|0,2:2|2:2,2:2:0:0:
396,107,123737,1,8,2:2:0:0:
246,96,123936,2,0,L|199:96,1,37.5000001490115,0|0,2:2|2:2,2:2:0:0:
146,272,124335,1,0,2:2:0:0:
236,178,124535,6,0,P|291:166|328:106,2,112.500000447034,0|0|0,2:2|2:2|2:2,2:2:0:0:
195,183,125233,1,0,2:2:0:0:
153,186,125333,2,0,P|98:198|61:258,2,112.500000447034,8|0|0,2:2|2:2|2:2,2:2:0:0:
187,82,126131,6,0,L|303:34,1,112.500000447034,2|0,2:2|2:2,2:2:0:0:
353,13,126530,2,0,B|373:47|373:47|427:84,1,75.000000298023
432,83,126830,1,0,0:0:0:0:
462,96,126929,2,0,B|491:116|491:116|511:150,1,75.000000298023,8|0,0:0|0:0,0:0:0:0:
453,226,127328,2,0,P|381:212|347:147,1,150.000000596046
277,206,127927,6,0,P|261:245|235:276,1,75.000000298023,0|0,2:2|2:2,2:2:0:0:
122,348,128426,1,0,2:2:0:0:
174,350,128526,2,0,B|233:359|233:359|308:347,1,112.500000447034,8|0,2:2|2:2,2:2:0:0:
333,330,128925,1,0,2:2:0:0:
277,206,129224,1,0,2:2:0:0:
237,241,129324,6,0,B|205:269|205:269|154:275,2,75.000000298023,2|0|0,2:2|2:2|2:2,2:2:0:0:
169,106,129923,1,0,2:2:0:0:
318,96,130122,2,0,B|350:68|350:68|383:65,1,75.000000298023,8|0,2:2|2:2,2:2:0:0:
382,141,130421,2,0,B|376:192|376:192|384:275,1,112.500000447034,0|0,2:2|2:2,2:2:0:0:
382,65,130920,6,0,L|255:38,1,112.500000447034,0|0,2:2|2:2,2:2:0:0:
272,41,131319,1,0,2:2:0:0:
149,127,131519,2,0,L|194:137,1,37.5000001490115
276,206,131719,2,0,L|387:230,1,112.500000447034,8|0,2:2|2:2,2:2:0:0:
387,230,132118,1,0,2:2:0:0:
405,114,132317,2,0,P|370:117|351:114,1,37.5000001490115
290,124,132517,6,0,P|222:144|196:188,2,112.500000447034,2|0|0,2:2|2:2|2:2,2:2:0:0:
383,65,133315,1,8,2:2:0:0:
387,230,133514,1,0,2:2:0:0:
256,51,133714,2,0,P|168:92|128:161,1,150.000000596046
81,259,134313,5,0,2:2:0:0:
123,107,134512,1,0,2:2:0:0:
5,185,134712,1,0,2:2:0:0:
156,213,134911,2,0,L|242:218,1,75.000000298023,8|0,2:2|2:2,2:2:0:0:
276,206,135211,2,0,B|255:162|297:136|280:82,1,112.500000447034,0|0,2:2|2:2,2:2:0:0:
352,272,135710,5,2,2:2:0:0:
322,295,135809,1,0,2:2:0:0:
287,306,135909,1,0,2:2:0:0:
250,303,136009,1,0,2:2:0:0:
216,287,136109,1,0,2:2:0:0:
191,259,136208,1,0,2:2:0:0:
177,225,136308,1,0,2:2:0:0:
177,187,136408,1,0,2:2:0:0:
191,153,136508,5,8,2:2:0:0:
111,333,136707,1,0,2:2:0:0:
146,320,136807,2,0,B|191:325|250:303|250:303|289:319|321:364,1,187.500000745057,0|0,2:2|2:2,2:2:0:0:
191,153,137505,5,0,2:2:0:0:
350,229,137705,1,0,2:2:0:0:
371,57,137905,2,0,L|378:13,2,37.5000001490115,0|0|8,2:2|2:2|2:2,2:2:0:0:
359,197,138304,1,0,2:2:0:0:
350,229,138403,2,0,B|343:277|360:310|336:360,1,112.500000447034,0|0,2:2|2:2,2:2:0:0:
317,334,138803,1,0,2:2:0:0:
291,331,138902,6,0,L|234:324,1,37.5000001490115,2|0,2:2|2:2,2:2:0:0:
147,220,139102,2,0,L|204:227,1,37.5000001490115,0|0,2:2|2:2,2:2:0:0:
333,203,139301,2,0,L|276:196,1,37.5000001490115,0|0,2:2|2:2,2:2:0:0:
189,92,139501,2,0,L|246:99,1,37.5000001490115,0|0,2:2|2:2,2:2:0:0:
313,74,139701,2,0,L|413:83,1,75.000000298023,8|0,0:0|0:0,0:0:0:0:
333,203,140000,2,0,B|328:250|338:277|338:277|331:328,1,112.500000447034,0|0,2:2|2:2,2:2:0:0:
207,288,140499,5,0,2:2:0:0:
216,161,140698,1,0,2:2:0:0:
216,161,140798,1,0,2:2:0:0:
216,161,140898,2,0,B|206:121|206:121|173:68,1,75.000000298023,0|0,2:2|2:2,2:2:0:0:
370,15,141297,2,0,L|351:60,1,37.5000001490115,8|0,0:0|0:0,0:0:0:0:
304,134,141497,2,0,B|313:171|313:171|347:227,1,75.000000298023,0|0,2:2|2:2,2:2:0:0:
398,311,141896,1,0,2:2:0:0:
256,358,142095,6,0,L|185:352,1,37.5000001490115,2|0,2:2|2:2,2:2:0:0:
148,326,142295,2,0,L|77:320,1,37.5000001490115,0|0,2:2|2:2,2:2:0:0:
40,296,142494,1,0,2:2:0:0:
110,213,142694,2,0,L|113:154,1,37.5000001490115,0|0,2:2|2:2,2:2:0:0:
135,104,142893,1,8,2:2:0:0:
237,20,143093,2,0,L|234:79,1,37.5000001490115,0|0,2:2|2:2,2:2:0:0:
212,129,143292,1,0,2:2:0:0:
79,49,143492,1,0,2:2:0:0:
110,213,143692,5,0,2:2:0:0:
278,77,143891,2,0,P|304:50|309:47,1,37.5000001490115
352,108,144091,2,0,P|389:107|395:108,1,37.5000001490115
387,182,144290,2,0,P|413:207|416:212,1,37.5000001490115
473,161,144490,2,0,L|506:76,1,75.000000298023,8|0,0:0|0:0,0:0:0:0:
303,185,144889,2,0,L|270:270,1,75.000000298023
478,239,145288,1,0,0:0:0:0:
441,61,145487,6,0,L|397:31,2,37.5000001490115,0|0|0,2:2|2:2|2:2,2:2:0:0:
441,212,145887,1,0,2:2:0:0:
302,156,146086,1,0,2:2:0:0:
265,162,146185,1,0,2:2:0:0:
233,181,146285,1,0,2:2:0:0:
210,211,146385,1,0,2:2:0:0:
200,247,146485,2,0,L|173:162,1,75.000000298023,0|0,2:2|2:2,2:2:0:0:
241,6,146884,6,0,L|281:142,1,134.999996416568,4|2,0:1|0:1,0:1:0:0:
302,156,147283,1,10,0:1:0:0:
88,144,147483,1,2,0:1:0:0:
315,244,147683,2,0,L|224:245,1,89.9999976110456,8|2,0:1|0:1,0:1:0:0:
88,144,148082,2,0,L|179:143,1,89.9999976110456,8|2,0:1|0:1,0:1:0:0:
301,109,148481,5,10,0:1:0:0:
263,246,148680,1,0,0:1:0:0:
163,144,148880,1,10,0:1:0:0:
306,184,149079,1,2,0:1:0:0:
168,241,149278,1,8,0:1:0:0:
225,102,149478,1,2,0:1:0:0:
344,246,149678,1,10,0:1:0:0:
168,241,149877,1,0,0:1:0:0:
301,109,150077,5,10,0:1:0:0:
144,54,150277,2,0,P|105:43|56:10,2,89.9999976110456,0|10|2,0:1|0:1|0:1,0:1:0:0:
316,93,150875,2,0,B|325:144|356:199|356:199|335:274,1,179.999995222091,8|10,0:1|0:1,0:1:0:0:
256,353,151474,1,0,0:1:0:0:
234,211,151674,5,10,0:1:0:0:
92,221,151873,1,0,0:1:0:0:
165,98,152073,1,10,0:1:0:0:
299,142,152272,2,0,B|332:187|389:223|389:223|416:291,1,179.999995222091,2|2,0:1|0:1,0:1:0:0:
399,129,152871,1,10,0:1:0:0:
226,300,153070,1,0,0:1:0:0:
226,300,153170,1,0,0:1:0:0:
226,300,153270,5,12,0:1:0:0:
201,167,153469,1,0,0:1:0:0:
106,264,153669,2,0,P|62:323|42:364,1,89.9999976110456,10|2,0:1|0:1,0:1:0:0:
226,300,154068,2,0,P|270:241|290:200,1,89.9999976110456,8|2,0:1|0:1,0:1:0:0:
325,116,154467,1,10,0:1:0:0:
201,167,154667,1,0,0:1:0:0:
362,268,154866,6,0,B|411:299|451:294|451:294|473:329|528:345,1,179.999995222091,10|10,0:1|0:1,0:1:0:0:
482,190,155465,2,0,B|433:158|393:164|393:164|371:128|316:112,1,179.999995222091,10|10,0:1|0:1,0:1:0:0:
210,79,156064,1,10,0:1:0:0:
226,200,156263,2,0,P|245:189|276:165,1,44.9999988055228,8|8,1:2|1:2,1:1:0:0:
325,116,156463,6,0,P|383:72|446:53,1,101.250000788569,8|0,1:1|1:1,1:1:0:0:
430,194,156862,2,0,P|372:238|309:257,1,101.250000788569,8|0,1:1|1:1,1:1:0:0:
145,221,157261,2,0,P|203:177|266:158,1,101.250000788569,8|0,1:1|1:1,1:1:0:0:
250,299,157660,2,0,P|192:343|129:362,1,101.250000788569,8|0,1:1|1:1,1:1:0:0:
357,180,158059,5,10,1:1:0:0:
351,143,158159,1,0,1:1:0:0:
336,109,158259,1,0,1:1:0:0:
314,79,158359,1,2,1:1:0:0:
285,55,158459,1,10,1:1:0:0:
251,39,158559,1,0,1:1:0:0:
214,32,158658,1,0,1:1:0:0:
177,34,158758,1,0,1:1:0:0:
141,44,158858,1,8,1:1:0:0:
109,63,158958,1,0,1:1:0:0:
84,91,159057,6,0,B|87:152|43:183|43:183|62:216,2,127.500002938509,0|8|0,1:1|1:1|1:1,1:1:0:0:
189,150,159656,6,0,L|301:139,1,112.500004738569,4|0,3:3|3:3,3:3:0:0:
390,302,160055,2,0,L|277:312,1,112.500004738569,8|0,3:3|3:3,3:3:0:0:
97,309,160454,1,0,3:3:0:0:
189,150,160653,1,0,3:3:0:0:
277,312,160853,1,8,3:3:0:0:
123,221,161052,1,0,3:3:0:0:
301,198,161252,6,0,P|355:168|422:166,1,112.500004738569,0|0,3:3|3:3,3:3:0:0:
434,31,161651,2,0,P|380:61|313:63,1,112.500004738569,8|0,3:3|3:3,3:3:0:0:
176,100,162050,1,0,3:3:0:0:
301,198,162250,1,0,3:3:0:0:
123,221,162449,2,0,P|67:227|19:255,1,112.500004738569,8|0,3:3|3:3,3:3:0:0:
194,375,162848,6,0,P|249:368|297:340,1,112.500004738569,0|0,3:3|3:3,3:3:0:0:
341,170,163247,1,8,3:3:0:0:
206,153,163447,1,0,3:3:0:0:
311,269,163646,1,0,3:3:0:0:
303,107,163846,1,0,3:3:0:0:
177,225,164046,1,8,3:3:0:0:
377,234,164245,1,0,3:3:0:0:
231,112,164445,5,0,3:3:0:0:
223,285,164644,1,0,3:3:0:0:
359,161,164844,1,8,3:3:0:0:
403,347,165043,1,0,3:3:0:0:
434,140,165243,1,0,3:3:0:0:
308,298,165442,1,0,3:3:0:0:
231,112,165642,2,0,P|182:69|161:18,1,112.500004738569,8|0,3:3|3:3,3:3:0:0:
365,55,166041,6,0,P|409:90|434:140,1,112.500004738569,0|0,3:3|3:3,3:3:0:0:
380,295,166440,1,8,3:3:0:0:
258,199,166640,2,0,P|199:173|192:297,1,225.000009477138,0|0,3:3|3:3,3:3:0:0:
380,295,167238,1,8,3:3:0:0:
207,236,167438,1,0,3:3:0:0:
333,141,167638,5,0,3:3:0:0:
290,292,167837,1,0,3:3:0:0:
238,142,168037,1,8,3:3:0:0:
413,256,168236,2,0,P|428:158|330:164,1,225.000009477138,0|0,3:3|3:3,3:3:0:0:
290,292,168835,1,8,3:3:0:0:
382,201,169034,1,0,3:3:0:0:
238,142,169234,5,0,3:3:0:0:
232,294,169433,1,0,3:3:0:0:
380,118,169633,1,8,3:3:0:0:
161,118,169833,1,0,3:3:0:0:
420,249,170032,2,0,P|462:223|510:158,1,112.500004738569,0|0,3:3|3:3,3:3:0:0:
242,43,170431,2,0,P|200:69|152:134,1,112.500004738569,8|0,3:3|3:3,3:3:0:0:
151,156,170731,1,0,3:3:0:0:
135,191,170830,6,0,P|99:234|53:265,1,112.500004738569,0|0,3:3|3:3,3:3:0:0:
87,285,171130,1,0,3:3:0:0:
126,286,171229,2,0,P|186:284|250:277,1,112.500004738569,8|0,3:3|3:3,3:3:0:0:
274,263,171529,1,0,3:3:0:0:
305,239,171629,2,0,P|360:233|417:231,1,112.500004738569,0|0,3:3|3:3,3:3:0:0:
497,112,172028,2,0,P|441:117|385:119,1,112.500004738569,8|0,3:3|3:3,3:3:0:0:
161,117,172427,5,4,3:3:0:0:
190,271,172626,1,0,3:3:0:0:
309,169,172826,2,0,P|355:128|424:102,1,112.500004738569,8|0,3:3|3:3,3:3:0:0:
252,55,173225,2,0,P|211:93|161:117,1,112.500004738569,0|0,3:3|3:3,3:3:0:0:
15,179,173624,1,8,3:3:0:0:
40,23,173824,1,0,3:3:0:0:
161,117,174023,6,0,B|190:167|190:167|208:240,1,112.500004738569,0|0,3:3|3:3,3:3:0:0:
252,370,174422,1,8,3:3:0:0:
308,220,174622,2,0,B|322:167|322:167|351:117,1,112.500004738569,0|0,3:3|3:3,3:3:0:0:
466,9,175021,1,0,3:3:0:0:
480,192,175220,2,0,B|466:245|466:245|437:295,1,112.500004738569,8|0,3:3|3:3,3:3:0:0:
252,370,175620,5,0,3:3:0:0:
308,220,175819,1,0,3:3:0:0:
151,242,176019,1,8,3:3:0:0:
318,306,176218,1,0,3:3:0:0:
217,178,176417,1,0,3:3:0:0:
161,328,176617,1,0,3:3:0:0:
308,220,176817,1,8,3:3:0:0:
159,119,177016,1,0,3:3:0:0:
232,283,177216,5,0,3:3:0:0:
83,182,177416,1,0,3:3:0:0:
230,74,177615,1,8,3:3:0:0:
133,277,177815,1,0,3:3:0:0:
319,120,178014,1,0,3:3:0:0:
83,36,178214,1,0,3:3:0:0:
308,220,178413,1,8,3:3:0:0:
104,144,178613,1,0,3:3:0:0:
104,144,178713,1,0,3:3:0:0:
104,144,178812,6,0,P|117:197|168:258,1,112.500004738569,0|0,3:3|3:3,3:3:0:0:
256,344,179211,1,8,3:3:0:0:
185,127,179411,2,0,P|145:72|22:127,1,225.000009477138,0|0,3:3|3:3,3:3:0:0:
31,305,180010,1,8,3:3:0:0:
22,125,180209,1,0,3:3:0:0:
168,237,180409,5,0,3:3:0:0:
167,23,180608,1,0,3:3:0:0:
69,216,180808,1,8,3:3:0:0:
271,68,181007,2,0,P|335:150|270:231,1,225.000009477138,0|0,3:3|3:3,3:3:0:0:
99,320,181606,1,8,3:3:0:0:
253,149,181806,1,0,3:3:0:0:
69,216,182005,5,0,3:3:0:0:
167,23,182205,1,0,3:3:0:0:
270,231,182404,1,8,3:3:0:0:
60,65,182604,1,0,3:3:0:0:
164,262,182803,1,0,3:3:0:0:
271,68,183003,1,0,3:3:0:0:
164,262,183202,1,8,3:3:0:0:
271,68,183402,2,0,B|305:156|303:251|303:251|263:227,1,225.000009477138,0|0,3:3|3:3,3:3:0:0:
192,194,183901,2,0,P|172:225|159:251,1,56.2500023692846,0|0,3:3|3:3,3:3:0:0:
256,192,184100,12,4,185198,3:3:0:0:
