osu file format v14

[General]
AudioFilename: Nightcore - Run (1).mp3
AudioLeadIn: 0
PreviewTime: 50452
Countdown: 0
SampleSet: Soft
StackLeniency: 0.7
Mode: 0
LetterboxInBreaks: 0
WidescreenStoryboard: 0

[Editor]
Bookmarks: 87663
DistanceSpacing: 1.3
BeatDivisor: 4
GridSize: 8
TimelineZoom: 1

[Metadata]
Title:Run ft. RedFoo of LMFAO (Speed Up Ver.)
TitleUnicode:Run ft. RedFoo of LMFAO (Speed Up Ver.)
Artist:Flo Rida
ArtistUnicode:Flo Rida
Creator:ohad1881
Version:Easy
Source:
Tags:nightcore WILD ONES A Mystery to you -Nya- rap
BeatmapID:641437
BeatmapSetID:283731

[Difficulty]
HPDrainRate:2
CircleSize:3
OverallDifficulty:2
ApproachRate:3
SliderMultiplier:0.70000000596046
SliderTickRate:1

[Events]
//Background and Video events
0,0,"aaaa.jpg",0,0
//Break Periods
2,63971,65625
2,118250,119903
//Storyboard Layer 0 (Background)
//Storyboard Layer 1 (Fail)
//Storyboard Layer 2 (Pass)
//Storyboard Layer 3 (Foreground)
//Storyboard Sound Samples

[TimingPoints]
16,399.1,4,2,1,50,1,0
51100,-100,4,2,1,80,0,1
63872,-100,4,2,1,50,0,0
67064,-100,4,2,1,50,0,0
92607,-100,4,2,1,35,0,0
98992,-100,4,2,1,50,0,0
105378,-100,4,2,1,80,0,1
118149,-100,4,2,1,50,0,0
127328,-100,4,2,1,25,0,0
127927,-100,4,2,1,50,0,0
133714,-100,4,2,1,25,0,0
134313,-100,4,2,1,50,0,0
159656,-100,4,2,1,80,0,1
172227,-100,4,2,1,80,0,0
172427,-100,4,2,1,80,0,1
185198,-100,4,2,1,50,0,0

[Colours]
Combo1 : 0,128,192
Combo2 : 255,128,192
Combo3 : 255,0,0

[HitObjects]
50,104,12788,6,0,L|120:104,1,70.000000596046,0|0,0:0|0:0,0:0:0:0:
185,40,13586,2,0,P|209:104|177:176,1,140.000001192092,0|0,0:0|0:0,0:0:0:0:
101,204,14782,1,8,0:0:0:0:
172,260,15182,2,0,P|105:294|32:264,1,140.000001192092,0|0,0:0|0:0,0:0:0:0:
20,189,16379,6,0,P|53:115|67:54,1,140.000001192092,8|0,0:0|0:0,0:0:0:0:
150,92,17576,1,0,0:0:0:0:
231,52,17975,2,0,P|248:119|277:183,1,140.000001192092,8|8,0:0|0:0,0:0:0:0:
352,234,19173,5,0,0:0:0:0:
339,324,19571,2,0,P|421:295|441:242,1,140.000001192092,8|8,0:0|0:0,0:0:0:0:
447,158,20769,1,2,0:0:0:0:
385,90,21169,2,0,P|355:137|354:170,1,70.000000596046,8|0,0:0|0:0,0:0:0:0:
262,149,21966,2,0,P|252:115|230:88,1,70.000000596046,8|0,0:0|0:0,0:0:0:0:
172,159,22764,6,0,B|188:223|188:223|163:300,1,140.000001192092,8|8,0:0|0:0,0:0:0:0:
241,343,23963,1,2,0:0:0:0:
301,276,24362,2,0,P|333:252|333:196,1,70.000000596046,8|0,0:0|0:0,0:0:0:0:
322,135,25160,1,8,0:0:0:0:
250,78,25559,6,0,P|186:51|106:94,1,140.000001192092,4|0,0:0|0:0,0:0:0:0:
184,141,26756,1,8,0:0:0:0:
182,231,27155,2,0,B|210:298|210:298|270:344,1,140.000001192092,0|0,0:0|0:0,0:0:0:0:
327,273,28353,1,8,0:0:0:0:
349,184,28752,6,0,P|366:118|322:46,1,140.000001192092,0|0,0:0|0:0,0:0:0:0:
277,127,29949,1,8,0:0:0:0:
186,115,30348,2,0,P|88:160|82:195,1,140.000001192092,0|0,0:0|0:0,0:0:0:0:
112,266,31544,2,0,P|152:235|170:210,1,70.000000596046,8|0,0:0|0:0,0:0:0:0:
242,173,32343,6,0,L|312:173,1,70.000000596046,8|0,0:0|0:0,0:0:0:0:
402,173,33141,2,0,P|374:238|366:242,1,70.000000596046,8|0,0:0|0:0,0:0:0:0:
297,276,33940,2,0,P|315:342|377:375,1,140.000001192092,8|8,0:0|0:0,0:0:0:0:
387,284,35137,5,0,0:0:0:0:
477,293,35535,2,0,P|459:227|397:194,1,140.000001192092,8|8,0:0|0:0,0:0:0:0:
308,194,36733,1,0,0:0:0:0:
217,200,37132,2,0,P|160:203|136:193,1,70.000000596046,8|0,0:0|0:0,0:0:0:0:
150,290,37930,1,8,0:0:0:0:
232,328,38330,6,8,P|296:348|364:315,1,140.000001192092,4|0,0:0|0:0,0:0:0:0:
291,251,39527,1,8,0:0:0:0:
349,181,39926,2,8,P|284:160|217:194,1,140.000001192092,8|8,0:0|0:0,0:0:0:0:
156,253,41123,1,8,0:0:0:0:
235,297,41522,6,8,B|259:319|259:319|293:332,1,70.000000596046,8|8,0:0|0:0,0:0:0:0:
367,278,42320,2,8,B|342:255|342:255|308:242,1,70.000000596046,8|8,0:0|0:0,0:0:0:0:
232,192,43118,2,8,B|196:169|196:169|157:160|93:94,1,140.000001192092,8|8,0:0|0:0,0:0:0:0:
198,77,44316,1,8,0:0:0:0:
289,60,44715,6,8,P|346:27|425:52,1,140.000001192092,4|0,0:0|0:0,0:0:0:0:
428,133,45912,2,8,P|374:129|336:134,1,70.000000596046,8|2,0:1|0:0,0:0:0:0:
275,167,46711,2,8,P|299:197|324:216,1,70.000000596046,0|0,0:0|0:0,0:0:0:0:
391,275,47508,1,8,0:1:0:0:
309,315,47908,6,8,P|274:334|244:340,1,70.000000596046,8|8,1:1|1:1,0:0:0:0:
188,269,48706,2,8,P|181:234|166:203,1,70.000000596046,8|8,1:1|1:1,0:0:0:0:
219,129,49504,2,0,B|241:179|290:188|290:188|281:212|263:219,1,122.50000104308,8|0,1:1|1:1,0:0:0:0:
114,340,51101,6,0,P|46:330|3:277,1,140.000001192092,4|0,3:3|3:3,3:3:0:0:
90,251,52299,1,8,3:3:0:0:
66,163,52697,2,0,P|134:173|177:226,1,140.000001192092,0|0,3:3|3:3,3:3:0:0:
247,284,53895,1,8,3:3:0:0:
313,346,54294,6,0,P|337:282|311:219,1,140.000001192092,0|0,3:3|3:3,3:3:0:0:
234,169,55491,1,8,3:3:0:0:
168,232,55891,2,0,P|144:174|177:97,1,140.000001192092,0|0,3:3|3:3,3:3:0:0:
223,30,57088,1,8,3:3:0:0:
277,102,57486,6,0,L|349:142,1,70.000000596046,0|8,3:3|3:3,3:3:0:0:
388,212,58284,2,0,L|319:225,1,70.000000596046,0|8,3:3|3:3,3:3:0:0:
276,306,59082,1,0,3:3:0:0:
190,336,59481,1,8,3:3:0:0:
207,246,59881,2,0,P|218:201|234:169,1,70.000000596046,0|8,3:3|3:3,3:3:0:0:
296,239,60679,6,0,P|285:284|269:316,1,70.000000596046,0|8,3:3|3:3,3:3:0:0:
363,328,61477,2,0,P|416:322|449:325,1,70.000000596046,0|8,3:3|3:3,3:3:0:0:
471,240,62275,2,0,P|453:209|431:182,2,70.000000596046,0|8|0,3:3|3:3|3:3,3:3:0:0:
432,322,63472,2,0,P|423:346|420:372,1,52.5000004470345,8|0,3:3|3:3,3:3:0:0:
112,120,67065,5,0,0:0:0:0:
141,34,67463,2,0,P|189:74|192:162,1,140.000001192092,8|8,0:0|0:0,0:0:0:0:
152,224,68662,1,2,0:0:0:0:
70,265,69061,2,0,P|149:315|208:296,1,140.000001192092,8|0,0:0|0:0,0:0:0:0:
259,249,70257,5,0,0:0:0:0:
206,174,70656,1,8,0:0:0:0:
155,98,71056,2,0,B|142:64|142:64|143:21,2,70.000000596046,0|0|2,0:0|0:0|0:0,0:0:0:0:
233,51,72254,1,8,0:0:0:0:
323,39,72652,2,0,B|343:78|363:95,1,70.000000596046,0|8,0:0|0:0,0:0:0:0:
425,161,73451,6,0,B|466:201|473:241,1,70.000000596046,0|0,0:0|0:0,0:0:0:0:
409,288,74249,1,0,0:0:0:0:
334,340,74648,2,0,P|319:278|358:212,1,140.000001192092,8|0,0:0|0:0,0:0:0:0:
422,153,75846,1,0,0:0:0:0:
494,98,76244,1,0,0:0:0:0:
499,7,76643,5,0,0:0:0:0:
410,21,77042,2,0,L|329:32,1,70.000000596046,8|0,0:0|0:0,0:0:0:0:
258,69,77840,2,0,B|211:115|163:46|112:91,2,140.000001192092,8|8|8,0:0|0:0|0:0,0:0:0:0:
345,42,79837,5,4,0:0:0:0:
435,42,80236,1,8,0:0:0:0:
481,121,80634,2,0,P|436:174|409:183,1,70.000000596046,0|8,0:0|0:0,0:0:0:0:
346,173,81432,1,0,0:0:0:0:
392,96,81832,1,8,0:0:0:0:
304,72,82230,2,0,P|267:64|208:72,2,70.000000596046,0|8|0,0:0|0:0|0:0,0:0:0:0:
263,153,83427,6,0,P|299:160|359:153,2,70.000000596046,8|0|8,0:0|0:0|0:0,0:0:0:0:
179,190,84625,2,0,L|221:272,1,70.000000596046,0|8,0:0|0:0,0:0:0:0:
295,285,85424,1,0,0:0:0:0:
380,253,85822,2,0,L|411:184,1,70.000000596046,8|0,0:0|0:0,0:0:0:0:
346,122,86621,5,8,0:0:0:0:
286,53,87019,2,0,P|341:31|373:34,1,70.000000596046,0|8,0:0|0:0,0:0:0:0:
441,44,87818,1,0,0:0:0:0:
423,133,88217,1,8,0:0:0:0:
421,223,88616,2,0,P|421:288|408:315,1,70.000000596046,0|8,0:0|0:0,0:0:0:0:
331,314,89414,6,0,P|266:314|239:301,1,70.000000596046,0|8,0:0|0:0,0:0:0:0:
229,227,90212,2,0,P|229:162|242:135,1,70.000000596046,0|8,0:0|0:0,0:0:0:0:
304,105,91010,2,0,P|369:105|396:118,1,70.000000596046,0|8,0:0|0:0,0:0:0:0:
336,189,91809,1,0,0:0:0:0:
270,251,92208,1,8,0:0:0:0:
304,334,92608,5,4,0:0:0:0:
394,331,93007,2,8,P|408:271|416:187,1,140.000001192092,8|0,0:0|0:0,0:0:0:0:
415,102,94204,1,8,0:0:0:0:
331,66,94603,2,8,L|251:42,1,70.000000596046,8|0,0:0|0:0,0:0:0:0:
173,49,95401,1,8,0:0:0:0:
86,78,95801,6,8,P|131:129|213:131,1,140.000001192092,8|0,0:0|0:0,0:0:0:0:
261,69,96998,1,8,0:0:0:0:
349,48,97396,2,8,L|384:120,1,70.000000596046,8|8,0:0|0:0,0:0:0:0:
300,155,98194,2,8,L|265:227,1,70.000000596046,8|8,0:0|0:0,0:0:0:0:
344,268,98992,6,8,L|379:340,1,70.000000596046,12|2,0:0|0:0,0:0:0:0:
283,335,99791,2,8,P|242:331|189:343,1,70.000000596046,0|8,0:0|0:1,0:0:0:0:
122,333,100589,2,8,P|87:337|52:332,1,70.000000596046,2|0,0:0|0:0,0:0:0:0:
57,242,101387,2,8,P|61:207|56:172,1,70.000000596046,8|8,0:1|0:1,0:0:0:0:
147,167,102185,6,8,L|214:148,1,70.000000596046,8|8,1:1|1:1,0:0:0:0:
305,154,102982,2,8,L|274:216,1,70.000000596046,8|8,1:1|1:1,0:0:0:0:
193,260,103782,2,0,P|229:297|309:300,1,122.50000104308,8|0,1:1|1:1,0:0:0:0:
484,232,105378,6,0,L|467:158,1,70.000000596046,4|8,3:3|3:3,3:3:0:0:
393,111,106176,2,0,L|377:179,1,70.000000596046,0|8,3:3|3:3,3:3:0:0:
386,269,106974,2,0,P|345:264|309:239,1,70.000000596046,0|8,3:3|3:3,3:3:0:0:
242,202,107773,2,0,P|211:185|176:183,1,70.000000596046,0|8,3:3|3:3,3:3:0:0:
156,94,108571,5,0,3:3:0:0:
238,55,108970,1,8,3:3:0:0:
329,54,109370,2,0,P|367:93|382:118,1,70.000000596046,0|8,3:3|3:3,3:3:0:0:
460,136,110167,2,0,P|439:164|413:187,1,70.000000596046,0|8,3:3|3:3,3:3:0:0:
322,191,110965,2,0,P|296:167|275:139,1,70.000000596046,0|8,3:3|3:3,3:3:0:0:
184,145,111764,6,0,B|208:174|215:205|215:205|208:241|218:280,1,140.000001192092,0|0,3:3|3:3,3:3:0:0:
307,285,112961,1,8,3:3:0:0:
398,284,113360,2,0,B|407:248|400:212|400:212|407:182|431:152,1,140.000001192092,0|0,3:3|3:3,3:3:0:0:
354,103,114557,1,8,3:3:0:0:
263,93,114956,5,0,3:3:0:0:
173,111,115356,2,0,B|209:173|209:173|262:234,2,140.000001192092,8|8|8,3:3|3:3|3:3,3:3:0:0:
128,34,117352,1,0,3:3:0:0:
218,38,117751,2,0,L|273:59,1,52.5000004470345,8|0,3:3|3:3,3:3:0:0:
144,80,121343,6,0,L|216:64,1,70.000000596046,0|0,2:2|0:0,0:0:0:0:
255,144,122140,2,0,L|323:159,1,70.000000596046,8|0,2:2|2:2,0:0:0:0:
413,151,122938,2,0,L|454:210,1,70.000000596046,0|0,2:2|2:2,0:0:0:0:
371,249,123737,2,0,P|325:245|294:248,1,70.000000596046,8|0,2:2|0:0,0:0:0:0:
210,249,124535,6,0,P|175:250|140:246,1,70.000000596046,0|0,2:2|0:0,0:0:0:0:
109,161,125333,2,0,P|143:159|178:163,1,70.000000596046,8|0,2:2|0:0,0:0:0:0:
269,162,126131,6,0,B|254:91|225:56|225:56|212:77,1,140.000001192092,2|8,2:2|0:0,0:0:0:0:
178,163,127328,1,0,0:0:0:0:
225,240,127728,6,0,P|282:273|298:278,1,70.000000596046,0|0,0:0|2:2,0:0:0:0:
368,235,128526,2,0,P|401:178|406:162,1,70.000000596046,8|0,2:2|2:2,0:0:0:0:
339,108,129324,2,0,P|282:75|266:70,1,70.000000596046,2|0,2:2|2:2,0:0:0:0:
192,104,130122,2,0,P|159:161|154:177,1,70.000000596046,8|0,2:2|0:0,0:0:0:0:
248,166,130920,5,0,2:2:0:0:
323,115,131319,1,0,2:2:0:0:
342,202,131719,2,0,P|290:243|276:245,1,70.000000596046,8|0,2:2|2:2,0:0:0:0:
197,239,132517,1,2,2:2:0:0:
110,212,132916,2,0,P|130:175|160:156,1,70.000000596046,0|8,0:0|2:2,0:0:0:0:
232,115,133714,1,0,0:0:0:0:
311,163,134114,5,0,0:0:0:0:
336,75,134512,2,0,P|384:107|400:139,1,70.000000596046,0|8,2:2|2:2,0:0:0:0:
388,207,135310,1,0,0:0:0:0:
315,262,135711,2,0,L|246:288,1,70.000000596046,2|0,2:2|0:0,0:0:0:0:
160,304,136508,2,0,B|160:264|178:222,1,70.000000596046,8|0,2:2|0:0,0:0:0:0:
202,149,137306,6,0,B|202:109|220:67,1,70.000000596046,0|0,2:2|2:2,0:0:0:0:
297,44,138105,2,0,L|353:86,1,70.000000596046,8|0,2:2|0:0,0:0:0:0:
441,107,138903,2,0,P|401:163|313:163,1,140.000001192092,2|8,2:2|2:2,0:0:0:0:
255,126,140101,1,0,0:0:0:0:
183,70,140500,6,0,P|130:72|99:94,1,70.000000596046,0|0,2:2|0:0,0:0:0:0:
102,169,141298,2,0,L|126:243,1,70.000000596046,8|0,0:0|2:2,0:0:0:0:
184,303,142096,1,2,2:2:0:0:
265,345,142494,2,0,P|304:332|332:306,1,70.000000596046,0|8,2:2|2:2,0:0:0:0:
370,234,143292,1,0,2:2:0:0:
405,149,143693,5,0,2:2:0:0:
318,120,144092,2,0,P|302:56|278:32,1,70.000000596046,0|8,0:0|0:0,0:0:0:0:
208,56,144890,2,0,L|128:56,1,70.000000596046,0|0,0:0|0:0,0:0:0:0:
52,85,145687,2,0,P|37:132|35:162,1,70.000000596046,0|0,2:2|2:2,0:0:0:0:
27,243,146485,1,0,2:2:0:0:
77,319,146885,5,4,0:1:0:0:
124,241,147284,2,8,L|196:201,1,70.000000596046,10|8,0:1|0:1,0:0:0:0:
268,169,148083,1,10,0:1:0:0:
356,146,148482,2,8,P|399:74|385:18,1,140.000001192092,10|0,0:1|0:0,0:0:0:0:
306,67,149679,1,10,0:1:0:0:
221,100,150077,6,8,P|139:107|88:54,1,140.000001192092,10|8,0:1|0:0,0:0:0:0:
19,25,151275,1,10,0:1:0:0:
26,115,151675,2,8,P|24:172|19:210,2,70.000000596046,10|0|0,0:1|0:0|0:0,0:0:0:0:
109,78,152872,1,10,0:1:0:0:
187,124,153271,6,8,P|239:166|248:245,1,140.000001192092,12|8,0:1|0:0,0:0:0:0:
259,325,154467,1,10,0:1:0:0:
170,346,154866,2,8,P|114:301|110:223,1,140.000001192092,10|0,0:1|0:0,0:0:0:0:
143,153,156065,1,10,0:1:0:0:
180,70,156464,6,8,L|106:55,1,70.000000596046,8|8,1:1|0:0,0:0:0:0:
53,126,157262,2,8,L|67:194,1,70.000000596046,8|0,1:1|0:0,0:0:0:0:
158,191,158060,2,8,L|225:161,1,70.000000596046,10|10,1:1|1:1,0:0:0:0:
306,130,158857,1,8,1:1:0:0:
336,215,159256,1,8,1:1:0:0:
299,298,159656,6,0,P|275:272|242:262,1,70.000000596046,4|8,3:3|3:3,3:3:0:0:
163,216,160454,2,0,P|108:183|98:153,1,70.000000596046,0|8,3:3|3:3,3:3:0:0:
178,127,161253,1,0,3:3:0:0:
167,36,161651,2,0,P|235:56|269:121,1,140.000001192092,8|8,3:3|3:3,3:3:0:0:
288,201,162849,5,0,3:3:0:0:
299,291,163247,2,0,P|231:271|197:206,1,140.000001192092,8|8,3:3|3:3,3:3:0:0:
174,125,164446,1,0,3:3:0:0:
197,37,164844,2,8,P|122:50|85:112,1,140.000001192092,8|8,3:3|3:3,3:3:0:0:
81,190,166041,5,0,3:3:0:0:
108,276,166440,2,0,P|142:282|177:282,1,70.000000596046,8|0,3:3|3:3,3:3:0:0:
241,217,167239,2,0,P|285:165|355:159,1,140.000001192092,8|8,3:3|3:3,3:3:0:0:
425,213,168437,1,0,3:3:0:0:
511,241,168835,2,0,P|467:293|397:299,1,140.000001192092,8|8,3:3|3:3,3:3:0:0:
307,298,170033,5,0,3:3:0:0:
217,280,170432,2,0,L|161:216,1,70.000000596046,8|0,3:3|3:3,3:3:0:0:
232,160,171230,2,0,L|293:231,1,70.000000596046,8|0,3:3|3:3,3:3:0:0:
365,189,172028,1,8,3:3:0:0:
312,115,172427,5,4,3:3:0:0:
237,62,172827,1,8,3:3:0:0:
148,84,173225,1,0,3:3:0:0:
82,146,173624,2,0,P|83:206|88:226,1,70.000000596046,8|0,3:3|3:3,3:3:0:0:
171,242,174422,2,0,P|170:182|165:162,1,70.000000596046,8|0,3:3|3:3,3:3:0:0:
148,84,175220,1,8,3:3:0:0:
57,69,175620,5,0,3:3:0:0:
34,157,176019,2,0,P|63:175|96:186,1,70.000000596046,8|0,3:3|3:3,3:3:0:0:
186,172,176817,1,8,3:3:0:0:
242,101,177216,2,0,P|272:147|276:172,1,70.000000596046,0|8,3:3|3:3,3:3:0:0:
320,239,178014,1,0,3:3:0:0:
267,313,178413,2,0,L|210:270,1,70.000000596046,8|0,3:3|3:3,3:3:0:0:
244,186,179211,6,0,L|187:143,1,70.000000596046,8|0,3:3|3:3,3:3:0:0:
138,67,180010,2,0,L|82:109,1,70.000000596046,8|0,3:3|3:3,3:3:0:0:
120,191,180808,2,0,L|64:233,1,70.000000596046,8|0,3:3|3:3,3:3:0:0:
107,313,181606,2,0,P|153:319|188:307,1,70.000000596046,8|0,3:3|3:3,3:3:0:0:
264,295,182404,5,8,3:3:0:0:
353,280,182803,2,0,P|387:273|421:280,1,70.000000596046,0|8,3:3|3:3,3:3:0:0:
256,192,183602,12,4,185198,3:3:0:0:
