osu file format v5

[General]
AudioFilename: right round.mp3
AudioLeadIn: 0
PreviewTime: -1
Countdown: 1
SampleSet: Normal
StackLeniency: 0.7
Mode: 0
LetterboxInBreaks: 1

[Metadata]
Title:Right Round
Artist:Flo Rida
Creator:assasinn
Version:Normal
Source:iTunes
Tags:flo rida rider florida florider assasinn

[Difficulty]
HPDrainRate:2
CircleSize:5
OverallDifficulty:6
SliderMultiplier:1.4
SliderTickRate:2

[Events]
//Background and Video events
0,0,"Dynamic Digi.png"
//Break Periods
2,38200,42150
2,161950,169400
//Storyboard Layer 0 (Background)
//Storyboard Layer 1 (Failing)
//Storyboard Layer 2 (Passing)
//Storyboard Layer 3 (Foreground)
//Storyboard Sound Samples
//Background Colour Transformations
3,100,0,0,255

[TimingPoints]
0,1000,4,1,0,100,1

[Colours]
Combo1 : 237,94,240
Combo2 : 66,131,179
Combo3 : 5,5,240
Combo4 : 182,221,23

[HitObjects]
224,224,8000,1,4
352,160,8750,1,4
416,160,9250,1,4
448,224,9750,5,4
320,288,10250,1,4
224,160,11250,1,2
320,128,11750,5,0
224,256,13500,1,0
288,256,14000,1,0
352,256,14500,5,0
416,256,15000,1,0
384,160,15750,1,0
288,160,16250,5,0
256,160,16750,1,0
192,160,17250,1,0
128,160,17750,5,0
96,192,18250,1,0
192,256,18750,1,0
288,256,19250,5,0
352,224,20250,1,0
320,160,20750,1,0
192,160,22000,5,0
160,160,22500,1,0
256,192,23250,12,0,26500
192,224,28750,5,2
256,224,29250,1,0
320,224,29750,1,8
384,256,30250,5,2
160,288,31250,1,0
256,288,31750,1,8
320,288,32250,5,2
384,288,32750,1,0
448,320,33250,1,8
96,192,35000,5,2
160,192,35500,1,0
224,192,36000,1,8
96,192,36500,6,4,B|192:192|320:224|288:256,1,210
128,160,42750,5,0
160,160,43250,1,0
224,160,43750,1,4
288,160,44250,5,0
320,160,44750,1,0
384,128,45250,1,4
448,160,45750,5,0
32,256,46750,1,0
160,224,47500,5,0
224,192,48000,1,0
288,192,48500,1,4
384,192,49000,5,0
416,192,49500,1,0
96,256,50500,1,4
160,224,51000,5,8
224,192,51500,1,8
288,192,52000,1,2
352,192,52500,5,6
448,224,53250,1,6
96,224,54250,5,4
160,192,54750,1,4
224,192,55250,1,4
288,192,55750,5,4
384,192,56250,1,4
448,192,56750,1,4
96,192,58250,5,0
160,160,58750,1,0
224,128,59000,1,0
128,192,60500,5,0
160,192,61000,1,0
256,192,62000,1,0
320,192,62500,5,0
352,160,63000,1,0
416,160,63500,5,0
480,192,64000,5,0
448,256,64250,1,0
352,288,64750,5,0
288,256,65250,1,0
160,192,65750,1,0
160,128,66250,5,0
224,96,66750,1,0
320,96,67250,5,0
384,128,67750,1,8
416,192,68250,5,0
448,224,68750,1,8
128,256,69750,1,8
192,288,70250,5,8
256,288,70500,1,8
320,256,71250,1,8
352,224,71500,5,8
416,224,72000,1,8
448,256,72500,1,8
224,320,74250,5,0
256,192,75250,1,0
288,192,75750,1,0
384,192,76250,5,0
128,288,77500,1,0
160,288,77750,1,0
192,288,78250,5,0
224,288,79250,1,0
256,288,79750,1,0
288,288,80250,5,0
256,256,81250,1,0
224,256,81750,1,0
192,256,82250,5,0
160,224,83000,1,0
192,224,83500,1,0
224,224,84000,5,0
320,256,85000,1,0
288,256,85500,1,0
224,256,86000,5,0
192,256,87000,1,0
160,256,87500,1,0
128,256,88000,5,0
128,192,88750,1,0
160,192,89250,1,0
224,192,89750,5,0
288,192,90500,1,0
320,192,91000,1,0
352,192,91250,5,0
320,288,92750,1,0
288,256,93250,1,0
256,224,93750,5,0
192,224,94750,1,0
128,224,95500,1,0
288,288,96750,5,0
288,288,97000,1,0
320,256,98000,1,0
352,256,98500,5,0
384,256,99000,1,0
416,288,99500,1,0
96,160,102250,5,0
192,192,102750,1,0
288,192,103250,1,0
96,224,104250,5,0
192,256,104750,1,0
256,256,105250,1,0
160,160,106000,5,0
192,160,106500,1,0
256,160,107250,1,0
320,224,108250,5,0
256,256,108500,1,0
224,256,109000,5,0
192,224,109500,1,0
160,192,110000,1,0
160,160,110500,5,0
192,160,111000,5,0
256,160,111250,1,0
384,160,111750,1,0
384,192,112500,1,0
384,224,113000,1,0
320,256,113250,1,0
256,224,113750,5,0
224,192,114250,1,0
192,160,114750,1,0
192,128,115250,1,0
320,128,115750,1,0
384,128,116250,1,0
480,192,116750,1,0
448,256,117250,5,0
384,320,117500,1,0
320,288,118000,1,0
288,224,118500,1,0
256,192,119000,1,0
256,160,119500,1,0
256,128,120000,1,0
256,128,120500,1,0
224,128,121000,5,0
192,160,121250,1,0
192,160,121500,1,0
224,192,122000,1,0
256,224,122500,1,0
352,256,123500,5,0
448,224,124000,1,0
448,128,124250,1,0
416,128,124750,1,0
352,128,125250,1,0
320,128,125750,5,0
288,128,126250,1,0
256,128,126750,1,0
224,160,127250,1,0
224,160,127500,1,0
192,160,127750,5,0
256,224,128250,1,0
288,224,128750,1,0
320,224,129250,1,0
384,224,129750,5,0
384,224,130250,1,0
288,96,131250,5,0
256,128,131500,1,0
192,128,132000,5,0
160,192,132500,1,0
192,192,133000,1,0
256,192,133500,5,0
320,224,134000,1,0
320,256,135000,1,0
288,256,135500,5,0
256,256,136000,1,0
224,96,136750,5,0
160,96,137250,1,0
128,128,137750,1,0
256,192,138750,5,0
320,192,139250,1,0
352,192,139750,1,0
352,256,140250,1,0
320,256,140750,1,0
288,256,141250,1,0
256,256,141750,1,0
256,192,142500,1,0
224,192,143000,5,0
192,192,143500,1,0
160,224,144250,5,0
192,256,144500,1,0
256,256,145000,1,0
352,256,145500,1,0
288,128,147000,5,0
224,128,147500,5,0
160,128,147750,1,0
256,192,148000,12,0,152250
192,224,152750,5,0
256,256,153250,1,0
160,256,154250,1,0
256,256,154500,1,0
288,256,155000,1,0
128,192,156250,5,0
192,192,156500,1,0
256,192,157000,5,0
192,256,157500,1,0
288,256,158000,1,0
384,256,158500,1,0
448,256,159000,1,0
416,320,159500,1,0
352,320,160000,1,0
288,320,160250,1,0
224,320,160750,5,0
128,256,161250,1,0
192,224,161750,1,0
288,224,170000,5,0
256,224,170500,1,0
224,256,171000,1,0
160,256,171500,5,0
160,256,172000,1,0
96,224,172500,1,0
160,192,172750,5,0
288,192,173250,1,0
320,192,173750,1,0
384,192,174250,5,0
384,256,174750,1,0
320,256,175250,1,0
256,256,175750,5,0
224,256,176250,1,0
160,256,177250,1,0
128,256,177750,5,0
192,224,178250,1,0
224,192,178750,1,0
288,192,179000,5,0
352,192,179500,1,0
416,192,180000,1,0
448,256,180500,5,0
384,288,181000,1,0
352,288,181500,1,0
320,288,182000,5,0
256,288,182500,1,0
224,288,183000,5,0
192,288,183500,5,0
192,288,183750,1,0
224,192,185000,5,0
256,192,185250,1,0
320,192,185750,5,0
384,224,186250,1,0
352,256,186750,1,0
320,256,187250,5,0
256,256,187750,1,0
224,256,188250,1,0
192,192,188750,5,0
256,160,189250,1,0
288,160,189750,1,0
288,160,190250,5,0
352,160,190500,1,0
416,192,191000,5,0
448,224,191500,1,0
288,256,192500,1,0
256,224,193000,5,0
224,160,193500,1,0
320,128,194000,1,0
416,160,194500,5,0
448,224,195000,1,0
384,256,195500,5,0
256,224,195750,1,0
192,192,196250,5,0
256,128,196750,1,0
320,128,197250,1,0
384,160,197750,5,0
384,256,198250,1,0
288,224,198750,1,0
192,160,199250,5,0
