osu file format v5

[General]
AudioFilename: Flo-Rida - Right Round.mp3
AudioLeadIn: 0
PreviewTime: 8012
Countdown: 1
SampleSet: Soft
StackLeniency: 0.7
Mode: 0
LetterboxInBreaks: 1

[Metadata]
Title:Right Round
Artist:Flo Rida
Creator:Rolled
Version:Hard
Source:
Tags:

[Difficulty]
HPDrainRate:7
CircleSize:5
OverallDifficulty:7
SliderMultiplier:2
SliderTickRate:1

[Events]
//Background and Video events
0,0,"1347717467_61d130d0e9_o.jpg"
//Break Periods
2,84532,98632
2,161491,168072
//Storyboard Layer 0 (Background)
//Storyboard Layer 1 (Failing)
//Storyboard Layer 2 (Passing)
//Storyboard Layer 3 (Foreground)
//Storyboard Sound Samples
//Background Colour Transformations
3,100,163,162,255

[TimingPoints]
7692,480,4,2,0,43,1
23042,-100,4,1,0,51,0
54088,-100,4,1,0,20,0
54568,-100,4,1,0,25,0
55048,-100,4,1,0,30,0
55528,-100,4,1,0,35,0
56488,-100,4,1,0,40,0
57448,-100,4,1,0,45,0
58488,-100,4,1,0,50,0
58888,-100,4,1,0,54,0
59928,-100,4,1,0,60,0
60328,-100,4,1,0,65,0
60808,-100,4,1,0,71,0
61288,-100,4,1,0,30,0
62168,-100,4,1,0,36,0
63128,-100,4,1,0,40,0
64088,-100,4,1,0,50,0
64088,-100,4,1,0,45,0
65048,-100,4,1,0,55,0
66008,-100,4,2,0,40,0
66168,-100,4,1,0,60,0
67132,-100,4,1,0,61,0
67292,-100,4,2,0,70,0
67612,-100,4,1,0,70,0
67772,-100,4,2,0,81,0
68652,-100,4,1,0,71,0
98892,-100,4,1,0,51,0
115532,-100,4,1,0,20,0
116012,-100,4,1,0,25,0
116812,-100,4,1,0,30,0
117772,-100,4,1,0,35,0
119212,-100,4,1,0,40,0
120332,-100,4,1,0,46,0
121132,-100,4,1,0,50,0
121772,-100,4,1,0,58,0
122252,-100,4,1,0,66,0
122812,-100,4,1,0,30,0
123772,-100,4,1,0,34,0
124652,-100,4,1,0,40,0
125612,-100,4,1,0,45,0
126572,-100,4,1,0,50,0
127372,-100,4,2,0,40,0
127612,-100,4,1,0,55,0
128572,-100,4,1,0,61,0
145932,-100,4,2,0,100,0
147772,-100,4,1,0,50,0
147932,-100,4,2,0,100,0
149692,-100,4,1,0,50,0
149852,-100,4,2,0,100,0
151612,-100,4,1,0,50,0
151772,-100,4,2,0,100,0
153532,-100,4,1,0,50,0
153692,-100,4,2,0,100,0
155452,-100,4,1,0,51,0
155612,-100,4,2,0,100,0
157372,-100,4,1,0,60,0
157532,-100,4,2,0,100,0
158332,-100,4,1,0,65,0
158492,-100,4,2,0,100,0
159292,-100,4,1,0,70,0
159452,-100,4,2,0,100,0
159772,-100,4,1,0,75,0
159932,-100,4,2,0,100,0
160252,-100,4,1,0,80,0
160412,-100,4,2,0,100,0
160732,-100,4,1,0,85,0
160892,-100,4,2,0,100,0
168492,-100,4,1,0,30,0
169772,-100,4,1,0,35,0
170572,-100,4,1,0,40,0
171532,-100,4,1,0,44,0
172492,-100,4,1,0,50,0
173452,-100,4,1,0,54,0
174412,-100,4,1,0,60,0
175532,-100,4,1,0,79,0
176012,-100,4,1,0,91,0
176492,-100,4,1,0,29,0
177452,-100,4,1,0,36,0
178252,-100,4,1,0,44,0
179212,-100,4,1,0,52,0
180172,-100,4,1,0,60,0
181212,-100,4,2,0,49,0
181372,-100,4,1,0,75,0
183372,-100,4,1,0,100,0

[Colours]
Combo1 : 14,154,222
Combo2 : 209,7,68
Combo3 : 138,0,138
Combo4 : 244,224,81

[HitObjects]
104,296,8172,1,0
256,168,8652,1,0
408,296,9132,1,0
160,88,9612,6,2,B|256:8|352:104,3,200
256,192,11532,1,2
64,264,12012,5,0
160,352,12332,1,0
224,352,12492,1,0
256,192,12972,1,0
448,264,13452,5,0
352,352,13772,1,0
288,352,13932,1,0
256,192,14412,1,2
256,192,14892,1,2
256,56,15372,5,4
432,224,15852,2,0,B|432:112|296:48,1,200
80,224,16812,2,0,B|80:112|216:48,1,200,0|0
352,296,17772,6,2,B|224:360|104:256,3,200
96,120,19692,5,0
216,56,20012,1,0
200,120,20172,2,0,B|256:216|392:216,1,200
416,120,21132,5,0
296,56,21452,1,0
312,120,21612,2,0,B|256:216|120:216,2,200,0|2|2
256,192,22652,12,8,23532
88,224,23692,5,0
72,160,23852,1,0
104,96,24012,2,0,B|192:56|280:128,1,133.333333333333,0|0
248,160,24492,1,8
280,216,24652,1,0
344,216,24812,1,0
408,224,24972,2,0,B|416:320|264:304,1,133.333333333333,0|0
256,328,25452,5,8
200,296,25612,2,0,B|184:280|152:320|120:296,2,66.6666666666667
216,232,26092,1,0
264,184,26252,1,0
312,144,26412,2,0,B|264:56|96:64,1,200,8|4
448,336,27372,5,8
400,288,27532,1,0
336,256,27692,2,0,B|280:264|288:320,2,66.6666666666667
392,224,28172,1,0
384,160,28332,2,0,B|344:80|248:80,1,133.333333333333,8|0
232,128,28812,1,0
176,88,28972,1,0
120,128,29132,1,0
80,184,29292,5,8
128,224,29452,2,0,B|152:264|112:296,2,66.6666666666667
184,184,29932,1,0
232,232,30092,1,0
288,264,30252,2,8,B|416:272|448:144,1,200,8|4
288,32,31212,5,8
224,56,31372,1,0
208,120,31532,1,0
160,168,31692,2,0,B|56:208|136:328,1,133.333333333333
152,320,32172,1,8
208,280,32332,1,0
272,264,32492,1,0
304,320,32652,2,0,B|384:344|432:256,1,133.333333333333
392,216,33132,6,0,B|440:200|480:240,2,66.6666666666667,8|0|0
328,200,33612,1,0
296,144,33772,1,0
328,88,33932,1,0
384,56,34092,2,0,B|304:-24|176:32,1,200,8|4
160,80,34732,5,0
96,112,34892,1,0
96,112,35052,2,0,B|136:192|216:184,1,133.333333333333,8|0
328,144,35532,5,0
392,168,35692,1,0
416,224,35852,1,0
416,224,36012,2,0,B|376:296|288:296,1,133.333333333333,8|0
176,328,36492,5,4
120,296,36652,1,0
64,264,36812,1,0
120,296,36972,5,12
176,256,37132,1,0
224,216,37292,1,0
176,256,37452,5,4
120,224,37612,1,0
64,192,37772,1,0
120,152,37932,2,2,B|216:72|344:120,1,200,2|6
320,304,38892,5,8
368,256,39052,1,0
392,192,39212,1,0
408,128,39372,2,0,B|456:136|464:184,2,66.6666666666667
360,80,39852,1,8
312,128,40012,1,0
256,168,40172,1,0
192,136,40332,2,0,B|168:96|216:72,2,66.6666666666667
144,184,40812,5,8
96,232,40972,1,0
32,248,41132,1,0
80,296,41292,1,0
112,352,41452,1,0
176,352,41612,1,0
208,296,41772,2,0,B|240:192|368:176,1,200,8|4
176,80,42732,5,8
224,32,42892,1,0
288,40,43052,1,0
304,104,43212,2,0,B|304:184|392:208,1,133.333333333333
440,224,43692,2,0,B|464:184|440:160,2,66.6666666666667,8|0|0
392,272,44172,2,0,B|352:336|264:320,1,133.333333333333
224,280,44652,5,8
160,264,44812,1,0
96,240,44972,1,0
160,176,45132,5,0
224,152,45292,1,0
288,128,45452,1,0
352,56,45612,6,0,B|272:0|144:32,1,200,8|4
296,336,46572,5,8
352,304,46732,1,0
376,240,46892,1,0
416,184,47052,2,0,B|456:200|464:240,2,66.6666666666667
360,152,47532,1,8
304,112,47692,1,0
288,48,47852,1,0
224,64,48012,2,0,B|176:88|144:40,2,66.6666666666667,4|0|0
232,128,48492,6,0,B|232:176|288:176,2,66.6666666666667,12|0|0
168,120,48972,6,0,B|144:104|112:136|88:120,2,66.6666666666667,4|0|0
184,184,49452,6,0,B|144:288|288:352,1,200,8|4
320,296,50092,1,0
376,264,50252,1,0
400,200,50412,2,0,B|440:176|496:208,2,66.6666666666667,8|0|0
336,184,50892,1,0
304,128,51052,1,0
328,64,51212,1,0
264,32,51372,2,0,B|176:24|112:136,1,133.333333333333,8|0
128,152,51852,5,4
88,208,52012,1,0
24,216,52172,1,0
88,208,52332,5,12
136,256,52492,1,0
136,320,52652,1,0
136,256,52812,5,4
192,216,52972,1,0
240,264,53132,1,0
256,200,53292,1,12
256,200,53772,5,4
72,192,54252,6,0,B|112:80|248:72,1,200
320,224,55212,2,0,B|344:320|496:360,1,200
400,72,56172,2,0,B|280:80|232:184,3,200
64,296,58092,5,0
176,224,58412,1,0
176,224,58572,1,0
344,328,59052,1,0
464,32,59532,5,0
352,104,59852,1,0
352,104,60012,1,0
184,0,60492,1,0
40,192,60972,1,0
184,384,61452,5,2
328,384,61932,1,2
144,296,62412,5,2
368,296,62892,1,2
104,208,63372,5,2
408,208,63852,1,2
64,120,64332,5,2
448,120,64812,1,2
256,24,65292,5,2
432,288,65772,6,0,B|416:200|288:192,1,133.333333333333,2|0
328,280,66252,2,0,B|384:376|464:368|504:328,1,200,2|2
176,304,67212,5,4
224,256,67372,1,0
272,208,67532,1,2
368,176,67692,5,4
328,120,67852,1,0
296,64,68012,1,2
256,192,68172,12,4,69132
56,88,69292,5,0
104,48,69452,1,0
168,40,69612,1,8
464,216,69932,5,0
472,280,70092,1,0
424,328,70252,1,0
360,344,70412,1,0
296,320,70572,1,8
96,320,71052,5,4
88,256,71212,1,0
136,208,71372,1,0
240,240,71532,5,12
304,224,71692,1,0
336,168,71852,1,0
272,80,72012,5,4
312,24,72172,1,0
376,16,72332,1,0
440,40,72492,1,8
232,312,72972,6,0,B|144:336,2,66.6666666666667,4|0|0
288,240,73452,2,0,B|360:264,2,66.6666666666667,12|0|0
224,176,73932,2,0,B|144:200,2,66.6666666666667,4|0|0
344,160,74412,5,12
200,56,75212,5,0
144,88,75372,2,0,B|80:112|96:208,1,133.333333333333,8|0
168,296,75852,6,6,B|256:352|360:296,1,200,2|6
432,184,76492,5,0
376,144,76652,1,0
312,120,76812,1,0
312,120,76972,1,0
376,80,77132,1,0
432,40,77292,1,8
128,144,77612,5,0
80,192,77772,1,0
80,256,77932,1,0
40,304,78092,1,0
40,304,78252,1,8
320,64,78732,6,0,B|232:56|200:120,1,133.333333333333,0|0
312,168,79212,2,0,B|368:200|368:248|312:272,1,133.333333333333,8|0
216,248,79692,2,0,B|208:328|304:360,1,133.333333333333,0|0
282,351,80172,1,8
136,96,80652,5,0
184,144,80812,1,0
240,112,80972,1,0
312,184,81132,5,8
256,216,81292,1,0
296,272,81452,1,0
144,248,81612,5,0
200,280,81772,1,0
168,336,81932,1,0
56,320,82092,5,12
256,192,82892,12,8,84012
256,192,84332,5,12
240,104,99532,5,0
296,144,99692,1,0
264,200,99852,2,0,B|168:224|160:328,1,133.333333333333
232,312,100332,1,8
296,296,100492,1,0
352,256,100652,1,0
400,216,100812,2,0,B|424:136|352:80,1,133.333333333333
304,64,101292,1,8
240,72,101452,1,0
192,112,101612,1,0
136,144,101772,2,0,B|64:192|112:280,1,133.333333333333
160,288,102252,5,8
216,320,102412,1,0
280,320,102572,1,0
320,264,102732,2,0,B|360:288|352:344,2,66.6666666666667
264,224,103212,2,0,B|288:112|424:112,1,200,8|4
216,64,104172,5,8
216,64,104332,1,0
216,64,104492,1,0
168,112,104652,2,0,B|112:128|80:56,2,66.6666666666667,0|0|0
232,128,105132,2,0,B|264:200|368:216,1,133.333333333333,8|0
392,176,105612,2,0,B|416:256|328:304,1,133.333333333333,0|0
280,296,106092,5,8
216,280,106252,1,0
176,224,106412,1,0
128,176,106572,2,0,B|80:200|104:264,2,66.6666666666667,0|0|0
192,160,107052,2,0,B|296:144|304:64,1,133.333333333333,8|0
298,90,107532,1,4
360,320,108012,5,8
408,272,108172,1,0
408,272,108332,1,0
456,320,108492,1,0
320,192,108812,5,0
432,144,108972,5,8
384,96,109132,1,0
384,96,109292,1,0
432,48,109452,1,0
320,192,109772,5,0
192,152,109932,6,0,B|112:192|136:272,1,133.333333333333,8|0
208,232,110412,2,0,B|160:184|72:192,1,133.333333333333,0|0
132,259,110892,2,0,B|184:184|152:120,1,133.333333333333,8|0
88,128,111372,5,4
120,72,111532,1,0
184,48,111692,1,0
248,40,111852,1,8
400,224,112172,5,0
384,288,112332,1,0
328,328,112492,1,0
264,344,112652,1,0
200,336,112812,1,8
96,152,113132,5,0
168,32,113292,6,0,B|288:48|328:120,1,133.333333333333,4|0
384,128,113772,6,0,B|280:136|224:184,1,133.333333333333,12|0
136,200,114252,6,0,B|216:216|256:288,1,133.333333333333,4|0
312,352,114732,6,0,B|408:328|408:240,1,133.333333333333,12|0
405,267,115212,1,4
64,192,115692,6,0,B|80:112|192:64,1,133.333333333333
143,89,116172,1,0
256,224,116652,5,0
369,89,116972,5,0
369,89,117132,2,0,B|432:112|447:189,1,133.333333333333
352,288,117612,6,0,B|240:352|144:272,2,200
256,48,119052,2,0,B|296:128|216:168|264:248,1,200
440,328,119852,5,0
440,328,120012,1,0
440,328,120492,1,0
256,224,120972,5,0
72,328,121292,5,0
72,328,121452,1,0
160,72,121932,6,0,B|272:8|368:88,2,200,0|0|2
344,152,123372,1,2
104,224,123852,1,2
424,304,124332,1,2
40,368,124812,1,2
472,368,125292,5,2
88,304,125772,1,2
408,224,126252,1,2
168,152,126732,1,2
256,352,127212,5,2
256,352,127532,1,0
256,352,127692,2,0,B|256:136,1,200,2|2
256,192,128652,12,4,130092
192,144,130252,5,0
152,200,130412,2,0,B|72:200,3,66.6666666666667
40,144,131052,1,8
320,144,131372,5,0
360,200,131532,2,0,B|440:200,2,66.6666666666667
320,256,132012,1,12
216,72,132492,5,0
216,72,132812,1,0
296,136,132972,5,8
296,136,133292,1,0
216,200,133452,5,0
216,200,133772,1,0
296,256,133932,5,8
296,256,134092,5,0
280,320,134252,1,0
216,344,134412,1,0
152,336,134572,1,0
104,288,134732,1,0
80,224,134892,2,0,B|80:128|176:80,1,133.333333333333,8|0
176,160,135372,2,0,B|208:224|304:200,1,133.333333333333
328,256,135852,1,8
440,40,136652,5,0
392,80,136812,1,8
392,80,137132,1,0
256,96,137292,6,2,B|168:176|256:280,1,200,2|6
376,256,137932,5,0
424,296,138092,1,0
424,296,138252,1,0
424,296,138412,1,0
376,344,138572,1,0
328,296,138732,6,0,B|176:296,1,133.333333333333,8|0
136,256,139212,5,0
88,296,139372,1,0
88,296,139532,1,0
136,344,139692,1,8
264,56,140172,6,0,B|272:120|336:128,1,66.6666666666667,4|0
294,113,140492,1,0
232,144,140652,6,0,B|224:208|160:216,1,66.6666666666667,12|0
202,201,140972,1,0
264,232,141132,6,0,B|272:296|336:304,1,66.6666666666667,4|0
294,289,141452,1,0
232,320,141612,5,12
56,144,142092,5,0
120,128,142252,1,0
160,80,142412,1,0
208,40,142572,1,8
256,0,142732,1,0
256,0,142892,5,0
304,40,143052,1,0
352,80,143212,1,0
392,128,143372,1,0
456,144,143532,1,12
256,192,144492,12,0,145452
256,88,145772,5,4
128,192,146732,5,0
160,248,146892,1,2
216,288,147052,1,0
280,296,147212,1,0
344,304,147372,2,0,B|408:264|368:168,1,133.333333333333,2|0
374,185,147852,1,4
256,16,148332,5,8
392,96,148652,5,0
432,144,148812,1,2
440,208,148972,1,0
416,272,149132,1,0
360,312,149292,1,2
224,288,149612,1,0
224,288,149772,1,4
80,152,150252,5,8
208,120,150572,5,0
248,168,150732,2,0,B|304:224|392:192,1,133.333333333333,2|0
376,128,151212,2,0,B|448:152|440:216|424:248,1,133.333333333333,2|0
376,272,151692,1,4
200,288,152012,5,0
152,240,152172,1,2
168,176,152332,1,0
168,112,152492,1,0
168,112,152652,2,0,B|272:56|384:120,1,200,2|2
448,280,153452,5,0
448,280,153612,1,4
64,280,154092,5,8
160,208,154252,5,0
216,168,154412,1,0
280,152,154572,1,2
344,176,154732,1,0
400,208,154892,1,0
464,192,155052,2,2,B|504:120|424:48,1,133.333333333333
445,69,155532,1,4
256,24,156012,5,8
176,88,156172,5,2
144,144,156332,1,0
176,200,156492,1,2
120,240,156652,1,0
176,200,156812,1,0
216,256,156972,2,2,B|288:288|368:224,1,133.333333333333
432,176,157452,5,4
416,112,157612,1,0
352,88,157772,1,0
368,152,157932,1,4
256,192,158252,1,8
168,256,158412,5,4
184,320,158572,1,0
120,296,158732,1,0
104,232,158892,1,4
256,192,159212,5,8
168,120,159372,5,4
224,88,159532,1,0
248,24,159692,1,0
248,24,159852,5,4
288,88,160012,1,0
344,120,160172,1,0
344,256,160332,6,0,B|244:318|156:254,2,200,4|4|4
408,88,168972,5,0
256,216,169452,1,0
104,88,169932,1,0
352,296,170412,6,0,B|256:376|160:280,3,200
256,192,172332,1,0
256,16,172812,1,0
256,192,173292,1,0
440,328,173612,5,0
440,328,173772,1,0
440,328,174252,1,0
256,224,174732,5,0
72,328,175052,5,0
72,328,175212,1,0
160,72,175692,6,0,B|272:8|368:88,2,200,0|0|2
480,352,177132,5,2
32,32,177612,1,2
32,352,178092,5,2
480,32,178572,1,2
256,32,179052,5,2
256,352,179532,1,2
40,192,180012,5,2
472,192,180492,1,2
192,144,180972,6,0,B|256:96|336:160,1,133.333333333333,2|0
336,240,181452,2,0,B|312:304|200:304|168:240,1,200,2|2
256,192,182412,12,4,183852
