osu file format v5

[General]
AudioFilename: 02 Flo Rida - Jump [Feat. Nelly Furtado].mp3
AudioLeadIn: 0
PreviewTime: -1
Countdown: 1
SampleSet: Normal
StackLeniency: 0.7
Mode: 0
LetterboxInBreaks: 1

[Editor]
Bookmarks: 97577
DistanceSpacing: 1
BeatDivisor: 4
GridSize: 8

[Metadata]
Title:Jump
Artist:Flo Rida (feat. Nelly Furtado)
Creator:EEeee
Version:Jumpin
Source:
Tags:

[Difficulty]
HPDrainRate:7
CircleSize:5
OverallDifficulty:7
SliderMultiplier:1.6
SliderTickRate:2

[Events]
//Background and Video events
0,0,"JUMP!!!.jpg"
//Break Periods
2,44783,47837
2,89090,95683
2,141244,143144
2,145167,146837
//Storyboard Layer 0 (Background)
//Storyboard Layer 1 (Fail)
//Storyboard Layer 2 (Pass)
//Storyboard Layer 3 (Foreground)
//Storyboard Sound Samples
//Background Colour Transformations
3,100,163,162,255

[TimingPoints]
15506.2599089841,461.538461538462,4,1,0,59,1,0
188558,-200,4,1,0,11,0,0
189156,-100,4,1,0,59,0,0
190795,-200,4,1,0,11,0,0
192502,-100,4,2,0,52,0,0
195733,-200,4,1,0,0,0,0
196425,-100,4,1,0,49,0,0

[Colours]
Combo1 : 149,149,255
Combo2 : 251,181,77
Combo3 : 255,255,6
Combo4 : 0,128,255

[HitObjects]
120,48,15275,1,0
80,120,15506,1,0
160,120,15737,1,0
48,160,15967,5,0
192,160,16198,1,0
120,200,16429,6,0,B|120:288,1,80
40,280,16890,1,0
120,280,17121,1,0
200,280,17352,1,0
280,280,17583,1,0
200,280,17813,1,0
360,280,18275,1,0
360,120,18737,5,0
360,120,18967,1,0
360,120,19198,1,0
280,120,19429,1,0
200,120,19660,1,0
120,120,19890,1,0
120,120,20121,1,0
120,120,20352,1,0
200,120,20583,5,0
240,120,20698,1,0
280,120,20813,1,0
240,192,21044,1,0
120,296,21506,5,0
360,296,21967,1,0
240,192,22429,5,0
200,176,22544,1,0
168,152,22660,1,0
128,80,22890,1,0
240,192,23352,1,0
280,176,23467,1,0
312,152,23583,1,0
344,80,23813,1,0
240,192,24275,5,0
240,192,24506,1,0
240,192,24737,2,0,B|240:288,4,80
80,192,26121,5,0
160,192,26352,2,0,B|160:296,5,80
240,272,27737,1,0
312,232,27967,1,0
376,192,28198,1,0
312,144,28429,5,0
72,144,28890,1,0
312,144,29352,1,0
232,144,29583,5,0
232,224,29813,1,0
152,224,30044,1,0
152,304,30275,1,0
152,304,30390,1,0
152,304,30506,1,0
152,304,30621,1,0
152,304,30737,2,0,B|240:304,1,80
312,304,31198,5,0
352,304,31313,1,8
392,304,31429,1,0
392,224,31660,1,0
352,224,31775,1,8
312,224,31890,1,0
352,160,32121,1,8
392,88,32352,1,0
352,88,32467,1,0
312,88,32583,1,8
152,88,33044,6,0,B|152:24,2,40,0|8|0
72,88,33506,2,0,B|72:32,2,40,0|8|0
72,168,33967,1,8
72,208,34083,1,8
72,248,34198,1,0
72,328,34429,1,8
192,328,34890,6,0,B|192:376,2,40,0|8|0
192,248,35352,1,0
192,168,35583,2,0,B|192:112,2,40,0|8|0
192,248,36044,1,8
272,248,36275,1,8
432,248,36737,5,0
432,168,36967,1,0
432,128,37083,1,0
400,96,37198,1,0
368,72,37313,1,0
336,48,37429,1,0
304,72,37544,1,0
272,96,37660,1,0
232,168,37890,1,8
232,248,38121,1,8
72,248,38583,5,0
72,208,38698,1,0
72,168,38813,2,0,B|72:120,5,40
72,88,39506,1,0
72,88,39621,1,0
72,88,39737,1,8
72,88,39852,1,0
72,88,39967,1,8
232,88,40313,5,8
232,168,40544,1,8
232,168,40660,1,0
312,168,40890,1,0
432,168,41237,5,8
432,248,41467,1,8
432,248,41583,1,0
352,248,41813,1,0
232,248,42160,5,8
232,328,42390,1,8
232,328,42506,1,0
152,328,42737,1,0
56,248,43083,5,8
56,168,43313,1,8
56,168,43429,1,0
136,168,43660,1,8
136,88,43890,5,0
136,88,44006,1,0
136,88,44121,1,8
136,88,44237,1,0
136,88,44352,1,0
216,88,44583,1,8
400,72,48737,5,0
280,72,49083,1,0
280,72,49198,1,0
200,72,49429,1,0
200,72,49544,1,0
200,72,49660,1,0
120,72,49890,2,0,B|120:168,1,80
120,232,50352,1,0
120,232,50583,5,0
120,352,50929,1,0
120,352,51044,1,0
120,352,51160,1,0
160,352,51275,1,0
200,352,51390,1,0
240,352,51506,1,0
320,352,51737,1,0
320,272,51967,1,0
320,112,52429,5,0
240,112,52660,1,0
240,112,52775,1,0
240,112,52890,1,0
240,112,53006,1,0
240,112,53121,1,0
240,112,53237,1,0
240,112,53352,2,0,B|240:56,2,40
240,192,53813,1,0
80,192,54275,6,0,B|24:192,2,40
160,192,54737,1,0
160,272,54967,2,0,B|152:328|232:320,1,80
272,272,55429,1,0
272,192,55660,1,0
392,192,56006,6,0,B|392:136,1,40
472,152,56352,1,0
472,192,56467,1,0
472,232,56583,1,0
392,320,56929,1,0
392,320,57044,1,0
392,320,57160,1,0
392,320,57275,2,0,B|392:200,1,80
392,160,57737,5,0
392,160,57852,1,0
392,160,57967,2,0,B|288:160,1,80
232,160,58429,1,0
152,160,58660,1,0
152,160,58775,1,0
152,160,58890,1,0
152,160,59006,1,0
152,160,59121,1,0
152,160,59237,1,0
152,160,59352,2,0,B|152:64,2,80,0|0|4
176,320,60275,5,0
336,320,60737,1,0
128,288,61198,5,0
384,288,61660,1,0
80,256,62121,5,0
432,256,62583,1,0
32,224,63044,5,0
480,224,63506,1,0
0,176,63967,5,0
512,176,64429,1,0
0,176,64890,1,0
512,176,65352,1,0
256,192,65813,5,0
256,192,66275,1,0
256,32,66737,5,0
256,32,66967,1,0
256,32,67198,2,0,B|256:208,1,160
176,192,67890,1,0
96,192,68121,2,0,B|72:320|208:280,1,160
256,288,68813,5,0
336,288,69044,1,0
416,264,69275,1,0
496,264,69506,1,0
496,184,69737,1,0
416,184,69967,2,0,B|416:72,2,80
336,184,70660,5,0
256,184,70890,1,0
192,136,71121,1,0
112,136,71352,1,0
40,96,71583,1,0
40,176,71813,2,0,B|40:272,1,80
120,256,72275,5,0
120,256,72506,1,0
120,256,72737,1,0
280,256,73198,1,0
200,112,73660,1,0
200,112,74121,1,0
200,112,74352,5,0
280,112,74583,2,0,B|280:232,1,80
280,272,75044,1,8
360,272,75275,1,0
440,272,75506,1,0
440,272,75737,1,0
440,272,75967,5,8
360,256,76198,1,0
288,216,76429,1,0
224,168,76660,1,0
168,104,76890,1,8
56,216,77352,1,0
168,328,77813,6,0,B|168:216,1,80,8|0
248,248,78275,1,0
136,216,78506,5,0
280,216,78737,1,8
104,184,78967,5,0
312,184,79198,1,0
208,144,79429,5,0
208,144,79660,1,8
208,144,79890,1,0
208,64,80121,1,0
48,64,80583,1,8
48,224,81044,1,0
208,224,81506,5,8
288,224,81737,1,0
368,224,81967,2,0,C|368:120,2,80,0|0|8
368,304,82660,1,0
288,304,82890,2,0,C|200:304,2,80,0|0|8
296,216,83583,1,0
216,216,83813,1,0
216,136,84044,1,0
296,136,84275,1,8
296,56,84506,6,0,C|392:56,2,80
216,56,85198,1,8
136,56,85429,2,0,C|48:56,2,80
216,56,86121,1,8
216,56,86352,2,0,C|216:152,1,80
216,216,86813,1,0
216,216,87044,1,8
216,216,87275,1,0
216,216,87506,5,0
136,352,87967,1,8
296,352,88429,1,0
216,216,88890,1,8
32,192,96583,6,0,C|32:120,2,53.3333333333333
88,192,97044,2,0,C|88:112,2,53.3333333333333,0|8|0
144,192,97506,2,0,C|144:128,2,53.3333333333333
144,248,97967,2,0,C|144:304,2,53.3333333333333,0|8|0
200,248,98429,2,0,C|200:312,2,53.3333333333333
256,248,98890,2,0,C|256:312,2,53.3333333333333,0|8|0
256,192,99352,1,0
256,136,99506,1,0
416,152,99967,1,8
416,72,100198,5,0
336,72,100429,1,0
256,72,100660,1,0
256,72,100775,1,0
256,72,100890,1,8
256,72,101006,1,0
256,72,101121,1,0
256,72,101237,1,0
256,72,101352,1,0
176,72,101583,5,0
96,72,101813,1,8
96,72,101929,1,0
96,72,102044,1,0
96,72,102160,1,0
96,72,102275,2,0,C|96:144,1,40
96,192,102621,5,0
96,232,102737,1,8
96,272,102852,1,0
176,272,103083,1,0
176,272,103198,2,0,C|264:272,1,80
336,272,103660,1,8
416,272,103890,1,0
416,112,104352,5,0
416,112,104583,1,8
416,112,104698,1,0
416,112,104813,1,0
416,112,104929,1,0
416,112,105044,1,0
336,112,105275,1,0
336,112,105390,1,0
336,112,105506,1,10
256,112,105737,1,2
96,112,106198,5,0
96,192,106429,1,8
96,192,106544,1,0
96,192,106660,1,0
96,192,106775,1,0
96,192,106890,1,0
96,192,107006,1,0
96,192,107121,2,0,B|96:256,2,40,0|0|10
176,192,107583,1,2
336,192,108044,5,0
336,272,108275,1,8
336,272,108390,1,0
336,272,108506,1,0
336,272,108621,1,0
336,272,108737,1,0
336,272,108852,1,0
336,272,108967,2,0,B|336:336,2,40,0|0|10
256,272,109429,1,2
256,112,109890,5,0
176,112,110121,1,8
136,40,110352,1,0
96,112,110583,1,0
96,112,110698,1,0
96,112,110813,1,0
96,112,110929,1,0
96,112,111044,1,10
96,192,111275,1,2
256,192,111737,5,0
256,192,111852,1,0
256,192,111967,2,2,B|352:192,1,80
416,192,112429,1,8
416,272,112660,5,0
416,272,112775,1,0
416,272,112890,2,2,B|296:272,1,80
256,272,113352,1,8
256,192,113583,12,0,114737
176,192,115198,5,0
336,192,115660,1,0
256,48,116121,1,2
256,128,116352,1,2
256,208,116583,1,2
256,192,117044,12,0,118429
48,192,118660,5,0
48,112,118890,2,0,B|112:72|136:144|208:88,1,160,0|8
360,96,119813,1,0
360,256,120275,1,8
296,304,120506,1,0
216,304,120737,1,0
152,256,120967,1,0
136,176,121198,2,8,B|216:152|224:224|288:168,1,160,8|0
448,168,122121,5,8
384,112,122352,1,0
320,64,122583,1,0
384,112,122813,1,0
320,160,123044,1,8
320,240,123275,1,0
240,240,123506,2,0,B|240:336,1,80
240,240,123967,2,0,B|240:136,1,80,8|0
160,160,124429,5,0
88,16,124890,1,8
24,160,125352,2,0,B|0:224|74:238|29:319,1,160,0|8
32,313,126044,1,0
112,312,126275,2,0,B|88:248|162:234|117:153,1,160,0|8
120,159,126967,1,0
200,160,127198,2,0,B|176:224|250:238|205:319,1,160,0|8
208,313,127890,1,0
288,312,128121,6,0,B|384:312,2,80,0|0|8
288,232,128813,1,0
368,232,129044,2,0,B|336:168|408:168|368:72,1,160,0|8
288,80,129737,1,0
208,80,129967,1,0
128,80,130198,1,0
48,80,130429,1,8
48,160,130660,1,0
48,240,130890,2,0,B|88:192|128:272|216:224,1,160,0|8
360,232,131813,5,0
360,72,132275,1,8
200,72,132737,1,0
200,232,133198,1,8
72,328,133660,5,0
256,64,134121,1,0
432,328,134583,1,0
432,248,134813,5,0
352,248,135044,1,0
352,328,135275,1,0
432,328,135506,5,0
256,64,135967,1,0
72,328,136429,1,0
72,248,136660,5,0
152,248,136890,1,0
152,328,137121,1,0
152,248,137352,5,0
208,192,137583,1,0
256,128,137813,1,0
256,128,138044,5,0
304,192,138275,1,0
360,248,138506,2,0,B|360:296,5,40
360,288,139198,6,0,B|360:328,24,26.6666666666667,0|0|0|0|0|0|0|0|0|0|0|0|0|0|0|0|0|0|0|0|0|4|4|4|4
96,208,144044,6,0,B|64:144|120:88|96:48,1,160
176,48,144737,1,0
256,48,144967,1,0
416,208,147737,6,0,B|448:144|392:88|416:48,1,160
336,48,148429,1,0
256,48,148660,1,0
256,128,148890,5,0
256,288,149352,1,0
184,128,149813,5,0
184,288,150275,1,0
112,128,150737,5,0
112,288,151198,1,0
32,288,151429,6,0,B|0:224|56:168|32:128,1,160
112,128,152121,1,0
192,128,152352,1,0
256,80,152583,5,0
320,128,152813,1,0
400,128,153044,1,0
400,208,153275,5,0
320,208,153506,1,0
256,256,153737,1,0
192,208,153967,5,0
112,208,154198,1,0
112,288,154429,1,0
192,288,154660,5,0
192,288,154775,1,0
192,288,154890,1,0
256,336,155121,1,0
320,288,155352,1,0
400,288,155583,5,0
400,208,155813,1,0
400,48,156275,1,8
400,208,156737,1,0
264,120,157198,1,8
184,120,157429,1,0
104,120,157660,1,0
144,48,157890,5,0
104,120,158121,1,8
104,280,158583,2,0,B|176:224|224:304|280:256,1,160,0|8
336,264,159275,5,0
416,264,159506,1,0
304,224,159737,5,0
448,224,159967,1,8
272,192,160198,5,0
480,192,160429,1,0
376,160,160660,5,0
376,160,160890,1,8
376,160,161121,1,0
376,80,161352,6,0,B|200:80,1,160,0|8
216,80,162044,1,0
216,80,162275,2,0,B|104:112|184:184|88:192,1,160,0|8
111,187,162967,1,0
175,231,163198,2,0,B|248:228|168:156|280:124,1,160,0|8
274,125,163890,1,0
344,168,164121,2,0,B|232:200|312:272|216:280,1,160,0|8
239,275,164813,6,0,B|200:256|176:320|144:240,1,80
240,240,165275,2,0,B|201:221|177:285|145:205,1,80,0|8
240,208,165737,2,0,B|201:189|177:253|145:173,2,80
312,240,166429,1,8
384,272,166660,2,0,B|423:253|447:317|479:237,1,80
383,237,167121,2,0,B|422:218|446:282|478:202,1,80,0|8
383,205,167583,2,0,B|422:186|446:250|478:170,2,80
312,240,168275,1,8
312,80,168737,5,0
152,80,169198,1,8
376,80,169660,5,0
88,80,170121,1,8
152,128,170352,5,0
216,176,170583,2,0,B|320:176,2,80,0|0|8
152,216,171275,1,0
88,264,171506,2,0,B|0:264,2,80,0|0|8
152,312,172198,1,0
216,264,172429,2,0,B|304:264,2,80,0|0|8
376,224,173352,2,0,B|208:224,1,160,0|8
216,144,174044,5,0
264,80,174275,1,0
328,32,174506,1,0
328,32,174737,1,8
328,32,174967,1,0
392,80,175198,1,0
440,144,175429,1,0
376,192,175660,1,8
296,192,175890,1,0
216,192,176121,6,0,B|128:168|80:224|48:176,1,160,0|8
60,188,176813,1,0
60,188,177044,2,0,B|84:259|-4:264|78:361,1,160,0|8
144,320,177737,5,0
216,280,177967,2,0,B|320:288|376:224,1,160,0|8
296,192,178660,1,0
296,192,178890,2,0,B|192:200|136:136,1,160,0|8
104,80,179583,5,0
72,152,179813,1,0
72,232,180044,1,0
72,232,180275,1,8
104,304,180506,1,0
104,304,180737,2,0,B|192:264|224:352|264:288,1,160,0|8
336,304,181429,6,0,B|432:272,1,80
408,200,181890,2,0,B|312:168,1,80,0|8
328,96,182352,2,0,B|424:72,1,80
328,96,182813,1,0
256,128,183044,1,8
208,192,183275,1,0
208,192,183506,5,0
208,192,183967,5,8
208,192,184429,5,0
208,192,184890,5,8
208,32,185352,5,0
128,32,185583,1,0
48,32,185813,1,0
48,32,185929,1,0
48,32,186044,1,0
48,112,186275,5,0
128,112,186506,2,0,B|240:112,1,80
288,112,186967,1,0
368,112,187198,5,0
368,112,187313,1,0
368,112,187429,1,0
368,112,187544,1,0
368,112,187660,2,0,B|408:176|304:192|376:272,1,160
208,264,188583,6,0,B|240:320|192:328|216:352,1,80,0|0
144,296,189275,5,0
144,216,189506,2,0,B|168:160|96:160|144:40,1,160
216,56,190198,2,0,B|328:32|384:56,1,160
376,128,190890,6,0,B|392:184|384:216,1,80
248,128,191813,2,0,B|224:192|248:232,1,80
344,320,192737,2,0,B|344:224,4,80,0|0|8|0|0
264,320,193890,1,0
184,320,194121,2,0,B|184:224,5,80,8|0|0|0|8|4
256,8,195967,6,0,B|240:80|280:80|240:112,1,80
256,168,196660,5,0
256,248,196890,1,8
176,248,197121,2,0,B|80:248,2,80
256,248,197813,1,8
336,248,198044,1,0
416,248,198275,5,0
416,248,198390,1,0
416,248,198506,1,0
416,168,198737,5,8
416,168,198852,1,0
416,168,198967,1,0
416,88,199198,5,0
416,88,199313,1,0
416,88,199429,1,0
336,88,199660,5,8
336,88,199775,1,0
336,88,199890,1,0
256,88,200121,5,4
