osu file format v5

[General]
AudioFilename: Flipsyde - Happy Birthday.mp3
AudioLeadIn: 0
PreviewTime: -1
Countdown: 2
SampleSet: Soft
StackLeniency: 0.7
Mode: 0
LetterboxInBreaks: 1

[Editor]
Bookmarks: 94032
DistanceSpacing: 0.800000011920929
BeatDivisor: 4
GridSize: 32

[Metadata]
Title:Happy Birthday
Artist:Flipsyde
Creator:Infra
Version:Normal
Source:
Tags:

[Difficulty]
HPDrainRate:5
CircleSize:5
OverallDifficulty:5
SliderMultiplier:1.4
SliderTickRate:4

[Events]
//Background and Video events
0,0,"flipsyde.jpg"
//Break Periods
2,49734,60795
//Storyboard Layer 0 (Background)
//Storyboard Layer 1 (Fail)
//Storyboard Layer 2 (Pass)
//Storyboard Layer 3 (Foreground)
//Storyboard Sound Samples
//Background Colour Transformations
3,100,163,162,255

[TimingPoints]
63873.5620789747,638.275066341153,4,2,0,100,1,0

[HitObjects]
32,96,12811,5,0
64,96,12971,1,0
96,96,13130,1,0
192,96,13449,1,0
64,160,14407,1,0
128,160,14726,1,0
160,96,15364,6,0,B|320:96,1,140
352,96,16322,1,0
352,160,16641,2,0,B|352:320,1,140
160,160,17917,5,0
192,160,18077,1,0
224,160,18236,1,0
224,224,18556,1,0
96,128,19513,1,0
128,128,19832,6,0,L|288:128,1,140
268,128,20789,1,0
268,128,21109,2,0,L|128:224,1,140
152,207,22066,1,0
152,207,22385,2,0,L|256:320,1,140
246,310,23343,1,0
246,310,23662,2,0,L|352:192,1,140
339,205,24619,1,0
339,205,24938,2,0,L|224:96,1,140
192,96,25896,1,0
128,96,26215,1,0
128,192,26853,6,0,L|224:192,2,70
256,128,27811,1,0
320,192,28130,6,0,L|416:192,2,70
256,128,29087,1,0
160,192,29406,6,0,L|256:192,3,70
256,192,30683,12,0,31321
256,192,31640,5,0
256,192,31959,12,0,32598
256,192,32917,5,0
192,64,33236,5,0
256,64,33395,1,0
320,64,33555,1,0
256,192,33874,1,0
256,256,34193,1,0
192,352,34512,5,0
256,352,34672,1,0
320,352,34832,1,0
256,192,35151,1,0
256,128,35470,1,0
96,64,35789,5,0
416,64,36108,1,0
96,288,36427,1,0
416,288,36746,1,0
416,288,37066,5,0
96,288,37385,1,0
416,64,37704,1,0
96,64,38023,1,0
96,64,38342,6,0,L|192:64,3,70
160,64,39619,6,0,L|256:64,3,70
224,64,40895,6,0,L|320:64,3,70
288,64,42172,6,0,L|384:64,3,70
32,96,43448,5,0
64,96,43608,1,0
96,96,43767,1,0
192,96,44087,1,0
256,96,44406,1,0
64,160,45044,1,0
128,160,45363,1,0
192,160,45682,1,0
32,64,46001,6,0,L|192:64,1,140
224,64,46959,1,0
96,128,47278,6,0,L|256:128,1,140
288,128,48235,1,0
224,224,48554,6,0,L|384:224,1,140
416,224,49512,1,0
96,64,61958,5,0
160,64,62277,1,0
224,64,62597,1,0
224,128,62916,2,0,L|320:128,2,70
64,64,63873,6,0,L|64:160,3,70
448,64,65150,6,0,L|448:160,3,70
32,32,67064,2,0,L|128:160,1,140
116,144,68022,5,0
116,144,68341,1,0
116,144,68660,1,0
256,160,68979,6,0,L|256:256,3,70,0|0|0|0
256,160,70256,6,0,L|192:160|192:160|192:160|160:160|160:160,3,70,0|0|0|0
256,160,71532,6,0,L|256:64,3,70,0|0|0|0
256,160,72809,6,0,L|352:160,3,70,0|0|0|0
64,64,74085,5,0
84,89,74245,1,0
107,117,74405,1,0
257,192,74724,1,0
257,192,75043,1,0
64,322,75362,1,0
93,298,75522,1,0
116,275,75681,1,0
258,192,76000,1,0
258,192,76319,1,0
64,64,77277,6,0,L|192:160|64:160|192:256,1,420
128,128,80309,6,0,C|256:64|192:192,1,280,0|0
64,64,83021,5,0
160,64,83340,1,0
256,64,83660,1,0
352,64,83979,1,0
352,64,84298,1,0
256,64,84617,1,0
160,64,84936,1,0
256,64,85255,1,0
352,64,85574,1,0
448,64,85894,1,0
352,64,86213,1,0
256,64,86532,1,0
448,64,86851,6,0,L|448:160,3,70
384,128,88128,1,0
288,128,88447,1,0
192,128,88766,1,0
96,128,89085,1,0
192,128,89404,1,0
288,128,89723,1,0
384,128,90042,1,0
384,128,90361,1,0
384,128,90681,6,0,L|384:224,3,70
256,192,91957,12,0,92595
256,192,92755,12,0,92915
256,192,93712,12,0,93872
256,192,94032,12,0,94192
256,192,94510,5,0
256,192,94670,1,0
256,192,94829,1,0
256,128,95149,1,0
256,256,95468,1,0
128,192,95787,1,0
192,192,96106,1,0
256,192,96425,1,0
320,192,96744,1,4
