osu file format v12

[General]
AudioFilename: 03 In de Fik.mp3
AudioLeadIn: 0
PreviewTime: -1
Countdown: 0
SampleSet: Normal
StackLeniency: 0.7
Mode: 3
LetterboxInBreaks: 0
SpecialStyle: 0
WidescreenStoryboard: 1

[Editor]
DistanceSpacing: 1.4
BeatDivisor: 3
GridSize: 8
TimelineZoom: 1

[Metadata]
Title:In de Fik
TitleUnicode:In de Fik
Artist:Flip Kowlier
ArtistUnicode:Flip Kowlier
Creator:Xcrypt
Version:[BMS Normal] LV.05 - Beginner
Source:
Tags:
BeatmapID:420921
BeatmapSetID:174241

[Difficulty]
HPDrainRate:9
CircleSize:8
OverallDifficulty:10
ApproachRate:5
SliderMultiplier:1.4
SliderTickRate:1

[Events]
//Background and Video events
0,0,"b_264.jpg",0,0
//Break Periods
//Storyboard Layer 0 (Background)
//Storyboard Layer 1 (Fail)
//Storyboard Layer 2 (Pass)
//Storyboard Layer 3 (Foreground)
//Storyboard Sound Samples
//Background Colour Transformations
3,100,163,162,255

[TimingPoints]
9721.89575763081,461.538461538462,4,1,0,100,1,0
17106,468.75,4,1,0,100,1,0
39606,476.190476190476,4,1,0,100,1,0
64248,468.75,4,1,0,100,1,0
79248,476.190476190476,4,1,0,100,1,0
96337,476.190476190476,4,1,0,100,1,0
103890,483.870967741935,4,1,0,100,1,0
111600,476.190476190476,4,1,0,100,1,0
128742,468.75,4,1,0,100,1,0
136242,476.190476190476,4,1,0,100,1,0
153384,468.75,4,1,0,100,1,0

[HitObjects]
224,192,9721,5,0,0:0:0:0:
32,192,9721,1,0,0:0:0:0:
480,192,9721,1,0,0:0:0:0:
96,192,10183,1,0,0:0:0:0:
352,192,10183,1,0,0:0:0:0:
96,192,10644,1,0,0:0:0:0:
32,192,10644,1,0,0:0:0:0:
352,192,10644,1,0,0:0:0:0:
160,192,10952,1,0,0:0:0:0:
224,192,11106,1,0,0:0:0:0:
480,192,11106,1,0,0:0:0:0:
224,192,11568,1,0,0:0:0:0:
32,192,11568,1,0,0:0:0:0:
480,192,11568,1,0,0:0:0:0:
96,192,12029,1,0,0:0:0:0:
352,192,12029,1,0,0:0:0:0:
32,192,12491,1,0,0:0:0:0:
96,192,12491,1,0,0:0:0:0:
352,192,12491,1,0,0:0:0:0:
160,192,12798,1,0,0:0:0:0:
224,192,12952,1,0,0:0:0:0:
480,192,12952,1,0,0:0:0:0:
32,192,13414,1,0,0:0:0:0:
224,192,13414,1,0,0:0:0:0:
480,192,13414,1,0,0:0:0:0:
160,192,13875,1,0,0:0:0:0:
352,192,13875,1,0,0:0:0:0:
32,192,14337,1,0,0:0:0:0:
160,192,14337,1,0,0:0:0:0:
352,192,14337,1,0,0:0:0:0:
96,192,14798,1,0,0:0:0:0:
480,192,14798,1,0,0:0:0:0:
32,192,15260,1,0,0:0:0:0:
96,192,15260,1,0,0:0:0:0:
480,192,15260,1,0,0:0:0:0:
480,192,15568,1,0,0:0:0:0:
96,192,15568,1,0,0:0:0:0:
96,192,15721,1,0,0:0:0:0:
480,192,15721,1,0,0:0:0:0:
32,192,16029,1,0,0:0:0:0:
160,192,16183,1,0,0:0:0:0:
32,192,16183,1,0,0:0:0:0:
480,192,16183,1,0,0:0:0:0:
32,192,16491,1,0,0:0:0:0:
224,192,16644,1,0,0:0:0:0:
480,192,16644,1,0,0:0:0:0:
32,192,17106,1,0,0:0:0:0:
480,192,17106,1,0,0:0:0:0:
416,192,17574,1,0,0:0:0:0:
32,192,18043,1,0,0:0:0:0:
288,192,18512,1,0,0:0:0:0:
352,192,18824,1,0,0:0:0:0:
32,192,18981,1,0,0:0:0:0:
288,192,18981,1,0,0:0:0:0:
224,192,19293,1,0,0:0:0:0:
288,192,19449,1,0,0:0:0:0:
416,192,19918,1,0,0:0:0:0:
32,192,19918,1,0,0:0:0:0:
160,192,20387,1,0,0:0:0:0:
32,192,20856,1,0,0:0:0:0:
480,192,20856,1,0,0:0:0:0:
416,192,21324,1,0,0:0:0:0:
32,192,21793,1,0,0:0:0:0:
288,192,22262,1,0,0:0:0:0:
352,192,22574,1,0,0:0:0:0:
416,192,22731,1,0,0:0:0:0:
288,192,22731,1,0,0:0:0:0:
416,192,22887,1,0,0:0:0:0:
224,192,23043,1,0,0:0:0:0:
416,192,23043,1,0,0:0:0:0:
416,192,23199,1,0,0:0:0:0:
416,192,23356,1,0,0:0:0:0:
416,192,23512,1,0,0:0:0:0:
416,192,23668,1,0,0:0:0:0:
32,192,23668,1,0,0:0:0:0:
224,192,24137,1,0,0:0:0:0:
224,192,24606,1,0,0:0:0:0:
32,192,24606,1,0,0:0:0:0:
480,192,24606,1,0,0:0:0:0:
96,192,25074,1,0,0:0:0:0:
352,192,25074,1,0,0:0:0:0:
96,192,25543,1,0,0:0:0:0:
32,192,25543,1,0,0:0:0:0:
160,192,25856,1,0,0:0:0:0:
224,192,26012,1,0,0:0:0:0:
480,192,26012,1,0,0:0:0:0:
224,192,26481,1,0,0:0:0:0:
32,192,26481,1,0,0:0:0:0:
480,192,26481,1,0,0:0:0:0:
96,192,26949,1,0,0:0:0:0:
352,192,26949,1,0,0:0:0:0:
32,192,27418,1,0,0:0:0:0:
96,192,27418,1,0,0:0:0:0:
352,192,27418,1,0,0:0:0:0:
160,192,27731,1,0,0:0:0:0:
224,192,27887,1,0,0:0:0:0:
480,192,27887,1,0,0:0:0:0:
32,192,28356,1,0,0:0:0:0:
224,192,28356,1,0,0:0:0:0:
480,192,28356,1,0,0:0:0:0:
160,192,28824,1,0,0:0:0:0:
352,192,28824,1,0,0:0:0:0:
32,192,29293,1,0,0:0:0:0:
160,192,29293,1,0,0:0:0:0:
352,192,29293,1,0,0:0:0:0:
96,192,29762,1,0,0:0:0:0:
480,192,29762,1,0,0:0:0:0:
32,192,30231,1,0,0:0:0:0:
96,192,30231,1,0,0:0:0:0:
480,192,30231,1,0,0:0:0:0:
480,192,30543,1,0,0:0:0:0:
96,192,30543,1,0,0:0:0:0:
96,192,30699,1,0,0:0:0:0:
480,192,30699,1,0,0:0:0:0:
32,192,31012,1,0,0:0:0:0:
160,192,31168,1,0,0:0:0:0:
32,192,31168,1,0,0:0:0:0:
480,192,31168,1,0,0:0:0:0:
32,192,31481,1,0,0:0:0:0:
224,192,31637,1,0,0:0:0:0:
480,192,31637,1,0,0:0:0:0:
224,192,32106,1,0,0:0:0:0:
32,192,32106,1,0,0:0:0:0:
480,192,32106,1,0,0:0:0:0:
96,192,32574,1,0,0:0:0:0:
352,192,32574,1,0,0:0:0:0:
96,192,33043,1,0,0:0:0:0:
32,192,33043,1,0,0:0:0:0:
352,192,33043,1,0,0:0:0:0:
160,192,33356,1,0,0:0:0:0:
224,192,33512,1,0,0:0:0:0:
480,192,33512,1,0,0:0:0:0:
224,192,33981,1,0,0:0:0:0:
32,192,33981,1,0,0:0:0:0:
480,192,33981,1,0,0:0:0:0:
96,192,34449,1,0,0:0:0:0:
352,192,34449,1,0,0:0:0:0:
32,192,34918,1,0,0:0:0:0:
96,192,34918,1,0,0:0:0:0:
352,192,34918,1,0,0:0:0:0:
160,192,35231,1,0,0:0:0:0:
224,192,35387,1,0,0:0:0:0:
480,192,35387,1,0,0:0:0:0:
32,192,35856,1,0,0:0:0:0:
224,192,35856,1,0,0:0:0:0:
480,192,35856,1,0,0:0:0:0:
160,192,36324,1,0,0:0:0:0:
352,192,36324,1,0,0:0:0:0:
32,192,36793,1,0,0:0:0:0:
160,192,36793,1,0,0:0:0:0:
352,192,36793,1,0,0:0:0:0:
96,192,37262,1,0,0:0:0:0:
480,192,37262,1,0,0:0:0:0:
32,192,37731,1,0,0:0:0:0:
96,192,37731,1,0,0:0:0:0:
480,192,37731,1,0,0:0:0:0:
480,192,38043,1,0,0:0:0:0:
96,192,38043,1,0,0:0:0:0:
96,192,38199,1,0,0:0:0:0:
480,192,38199,1,0,0:0:0:0:
32,192,38512,1,0,0:0:0:0:
32,192,38668,1,0,0:0:0:0:
480,192,38668,1,0,0:0:0:0:
96,192,38668,1,0,0:0:0:0:
32,192,38981,1,0,0:0:0:0:
224,192,39137,1,0,0:0:0:0:
32,192,39137,1,0,0:0:0:0:
352,192,39137,1,0,0:0:0:0:
32,192,39606,1,0,0:0:0:0:
96,192,39606,1,0,0:0:0:0:
480,192,39606,1,0,0:0:0:0:
160,192,40082,1,0,0:0:0:0:
352,192,40082,1,0,0:0:0:0:
224,192,40558,1,0,0:0:0:0:
480,192,40558,1,0,0:0:0:0:
32,192,40558,1,0,0:0:0:0:
96,192,41034,1,0,0:0:0:0:
352,192,41034,1,0,0:0:0:0:
96,192,41510,1,0,0:0:0:0:
480,192,41510,1,0,0:0:0:0:
32,192,41510,1,0,0:0:0:0:
96,192,41986,1,0,0:0:0:0:
352,192,41986,1,0,0:0:0:0:
96,192,42463,1,0,0:0:0:0:
480,192,42463,1,0,0:0:0:0:
32,192,42463,1,0,0:0:0:0:
224,192,42939,1,0,0:0:0:0:
352,192,42939,1,0,0:0:0:0:
32,192,43415,1,0,0:0:0:0:
96,192,43415,1,0,0:0:0:0:
480,192,43415,1,0,0:0:0:0:
160,192,43891,1,0,0:0:0:0:
352,192,43891,1,0,0:0:0:0:
224,192,44367,1,0,0:0:0:0:
480,192,44367,1,0,0:0:0:0:
32,192,44367,1,0,0:0:0:0:
96,192,44844,1,0,0:0:0:0:
352,192,44844,1,0,0:0:0:0:
96,192,45320,1,0,0:0:0:0:
480,192,45320,1,0,0:0:0:0:
32,192,45320,1,0,0:0:0:0:
96,192,45796,1,0,0:0:0:0:
352,192,45796,1,0,0:0:0:0:
96,192,46272,1,0,0:0:0:0:
480,192,46272,1,0,0:0:0:0:
32,192,46272,1,0,0:0:0:0:
352,192,46748,1,0,0:0:0:0:
224,192,46748,1,0,0:0:0:0:
480,192,47225,1,0,0:0:0:0:
32,192,47225,1,0,0:0:0:0:
96,192,47225,1,0,0:0:0:0:
352,192,47701,1,0,0:0:0:0:
160,192,47701,1,0,0:0:0:0:
32,192,48177,1,0,0:0:0:0:
224,192,48177,1,0,0:0:0:0:
480,192,48177,1,0,0:0:0:0:
352,192,48653,1,0,0:0:0:0:
96,192,48653,1,0,0:0:0:0:
32,192,49129,1,0,0:0:0:0:
96,192,49129,1,0,0:0:0:0:
480,192,49129,1,0,0:0:0:0:
352,192,49605,1,0,0:0:0:0:
96,192,49605,1,0,0:0:0:0:
32,192,50082,1,0,0:0:0:0:
96,192,50082,1,0,0:0:0:0:
480,192,50082,1,0,0:0:0:0:
480,192,50558,1,0,0:0:0:0:
416,192,50637,1,0,0:0:0:0:
352,192,50717,1,0,0:0:0:0:
288,192,50796,1,0,0:0:0:0:
224,192,50875,1,0,0:0:0:0:
416,192,51510,1,0,0:0:0:0:
352,192,51590,1,0,0:0:0:0:
288,192,51669,1,0,0:0:0:0:
224,192,51748,1,0,0:0:0:0:
160,192,51828,1,0,0:0:0:0:
352,192,52463,1,0,0:0:0:0:
288,192,52542,1,0,0:0:0:0:
224,192,52621,1,0,0:0:0:0:
160,192,52701,1,0,0:0:0:0:
96,192,52780,1,0,0:0:0:0:
32,192,53415,1,0,0:0:0:0:
32,192,53891,1,0,0:0:0:0:
416,192,53891,1,0,0:0:0:0:
96,192,54367,1,0,0:0:0:0:
32,192,54367,1,0,0:0:0:0:
352,192,54367,1,0,0:0:0:0:
160,192,54685,1,0,0:0:0:0:
288,192,54685,1,0,0:0:0:0:
224,192,55320,1,0,0:0:0:0:
32,192,55320,1,0,0:0:0:0:
480,192,55320,1,0,0:0:0:0:
288,192,55637,1,0,0:0:0:0:
416,192,55637,1,0,0:0:0:0:
352,192,56272,1,0,0:0:0:0:
96,192,56272,1,0,0:0:0:0:
480,192,56748,1,0,0:0:0:0:
32,192,57225,1,0,0:0:0:0:
416,192,57225,1,0,0:0:0:0:
288,192,58177,1,0,0:0:0:0:
352,192,58494,1,0,0:0:0:0:
288,192,58653,1,0,0:0:0:0:
224,192,58971,1,0,0:0:0:0:
32,192,59129,1,0,0:0:0:0:
288,192,59129,1,0,0:0:0:0:
416,192,59605,1,0,0:0:0:0:
160,192,60082,1,0,0:0:0:0:
480,192,60558,1,0,0:0:0:0:
416,192,61034,1,0,0:0:0:0:
32,192,61034,1,0,0:0:0:0:
288,192,61986,1,0,0:0:0:0:
352,192,62304,1,0,0:0:0:0:
288,192,62463,1,0,0:0:0:0:
416,192,62463,1,0,0:0:0:0:
416,192,62621,1,0,0:0:0:0:
224,192,62780,1,0,0:0:0:0:
416,192,62780,1,0,0:0:0:0:
416,192,62939,1,0,0:0:0:0:
416,192,63098,1,0,0:0:0:0:
416,192,63256,1,0,0:0:0:0:
32,192,63415,1,0,0:0:0:0:
416,192,63415,1,0,0:0:0:0:
224,192,63891,1,0,0:0:0:0:
480,192,63891,1,0,0:0:0:0:
224,192,64209,1,0,0:0:0:0:
480,192,64209,1,0,0:0:0:0:
32,192,64209,1,0,0:0:0:0:
352,192,64716,1,0,0:0:0:0:
96,192,64716,1,0,0:0:0:0:
32,192,65185,1,0,0:0:0:0:
352,192,65185,1,0,0:0:0:0:
96,192,65185,1,0,0:0:0:0:
160,192,65498,1,0,0:0:0:0:
224,192,65654,1,0,0:0:0:0:
480,192,65654,1,0,0:0:0:0:
224,192,66123,1,0,0:0:0:0:
480,192,66123,1,0,0:0:0:0:
32,192,66123,1,0,0:0:0:0:
352,192,66591,1,0,0:0:0:0:
96,192,66591,1,0,0:0:0:0:
32,192,67060,1,0,0:0:0:0:
96,192,67060,1,0,0:0:0:0:
352,192,67060,1,0,0:0:0:0:
160,192,67373,1,0,0:0:0:0:
224,192,67529,1,0,0:0:0:0:
480,192,67529,1,0,0:0:0:0:
32,192,67998,1,0,0:0:0:0:
224,192,67998,1,0,0:0:0:0:
480,192,67998,1,0,0:0:0:0:
352,192,68466,1,0,0:0:0:0:
160,192,68466,1,0,0:0:0:0:
352,192,68935,1,0,0:0:0:0:
32,192,68935,1,0,0:0:0:0:
160,192,68935,1,0,0:0:0:0:
480,192,69248,1,0,0:0:0:0:
96,192,69404,1,0,0:0:0:0:
352,192,69404,1,0,0:0:0:0:
96,192,69873,1,0,0:0:0:0:
352,192,69873,1,0,0:0:0:0:
32,192,69873,1,0,0:0:0:0:
352,192,70185,1,0,0:0:0:0:
96,192,70185,1,0,0:0:0:0:
352,192,70341,1,0,0:0:0:0:
96,192,70341,1,0,0:0:0:0:
160,192,70810,1,0,0:0:0:0:
32,192,70810,1,0,0:0:0:0:
352,192,70810,1,0,0:0:0:0:
224,192,71279,1,0,0:0:0:0:
480,192,71279,1,0,0:0:0:0:
224,192,71748,1,0,0:0:0:0:
480,192,71748,1,0,0:0:0:0:
32,192,71748,1,0,0:0:0:0:
352,192,72216,1,0,0:0:0:0:
96,192,72216,1,0,0:0:0:0:
32,192,72685,1,0,0:0:0:0:
352,192,72685,1,0,0:0:0:0:
96,192,72685,1,0,0:0:0:0:
160,192,72998,1,0,0:0:0:0:
224,192,73154,1,0,0:0:0:0:
480,192,73154,1,0,0:0:0:0:
32,192,73623,1,0,0:0:0:0:
224,192,73623,1,0,0:0:0:0:
480,192,73623,1,0,0:0:0:0:
96,192,74091,1,0,0:0:0:0:
352,192,74091,1,0,0:0:0:0:
352,192,74560,1,0,0:0:0:0:
96,192,74560,1,0,0:0:0:0:
32,192,74560,1,0,0:0:0:0:
160,192,74873,1,0,0:0:0:0:
480,192,75029,1,0,0:0:0:0:
224,192,75029,1,0,0:0:0:0:
224,192,75498,1,0,0:0:0:0:
480,192,75498,1,0,0:0:0:0:
32,192,75498,1,0,0:0:0:0:
352,192,75966,1,0,0:0:0:0:
160,192,75966,1,0,0:0:0:0:
32,192,76435,1,0,0:0:0:0:
352,192,76435,1,0,0:0:0:0:
160,192,76435,1,0,0:0:0:0:
480,192,76904,1,0,0:0:0:0:
96,192,76904,1,0,0:0:0:0:
352,192,77373,1,0,0:0:0:0:
96,192,77373,1,0,0:0:0:0:
32,192,77373,1,0,0:0:0:0:
352,192,77685,1,0,0:0:0:0:
96,192,77685,1,0,0:0:0:0:
96,192,77841,1,0,0:0:0:0:
352,192,77841,1,0,0:0:0:0:
32,192,78154,1,0,0:0:0:0:
352,192,78310,1,0,0:0:0:0:
32,192,78310,1,0,0:0:0:0:
96,192,78310,1,0,0:0:0:0:
32,192,78623,1,0,0:0:0:0:
224,192,78779,1,0,0:0:0:0:
480,192,78779,1,0,0:0:0:0:
32,192,78779,1,0,0:0:0:0:
32,192,79248,1,0,0:0:0:0:
96,192,79248,1,0,0:0:0:0:
480,192,79248,1,0,0:0:0:0:
160,192,79724,1,0,0:0:0:0:
352,192,79724,1,0,0:0:0:0:
224,192,80200,1,0,0:0:0:0:
480,192,80200,1,0,0:0:0:0:
32,192,80200,1,0,0:0:0:0:
96,192,80676,1,0,0:0:0:0:
352,192,80676,1,0,0:0:0:0:
96,192,81152,1,0,0:0:0:0:
480,192,81152,1,0,0:0:0:0:
32,192,81152,1,0,0:0:0:0:
96,192,81628,1,0,0:0:0:0:
352,192,81628,1,0,0:0:0:0:
96,192,82105,1,0,0:0:0:0:
480,192,82105,1,0,0:0:0:0:
32,192,82105,1,0,0:0:0:0:
224,192,82581,1,0,0:0:0:0:
352,192,82581,1,0,0:0:0:0:
32,192,83057,1,0,0:0:0:0:
96,192,83057,1,0,0:0:0:0:
480,192,83057,1,0,0:0:0:0:
160,192,83533,1,0,0:0:0:0:
352,192,83533,1,0,0:0:0:0:
224,192,84009,1,0,0:0:0:0:
480,192,84009,1,0,0:0:0:0:
32,192,84009,1,0,0:0:0:0:
96,192,84486,1,0,0:0:0:0:
352,192,84486,1,0,0:0:0:0:
96,192,84962,1,0,0:0:0:0:
480,192,84962,1,0,0:0:0:0:
32,192,84962,1,0,0:0:0:0:
96,192,85438,1,0,0:0:0:0:
352,192,85438,1,0,0:0:0:0:
96,192,85914,1,0,0:0:0:0:
480,192,85914,1,0,0:0:0:0:
32,192,85914,1,0,0:0:0:0:
352,192,86390,1,0,0:0:0:0:
224,192,86390,1,0,0:0:0:0:
480,192,86867,1,0,0:0:0:0:
32,192,86867,1,0,0:0:0:0:
96,192,86867,1,0,0:0:0:0:
352,192,87343,1,0,0:0:0:0:
160,192,87343,1,0,0:0:0:0:
32,192,87819,1,0,0:0:0:0:
224,192,87819,1,0,0:0:0:0:
480,192,87819,1,0,0:0:0:0:
352,192,88295,1,0,0:0:0:0:
96,192,88295,1,0,0:0:0:0:
32,192,88771,1,0,0:0:0:0:
96,192,88771,1,0,0:0:0:0:
480,192,88771,1,0,0:0:0:0:
352,192,89248,1,0,0:0:0:0:
96,192,89248,1,0,0:0:0:0:
32,192,89724,1,0,0:0:0:0:
96,192,89724,1,0,0:0:0:0:
480,192,89724,1,0,0:0:0:0:
480,192,90200,1,0,0:0:0:0:
416,192,90279,1,0,0:0:0:0:
352,192,90359,1,0,0:0:0:0:
288,192,90438,1,0,0:0:0:0:
224,192,90517,1,0,0:0:0:0:
416,192,91152,1,0,0:0:0:0:
352,192,91232,1,0,0:0:0:0:
288,192,91311,1,0,0:0:0:0:
224,192,91390,1,0,0:0:0:0:
160,192,91470,1,0,0:0:0:0:
352,192,92105,1,0,0:0:0:0:
288,192,92184,1,0,0:0:0:0:
224,192,92263,1,0,0:0:0:0:
160,192,92343,1,0,0:0:0:0:
96,192,92422,1,0,0:0:0:0:
32,192,93057,1,0,0:0:0:0:
32,192,93533,1,0,0:0:0:0:
416,192,93533,1,0,0:0:0:0:
96,192,94009,1,0,0:0:0:0:
32,192,94009,1,0,0:0:0:0:
352,192,94009,1,0,0:0:0:0:
160,192,94327,1,0,0:0:0:0:
288,192,94327,1,0,0:0:0:0:
224,192,94962,1,0,0:0:0:0:
32,192,94962,1,0,0:0:0:0:
480,192,94962,1,0,0:0:0:0:
288,192,95279,1,0,0:0:0:0:
416,192,95279,1,0,0:0:0:0:
352,192,95914,1,0,0:0:0:0:
96,192,95914,1,0,0:0:0:0:
480,192,96337,1,0,0:0:0:0:
32,192,96813,1,0,0:0:0:0:
416,192,96813,1,0,0:0:0:0:
288,192,97765,1,0,0:0:0:0:
352,192,98083,1,0,0:0:0:0:
288,192,98241,1,0,0:0:0:0:
224,192,98559,1,0,0:0:0:0:
32,192,98717,1,0,0:0:0:0:
288,192,98717,1,0,0:0:0:0:
416,192,99194,1,0,0:0:0:0:
160,192,99670,1,0,0:0:0:0:
480,192,100146,1,0,0:0:0:0:
416,192,100622,1,0,0:0:0:0:
32,192,100622,1,0,0:0:0:0:
288,192,101575,1,0,0:0:0:0:
352,192,101892,1,0,0:0:0:0:
288,192,102051,1,0,0:0:0:0:
416,192,102051,1,0,0:0:0:0:
416,192,102210,1,0,0:0:0:0:
224,192,102368,1,0,0:0:0:0:
416,192,102368,1,0,0:0:0:0:
416,192,102527,1,0,0:0:0:0:
416,192,102686,1,0,0:0:0:0:
416,192,102844,1,0,0:0:0:0:
32,192,103003,1,0,0:0:0:0:
416,192,103003,1,0,0:0:0:0:
32,192,103479,1,0,0:0:0:0:
288,192,103479,1,0,0:0:0:0:
160,192,103479,1,0,0:0:0:0:
416,192,103479,1,0,0:0:0:0:
32,192,103956,1,0,0:0:0:0:
416,192,103956,1,0,0:0:0:0:
32,192,104373,1,0,0:0:0:0:
416,192,104373,1,0,0:0:0:0:
416,192,104857,128,0,105260:0:0:0:0:
32,192,104857,128,0,105260:0:0:0:0:
32,192,105341,1,0,0:0:0:0:
416,192,105341,1,0,0:0:0:0:
32,192,105825,1,0,0:0:0:0:
416,192,105825,1,0,0:0:0:0:
32,192,106309,1,0,0:0:0:0:
416,192,106309,1,0,0:0:0:0:
32,192,106793,128,0,107196:0:0:0:0:
416,192,106793,128,0,107196:0:0:0:0:
32,192,107277,1,0,0:0:0:0:
416,192,107277,1,0,0:0:0:0:
32,192,107760,1,0,0:0:0:0:
416,192,107760,1,0,0:0:0:0:
32,192,108244,1,0,0:0:0:0:
416,192,108244,1,0,0:0:0:0:
32,192,108728,128,0,109131:0:0:0:0:
416,192,108728,128,0,109131:0:0:0:0:
32,192,109212,1,0,0:0:0:0:
416,192,109212,1,0,0:0:0:0:
32,192,109696,1,0,0:0:0:0:
416,192,109696,1,0,0:0:0:0:
32,192,110180,1,0,0:0:0:0:
416,192,110180,1,0,0:0:0:0:
32,192,110664,1,0,0:0:0:0:
416,192,110664,1,0,0:0:0:0:
288,192,110664,1,0,0:0:0:0:
288,192,110986,1,0,0:0:0:0:
32,192,111148,1,0,0:0:0:0:
224,192,111148,1,0,0:0:0:0:
352,192,111148,1,0,0:0:0:0:
32,192,111631,1,0,0:0:0:0:
96,192,111631,1,0,0:0:0:0:
224,192,111631,1,0,0:0:0:0:
96,192,112076,1,0,0:0:0:0:
352,192,112076,1,0,0:0:0:0:
32,192,112552,1,0,0:0:0:0:
96,192,112552,1,0,0:0:0:0:
480,192,112552,1,0,0:0:0:0:
32,192,113028,1,0,0:0:0:0:
96,192,113028,1,0,0:0:0:0:
480,192,113028,1,0,0:0:0:0:
32,192,113504,1,0,0:0:0:0:
96,192,113504,1,0,0:0:0:0:
352,192,113504,1,0,0:0:0:0:
96,192,113980,1,0,0:0:0:0:
224,192,113980,1,0,0:0:0:0:
32,192,114457,1,0,0:0:0:0:
96,192,114457,1,0,0:0:0:0:
224,192,114457,1,0,0:0:0:0:
96,192,114933,1,0,0:0:0:0:
352,192,114933,1,0,0:0:0:0:
32,192,115409,1,0,0:0:0:0:
96,192,115409,1,0,0:0:0:0:
224,192,115409,1,0,0:0:0:0:
96,192,115885,1,0,0:0:0:0:
352,192,115885,1,0,0:0:0:0:
32,192,116361,1,0,0:0:0:0:
96,192,116361,1,0,0:0:0:0:
352,192,116361,1,0,0:0:0:0:
32,192,116838,1,0,0:0:0:0:
224,192,116838,1,0,0:0:0:0:
96,192,116838,1,0,0:0:0:0:
480,192,116838,1,0,0:0:0:0:
416,192,117314,1,0,0:0:0:0:
352,192,117790,1,0,0:0:0:0:
288,192,118266,1,0,0:0:0:0:
224,192,118742,1,0,0:0:0:0:
288,192,119219,1,0,0:0:0:0:
224,192,119695,1,0,0:0:0:0:
160,192,120171,1,0,0:0:0:0:
480,192,120647,1,0,0:0:0:0:
480,192,121123,1,0,0:0:0:0:
352,192,121441,1,0,0:0:0:0:
224,192,121600,1,0,0:0:0:0:
224,192,122076,1,0,0:0:0:0:
352,192,122393,1,0,0:0:0:0:
480,192,122552,1,0,0:0:0:0:
480,192,123028,1,0,0:0:0:0:
352,192,123346,1,0,0:0:0:0:
224,192,123504,1,0,0:0:0:0:
224,192,123980,1,0,0:0:0:0:
352,192,124298,1,0,0:0:0:0:
480,192,124457,1,0,0:0:0:0:
480,192,124933,1,0,0:0:0:0:
352,192,125250,1,0,0:0:0:0:
224,192,125409,1,0,0:0:0:0:
224,192,125885,1,0,0:0:0:0:
416,192,126361,1,0,0:0:0:0:
32,192,126361,1,0,0:0:0:0:
160,192,126361,1,0,0:0:0:0:
288,192,126361,1,0,0:0:0:0:
288,192,126838,1,0,0:0:0:0:
32,192,127314,1,0,0:0:0:0:
416,192,127314,1,0,0:0:0:0:
32,192,127473,1,0,0:0:0:0:
416,192,127473,1,0,0:0:0:0:
32,192,127631,1,0,0:0:0:0:
416,192,127631,1,0,0:0:0:0:
32,192,127790,1,0,0:0:0:0:
416,192,127790,1,0,0:0:0:0:
224,192,128266,1,0,0:0:0:0:
480,192,128266,1,0,0:0:0:0:
32,192,128742,1,0,0:0:0:0:
224,192,128742,1,0,0:0:0:0:
480,192,128742,1,0,0:0:0:0:
96,192,129210,1,0,0:0:0:0:
352,192,129210,1,0,0:0:0:0:
96,192,129679,1,0,0:0:0:0:
32,192,129679,1,0,0:0:0:0:
352,192,129679,1,0,0:0:0:0:
160,192,129992,1,0,0:0:0:0:
224,192,130148,1,0,0:0:0:0:
480,192,130148,1,0,0:0:0:0:
224,192,130617,1,0,0:0:0:0:
32,192,130617,1,0,0:0:0:0:
480,192,130617,1,0,0:0:0:0:
96,192,131085,1,0,0:0:0:0:
352,192,131085,1,0,0:0:0:0:
32,192,131554,1,0,0:0:0:0:
96,192,131554,1,0,0:0:0:0:
352,192,131554,1,0,0:0:0:0:
160,192,131867,1,0,0:0:0:0:
224,192,132023,1,0,0:0:0:0:
480,192,132023,1,0,0:0:0:0:
32,192,132492,1,0,0:0:0:0:
224,192,132492,1,0,0:0:0:0:
480,192,132492,1,0,0:0:0:0:
160,192,132960,1,0,0:0:0:0:
352,192,132960,1,0,0:0:0:0:
32,192,133429,1,0,0:0:0:0:
160,192,133429,1,0,0:0:0:0:
352,192,133429,1,0,0:0:0:0:
96,192,133898,1,0,0:0:0:0:
480,192,133898,1,0,0:0:0:0:
32,192,134367,1,0,0:0:0:0:
96,192,134367,1,0,0:0:0:0:
480,192,134367,1,0,0:0:0:0:
96,192,134835,1,0,0:0:0:0:
480,192,134835,1,0,0:0:0:0:
32,192,135148,1,0,0:0:0:0:
32,192,135304,1,0,0:0:0:0:
480,192,135304,1,0,0:0:0:0:
32,192,136242,1,0,0:0:0:0:
96,192,136242,1,0,0:0:0:0:
480,192,136242,1,0,0:0:0:0:
160,192,136718,1,0,0:0:0:0:
352,192,136718,1,0,0:0:0:0:
224,192,137194,1,0,0:0:0:0:
480,192,137194,1,0,0:0:0:0:
32,192,137194,1,0,0:0:0:0:
96,192,137670,1,0,0:0:0:0:
352,192,137670,1,0,0:0:0:0:
96,192,138146,1,0,0:0:0:0:
480,192,138146,1,0,0:0:0:0:
32,192,138146,1,0,0:0:0:0:
96,192,138622,1,0,0:0:0:0:
352,192,138622,1,0,0:0:0:0:
96,192,139099,1,0,0:0:0:0:
480,192,139099,1,0,0:0:0:0:
32,192,139099,1,0,0:0:0:0:
224,192,139575,1,0,0:0:0:0:
352,192,139575,1,0,0:0:0:0:
32,192,140051,1,0,0:0:0:0:
96,192,140051,1,0,0:0:0:0:
480,192,140051,1,0,0:0:0:0:
160,192,140527,1,0,0:0:0:0:
352,192,140527,1,0,0:0:0:0:
224,192,141003,1,0,0:0:0:0:
480,192,141003,1,0,0:0:0:0:
32,192,141003,1,0,0:0:0:0:
96,192,141480,1,0,0:0:0:0:
352,192,141480,1,0,0:0:0:0:
96,192,141956,1,0,0:0:0:0:
480,192,141956,1,0,0:0:0:0:
32,192,141956,1,0,0:0:0:0:
96,192,142432,1,0,0:0:0:0:
352,192,142432,1,0,0:0:0:0:
96,192,142908,1,0,0:0:0:0:
480,192,142908,1,0,0:0:0:0:
32,192,142908,1,0,0:0:0:0:
352,192,143384,1,0,0:0:0:0:
224,192,143384,1,0,0:0:0:0:
480,192,143861,1,0,0:0:0:0:
32,192,143861,1,0,0:0:0:0:
96,192,143861,1,0,0:0:0:0:
352,192,144337,1,0,0:0:0:0:
160,192,144337,1,0,0:0:0:0:
32,192,144813,1,0,0:0:0:0:
224,192,144813,1,0,0:0:0:0:
480,192,144813,1,0,0:0:0:0:
352,192,145289,1,0,0:0:0:0:
96,192,145289,1,0,0:0:0:0:
32,192,145765,1,0,0:0:0:0:
96,192,145765,1,0,0:0:0:0:
480,192,145765,1,0,0:0:0:0:
352,192,146242,1,0,0:0:0:0:
96,192,146242,1,0,0:0:0:0:
32,192,146718,1,0,0:0:0:0:
96,192,146718,1,0,0:0:0:0:
480,192,146718,1,0,0:0:0:0:
480,192,147194,1,0,0:0:0:0:
416,192,147273,1,0,0:0:0:0:
352,192,147353,1,0,0:0:0:0:
288,192,147432,1,0,0:0:0:0:
224,192,147511,1,0,0:0:0:0:
416,192,148146,1,0,0:0:0:0:
352,192,148226,1,0,0:0:0:0:
288,192,148305,1,0,0:0:0:0:
224,192,148384,1,0,0:0:0:0:
160,192,148464,1,0,0:0:0:0:
352,192,149099,1,0,0:0:0:0:
288,192,149178,1,0,0:0:0:0:
224,192,149257,1,0,0:0:0:0:
160,192,149337,1,0,0:0:0:0:
96,192,149416,1,0,0:0:0:0:
32,192,150051,1,0,0:0:0:0:
32,192,150527,1,0,0:0:0:0:
416,192,150527,1,0,0:0:0:0:
96,192,151003,1,0,0:0:0:0:
32,192,151003,1,0,0:0:0:0:
352,192,151003,1,0,0:0:0:0:
160,192,151321,1,0,0:0:0:0:
288,192,151321,1,0,0:0:0:0:
224,192,151956,1,0,0:0:0:0:
32,192,151956,1,0,0:0:0:0:
480,192,151956,1,0,0:0:0:0:
288,192,152273,1,0,0:0:0:0:
416,192,152273,1,0,0:0:0:0:
352,192,152908,1,0,0:0:0:0:
96,192,152908,1,0,0:0:0:0:
480,192,153384,1,0,0:0:0:0:
416,192,153852,1,0,0:0:0:0:
32,192,153852,1,0,0:0:0:0:
288,192,154790,1,0,0:0:0:0:
352,192,155102,1,0,0:0:0:0:
288,192,155259,1,0,0:0:0:0:
224,192,155571,1,0,0:0:0:0:
288,192,155727,1,0,0:0:0:0:
32,192,155727,1,0,0:0:0:0:
416,192,156196,1,0,0:0:0:0:
160,192,156665,1,0,0:0:0:0:
480,192,157134,1,0,0:0:0:0:
32,192,157602,1,0,0:0:0:0:
416,192,157602,1,0,0:0:0:0:
288,192,158540,1,0,0:0:0:0:
352,192,158852,1,0,0:0:0:0:
288,192,159009,1,0,0:0:0:0:
32,192,159009,1,0,0:0:0:0:
224,192,159321,1,0,0:0:0:0:
32,192,159321,1,0,0:0:0:0:
352,192,159321,1,0,0:0:0:0:
32,192,159477,1,0,0:0:0:0:
32,192,159790,1,0,0:0:0:0:
32,192,159946,1,0,0:0:0:0:
32,192,160259,1,0,0:0:0:0:
288,192,160415,1,0,0:0:0:0:
480,192,160884,1,0,0:0:0:0:
32,192,161352,1,0,0:0:0:0:
416,192,161352,1,0,0:0:0:0:
288,192,162290,1,0,0:0:0:0:
352,192,162602,1,0,0:0:0:0:
288,192,162759,1,0,0:0:0:0:
224,192,163071,1,0,0:0:0:0:
32,192,163227,1,0,0:0:0:0:
288,192,163227,1,0,0:0:0:0:
416,192,163696,1,0,0:0:0:0:
160,192,164165,1,0,0:0:0:0:
480,192,164634,1,0,0:0:0:0:
416,192,165102,1,0,0:0:0:0:
32,192,165102,1,0,0:0:0:0:
288,192,166040,1,0,0:0:0:0:
352,192,166352,1,0,0:0:0:0:
288,192,166509,1,0,0:0:0:0:
32,192,166509,1,0,0:0:0:0:
224,192,166821,1,0,0:0:0:0:
96,192,166821,1,0,0:0:0:0:
416,192,166821,1,0,0:0:0:0:
288,192,166821,1,0,0:0:0:0:
480,192,166821,1,0,0:0:0:0:
32,192,166821,1,0,0:0:0:0:
