osu file format v14

[General]
AudioFilename: Fleshgod Apocalypse - The Violation.mp3
AudioLeadIn: 0
PreviewTime: 122348
Countdown: 0
SampleSet: Normal
StackLeniency: 0.7
Mode: 0
LetterboxInBreaks: 0
WidescreenStoryboard: 1

[Editor]
Bookmarks: 127,35016,85238,115459,143015,157237,170570,183904,206570,236791
DistanceSpacing: 1.1
BeatDivisor: 4
GridSize: 4
TimelineZoom: 1.9

[Metadata]
Title:The Violation
TitleUnicode:The Violation
Artist:Fleshgod Apocalypse
ArtistUnicode:Fleshgod Apocalypse
Creator:UndeadBananaz
Version:Insane
Source:
Tags:brutal technical death metal agony
BeatmapID:709223
BeatmapSetID:192753

[Difficulty]
HPDrainRate:6
CircleSize:4
OverallDifficulty:7.5
ApproachRate:9
SliderMultiplier:1.4
SliderTickRate:2

[Events]
//Background and Video events
0,0,"BG1.jpg",0,0
//Break Periods
//Storyboard Layer 0 (Background)
//Storyboard Layer 1 (Fail)
//Storyboard Layer 2 (Pass)
//Storyboard Layer 3 (Foreground)
//Storyboard Sound Samples

[TimingPoints]
-539,222.222222222222,4,1,0,60,1,0
13794,-100,4,1,0,58,0,0
13905,-100,4,1,0,56,0,0
14016,-100,4,1,0,54,0,0
14127,-100,4,1,0,52,0,0
14238,-100,4,1,0,50,0,0
14349,-100,4,1,0,60,0,0
19905,-100,4,1,1,60,0,0
33516,-100,4,1,1,45,0,0
33683,-100,4,1,1,60,0,0
33738,-100,4,1,1,45,0,0
33905,-100,4,1,1,60,0,0
33960,-100,4,1,1,45,0,0
34127,-100,4,1,1,60,0,0
34183,-100,4,1,1,45,0,0
34572,-100,4,1,1,60,0,0
48794,222.222222222222,4,1,0,60,1,0
64793,-133.333333333333,4,1,2,60,0,0
71016,-100,4,1,1,60,0,0
84182,-100,4,1,1,45,0,0
84349,-100,4,1,1,60,0,0
84405,-100,4,1,1,45,0,0
84571,-100,4,1,1,60,0,0
84627,-100,4,1,1,45,0,0
84793,-100,4,1,1,60,0,0
90571,-100,4,1,1,60,0,1
92016,-100,4,1,1,50,0,1
92349,-100,4,1,1,60,0,1
115460,-100,4,1,1,60,0,0
121793,-100,4,1,1,58,0,0
121905,-100,4,1,1,56,0,0
122016,-100,4,1,1,54,0,0
122127,-100,4,1,1,52,0,0
122238,-100,4,1,1,50,0,0
122349,-100,4,1,1,60,0,0
145682,-100,4,1,2,60,0,0
146127,-100,4,1,2,60,0,0
146182,-100,4,1,2,30,0,0
146238,-100,4,1,2,60,0,0
146293,-100,4,1,2,30,0,0
146349,-100,4,1,2,60,0,0
146405,-100,4,1,2,30,0,0
146460,-100,4,1,2,60,0,0
146516,-100,4,1,2,30,0,0
146571,-100,4,1,1,60,0,0
152793,-100,4,1,2,60,0,0
153238,-100,4,1,2,60,0,0
153293,-100,4,1,2,30,0,0
153349,-100,4,1,2,60,0,0
153405,-100,4,1,2,30,0,0
153460,-100,4,1,2,60,0,0
153516,-100,4,1,2,30,0,0
153571,-100,4,1,2,60,0,0
153627,-100,4,1,2,30,0,0
153682,-100,4,1,2,60,0,0
164127,-100,4,1,1,60,0,0
170571,-133.333333333333,4,1,2,60,0,1
183905,-100,4,1,0,60,0,0
197682,222.222222222222,4,1,0,60,1,0
211904,-100,4,1,1,60,0,1
236793,-100,4,1,0,60,0,0
256347,-100,4,1,1,60,0,0

[Colours]
Combo1 : 97,175,175
Combo2 : 223,32,32
Combo3 : 49,119,223
Combo4 : 238,145,17

[HitObjects]
296,244,127,6,0,L|376:300,2,70
156,260,572,2,0,L|96:296,2,70
216,132,1016,2,0,L|224:52,2,70
356,148,1460,1,0,0:0:0:0:
444,316,1905,6,0,L|364:308,1,70
304,300,2127,1,0,0:0:0:0:
180,236,2349,2,0,L|128:228,2,35
248,212,2572,1,0,0:0:0:0:
388,196,2794,1,0,0:0:0:0:
408,128,2905,1,0,0:0:0:0:
348,92,3016,1,0,0:0:0:0:
208,84,3238,1,0,0:0:0:0:
72,256,3683,5,0,0:0:0:0:
140,296,3794,1,0,0:0:0:0:
216,276,3905,2,0,L|376:284,1,140
468,176,4349,2,0,L|329:170,1,140
212,68,4794,6,0,L|352:75,1,140
228,168,5238,2,0,L|89:162,1,140
140,308,5683,5,0,0:0:0:0:
392,280,5905,2,0,L|444:308,7,35
328,344,6349,1,0,0:0:0:0:
176,256,6572,6,0,L|140:280,3,35
120,196,6794,6,0,L|84:220,3,35
60,144,7016,6,0,L|24:168,3,35
32,64,7238,6,0,L|-4:88,3,35
112,40,7460,6,0,P|168:40|232:112,1,140
240,172,7794,1,0,0:0:0:0:
288,232,7905,2,0,P|348:224|384:148,1,140
372,84,8238,1,0,0:0:0:0:
448,104,8349,6,0,L|476:192,1,70
461,310,8572,2,0,L|440:244,1,70
288,92,8794,2,0,P|296:125|320:150,1,70
368,212,9016,1,0,0:0:0:0:
356,288,9127,1,0,0:0:0:0:
288,320,9238,6,0,L|136:296,1,140
88,348,9572,1,0,0:0:0:0:
28,300,9683,2,0,P|64:256|60:144,1,140
28,112,10016,1,0,0:0:0:0:
85,53,10127,6,0,B|104:44|104:44|128:40|168:48,1,70
263,100,10349,2,0,B|245:109|245:109|221:113|196:108,1,70
312,36,10572,2,0,B|330:26|330:26|354:22|394:30,1,70
452,52,10794,1,0,0:0:0:0:
400,108,10905,1,0,0:0:0:0:
476,128,11016,6,0,L|488:208,1,70
374,270,11238,2,0,P|405:255|440:256,1,70
304,296,11460,2,0,L|212:264,1,70
100,313,11683,2,0,P|127:291|160:280,1,70
222,149,11905,6,0,L|184:208,1,70
292,184,12127,2,0,L|330:125,1,70
220,67,12349,2,0,P|186:74|160:96,1,70
83,200,12572,2,0,P|117:193|144:172,1,70
300,68,12794,6,0,L|376:100,1,70
424,48,13016,2,0,L|484:128,1,70
428,172,13238,2,0,P|388:196|396:304,1,140
440,332,13572,1,0,0:0:0:0:
340,356,13683,5,0,0:0:0:0:
264,340,13794,1,0,0:0:0:0:
208,288,13905,1,0,0:0:0:0:
184,216,14016,1,0,0:0:0:0:
196,140,14127,1,0,0:0:0:0:
236,76,14238,1,0,0:0:0:0:
308,56,14349,2,0,P|342:52|376:61,1,70
152,76,14572,6,0,L|16:116,1,140,4|0,0:0|0:0,0:0:0:0:
8,192,14905,1,0,0:0:0:0:
56,255,15016,2,0,P|126:253|184:216,1,140
256,188,15349,1,0,0:0:0:0:
320,148,15460,6,0,L|416:128,1,70
476,45,15683,2,0,L|408:60,1,70
460,160,15905,2,0,L|444:228,1,70
416,300,16127,1,0,0:0:0:0:
472,352,16238,1,0,0:0:0:0:
368,236,16349,6,0,L|232:280,1,140
164,248,16683,1,0,0:0:0:0:
128,180,16794,2,0,B|176:156|232:148|232:148|261:136,1,140
328,104,17127,1,0,0:0:0:0:
264,60,17238,6,0,B|216:32|152:44|152:44|120:72,1,140
80,116,17572,1,0,0:0:0:0:
128,180,17683,2,0,P|116:236|24:260,1,140
56,192,18016,1,0,0:0:0:0:
176,280,18127,6,0,L|252:324,1,70
284,252,18349,2,0,L|348:208,1,70
216,200,18572,2,0,L|216:124,1,70,6|0,0:2|0:0,0:0:0:0:
300,136,18794,2,0,L|352:80,1,70
512,136,19016,6,0,L|436:92,1,70
346,203,19238,2,0,L|404:164,1,70
472,216,19460,2,0,L|472:292,1,70,6|0,0:2|0:0,0:0:0:0:
340,331,19683,2,0,L|388:280,1,70
240,328,19905,6,0,P|212:306|180:291,1,70
48,235,20127,2,0,P|76:256|108:272,1,70
213,172,20349,2,0,P|196:202|172:228,1,70
144,132,20572,2,0,P|161:101|185:76,1,70
260,52,20794,5,4,0:0:0:0:
407,99,21016,2,0,P|405:165|342:183,1,140
260,52,21460,1,0,0:0:0:0:
56,108,21683,6,0,P|60:164|140:220,1,140,4|0,0:0|0:0,0:0:0:0:
196,228,22016,1,0,0:0:0:0:
272,220,22127,2,0,P|332:212|368:220,1,70
432,281,22349,2,0,P|398:288|364:288,1,70
432,203,22572,6,0,P|452:139|415:82,1,140
344,56,22905,1,0,0:0:0:0:
308,124,23016,2,0,L|238:135,1,70
158,71,23238,2,0,L|228:60,1,70
56,72,23460,6,0,P|80:96|91:129,1,70
91,257,23683,2,0,P|67:232|56:200,1,70
196,228,23905,2,0,L|256:264,1,70
408,180,24127,2,0,L|344:220,1,70
266,67,24349,6,0,L|308:124,1,70
449,236,24572,2,0,L|408:180,1,70
260,209,24794,2,0,P|225:210|196:228,1,70
88,344,25016,2,0,P|122:343|152:325,1,70
68,240,25238,6,0,L|28:104,1,140,4|0,0:0|0:0,0:0:0:0:
