osu file format v14

[General]
AudioFilename: Fleshgod Apocalypse - The Violation.mp3
AudioLeadIn: 0
PreviewTime: 122348
Countdown: 0
SampleSet: Normal
StackLeniency: 0.7
Mode: 0
LetterboxInBreaks: 0
WidescreenStoryboard: 1

[Editor]
Bookmarks: 127,35016,85238,115459,143015,157237,170570,183904,206570,236791
DistanceSpacing: 1
BeatDivisor: 4
GridSize: 4
TimelineZoom: 1.9

[Metadata]
Title:The Violation
TitleUnicode:The Violation
Artist:Fleshgod Apocalypse
ArtistUnicode:Fleshgod Apocalypse
Creator:UndeadBananaz
Version:Hard
Source:
Tags:brutal technical death metal agony
BeatmapID:709222
BeatmapSetID:192753

[Difficulty]
HPDrainRate:3
CircleSize:3.5
OverallDifficulty:5
ApproachRate:7
SliderMultiplier:0.999999999999999
SliderTickRate:1

[Events]
//Background and Video events
0,0,"BG1.jpg",0,0
//Break Periods
2,25216,255448
//Storyboard Layer 0 (Background)
//Storyboard Layer 1 (Fail)
//Storyboard Layer 2 (Pass)
//Storyboard Layer 3 (Foreground)
//Storyboard Sound Samples

[TimingPoints]
-539,222.222222222222,4,1,0,60,1,0
13794,-100,4,1,0,58,0,0
13905,-100,4,1,0,56,0,0
14016,-100,4,1,0,54,0,0
14127,-100,4,1,0,52,0,0
14238,-100,4,1,0,50,0,0
14349,-100,4,1,0,60,0,0
19905,-100,4,1,1,60,0,0
33516,-100,4,1,1,45,0,0
33683,-100,4,1,1,60,0,0
33738,-100,4,1,1,45,0,0
33905,-100,4,1,1,60,0,0
33960,-100,4,1,1,45,0,0
34127,-100,4,1,1,60,0,0
34183,-100,4,1,1,45,0,0
34572,-100,4,1,1,60,0,0
48794,222.222222222222,4,1,0,60,1,0
64793,-133.333333333333,4,1,2,60,0,0
71016,-100,4,1,1,60,0,0
84182,-100,4,1,1,45,0,0
84349,-100,4,1,1,60,0,0
84405,-100,4,1,1,45,0,0
84571,-100,4,1,1,60,0,0
84627,-100,4,1,1,45,0,0
84793,-100,4,1,1,60,0,0
90571,-100,4,1,1,60,0,1
92016,-100,4,1,1,50,0,1
92349,-100,4,1,1,60,0,1
115459,-100,4,1,1,60,0,0
121793,-100,4,1,1,58,0,0
121905,-100,4,1,1,56,0,0
122016,-100,4,1,1,54,0,0
122127,-100,4,1,1,52,0,0
122238,-100,4,1,1,50,0,0
122349,-100,4,1,1,60,0,0
145682,-100,4,1,2,60,0,0
146127,-100,4,1,2,60,0,0
146182,-100,4,1,2,30,0,0
146238,-100,4,1,2,60,0,0
146293,-100,4,1,2,30,0,0
146349,-100,4,1,2,60,0,0
146405,-100,4,1,2,30,0,0
146460,-100,4,1,2,60,0,0
146516,-100,4,1,2,30,0,0
146571,-100,4,1,1,60,0,0
152793,-100,4,1,2,60,0,0
153238,-100,4,1,2,60,0,0
153293,-100,4,1,2,30,0,0
153349,-100,4,1,2,60,0,0
153405,-100,4,1,2,30,0,0
153460,-100,4,1,2,60,0,0
153516,-100,4,1,2,30,0,0
153571,-100,4,1,2,60,0,0
153627,-100,4,1,2,30,0,0
153682,-100,4,1,2,60,0,0
170570,-133.333333333333,4,1,2,60,0,1
183904,-100,4,1,0,60,0,0
197682,222.222222222222,4,1,0,60,1,0
211903,-100,4,1,1,60,0,1
236793,-100,4,1,0,60,0,0
256347,-100,4,1,1,60,0,0

[Colours]
Combo1 : 22,173,45
Combo2 : 223,32,32
Combo3 : 49,119,223
Combo4 : 238,145,17

[HitObjects]
76,228,127,5,0,0:0:0:0:
76,228,349,2,0,P|100:280|144:320,1,99.9999999999999
212,251,794,2,0,B|232:240|232:240|292:248|305:227,1,99.9999999999999
384,168,1238,1,4,0:0:0:0:
104,60,1905,5,0,0:0:0:0:
104,60,2127,2,0,L|192:136,1,99.9999999999999
220,216,2572,2,0,P|260:212|312:176,1,99.9999999999999
388,120,3016,1,4,0:0:0:0:
176,332,3683,5,0,0:0:0:0:
176,332,3905,2,0,L|104:264,1,99.9999999999999
100,164,4349,1,0,0:0:0:0:
284,84,4794,1,0,0:0:0:0:
440,208,5238,1,0,0:0:0:0:
260,296,5683,5,0,0:0:0:0:
268,196,5905,1,0,0:0:0:0:
268,196,6127,2,0,L|160:148,1,99.9999999999999
128,68,6572,2,0,B|172:36|288:96|288:96|324:100,1,200
392,164,7238,1,0,0:0:0:0:
480,212,7460,6,0,L|432:304,1,99.9999999999999
336,328,7905,2,0,P|284:312|224:308,1,99.9999999999999
144,336,8349,2,0,P|96:323|56:287,1,99.9999999999999
100,200,8794,1,0,0:0:0:0:
56,112,9016,1,0,0:0:0:0:
116,32,9238,6,0,B|160:36|188:60|188:60|209:60,1,99.9999999999999
236,156,9683,2,0,P|288:132|312:88,1,99.9999999999999
404,60,10127,2,0,L|476:152,1,99.9999999999999
452,240,10572,1,0,0:0:0:0:
356,268,10794,1,0,0:0:0:0:
280,332,11016,6,0,L|176:268,1,99.9999999999999
90,127,11460,2,0,L|176:180,1,99.9999999999999
364,240,11905,2,0,L|278:187,1,99.9999999999999
174,35,12349,2,0,L|259:87,1,99.9999999999999
360,76,12794,5,0,0:0:0:0:
440,132,13016,1,0,0:0:0:0:
496,216,13238,2,0,P|487:264|459:305,1,99.9999999999999
360,324,13683,5,0,0:0:0:0:
260,308,13905,1,0,0:0:0:0:
240,212,14127,1,0,0:0:0:0:
152,168,14349,1,0,0:0:0:0:
56,192,14572,6,0,L|88:300,1,99.9999999999999
152,168,15016,2,0,L|123:72,1,99.9999999999999
240,212,15460,2,0,L|335:183,1,99.9999999999999
428,144,15905,1,0,0:0:0:0:
352,80,16127,1,0,0:0:0:0:
260,43,16349,6,0,P|213:59|164:50,1,99.9999999999999
68,72,16794,2,0,B|72:104|72:104|60:140|80:184,1,99.9999999999999
160,320,17238,6,0,P|172:271|160:224,1,99.9999999999999
204,132,17683,2,0,B|232:144|232:144|272:144|272:144|298:157,1,99.9999999999999
468,152,18127,5,0,0:0:0:0:
380,104,18349,1,0,0:0:0:0:
380,200,18572,2,0,L|416:296,1,99.9999999999999
224,344,19016,5,0,0:0:0:0:
320,320,19238,1,0,0:0:0:0:
244,256,19460,2,0,L|216:152,1,99.9999999999999
172,68,19905,5,0,0:0:0:0:
76,96,20127,1,0,0:0:0:0:
44,192,20349,1,0,0:0:0:0:
72,288,20572,1,0,0:0:0:0:
164,328,20794,6,0,P|236:324|304:220,1,200,4|0,0:0|0:0,0:0:0:0:
300,124,21460,1,0,0:0:0:0:
272,27,21683,6,0,P|365:46|394:137,1,200,4|0,0:0|0:0,0:0:0:0:
456,216,22349,1,0,0:0:0:0:
392,292,22572,2,0,B|304:276|232:300|232:300|194:297,1,200
96,276,23238,1,0,0:0:0:0:
44,187,23460,6,0,P|90:172|137:186,1,99.9999999999999
140,360,23905,2,0,P|93:374|46:358,1,99.9999999999999
196,272,24349,2,0,L|272:184,1,99.9999999999999
257,48,24794,2,0,L|192:124,1,99.9999999999999
412,132,256348,6,0,P|400:184|272:212,1,200
180,180,257015,1,0,0:0:0:0:
80,196,257237,6,0,L|160:344,2,150
112,100,258126,1,4,0:0:0:0:
