osu file format v14

[General]
AudioFilename: Fleshgod Apocalypse - The Violation.mp3
AudioLeadIn: 0
PreviewTime: 122348
Countdown: 0
SampleSet: Normal
StackLeniency: 0.7
Mode: 0
LetterboxInBreaks: 0
WidescreenStoryboard: 1

[Editor]
Bookmarks: 127,35016,85238,115459,143015,157237,170570,183904,206570,236791
DistanceSpacing: 0.5
BeatDivisor: 4
GridSize: 4
TimelineZoom: 1.9

[Metadata]
Title:The Violation
TitleUnicode:The Violation
Artist:Fleshgod Apocalypse
ArtistUnicode:Fleshgod Apocalypse
Creator:UndeadBananaz
Version:Desecration
Source:
Tags:brutal technical death metal agony
BeatmapID:709221
BeatmapSetID:192753

[Difficulty]
HPDrainRate:6
CircleSize:4
OverallDifficulty:8
ApproachRate:9.7
SliderMultiplier:1.8
SliderTickRate:2

[Events]
//Background and Video events
0,0,"BG1.jpg",0,0
//Break Periods
2,13772,250298
//Storyboard Layer 0 (Background)
//Storyboard Layer 1 (Fail)
//Storyboard Layer 2 (Pass)
//Storyboard Layer 3 (Foreground)
//Storyboard Sound Samples

[TimingPoints]
-539,222.222222222222,4,1,0,60,1,0
13794,-100,4,1,0,58,0,0
13905,-100,4,1,0,56,0,0
14016,-100,4,1,0,54,0,0
14127,-100,4,1,0,52,0,0
14238,-100,4,1,0,50,0,0
14349,-100,4,1,0,60,0,0
19905,-100,4,1,1,60,0,0
33516,-100,4,1,1,45,0,0
33683,-100,4,1,1,60,0,0
33738,-100,4,1,1,45,0,0
33905,-100,4,1,1,60,0,0
33960,-100,4,1,1,45,0,0
34127,-100,4,1,1,60,0,0
34183,-100,4,1,1,45,0,0
34572,-100,4,1,1,60,0,0
48794,222.222222222222,4,1,0,60,1,0
64793,-133.333333333333,4,1,2,60,0,0
71016,-100,4,1,1,60,0,0
84182,-100,4,1,1,45,0,0
84349,-100,4,1,1,60,0,0
84405,-100,4,1,1,45,0,0
84571,-100,4,1,1,60,0,0
84627,-100,4,1,1,45,0,0
84793,-100,4,1,1,60,0,0
90571,-100,4,1,1,60,0,1
92016,-100,4,1,1,50,0,1
92349,-100,4,1,1,60,0,1
115459,-100,4,1,1,60,0,0
121793,-100,4,1,1,58,0,0
121905,-100,4,1,1,56,0,0
122016,-100,4,1,1,54,0,0
122127,-100,4,1,1,52,0,0
122238,-100,4,1,1,50,0,0
122349,-100,4,1,1,60,0,0
145682,-100,4,1,2,60,0,0
146127,-100,4,1,2,60,0,0
146182,-100,4,1,2,30,0,0
146238,-100,4,1,2,60,0,0
146293,-100,4,1,2,30,0,0
146349,-100,4,1,2,60,0,0
146405,-100,4,1,2,30,0,0
146460,-100,4,1,2,60,0,0
146516,-100,4,1,2,30,0,0
146571,-100,4,1,1,60,0,0
152793,-100,4,1,2,60,0,0
153238,-100,4,1,2,60,0,0
153293,-100,4,1,2,30,0,0
153349,-100,4,1,2,60,0,0
153405,-100,4,1,2,30,0,0
153460,-100,4,1,2,60,0,0
153516,-100,4,1,2,30,0,0
153571,-100,4,1,2,60,0,0
153627,-100,4,1,2,30,0,0
153682,-100,4,1,2,60,0,0
170570,-133.333333333333,4,1,2,60,0,1
183904,-100,4,1,0,60,0,0
197682,222.222222222222,4,1,0,60,1,0
211903,-100,4,1,1,60,0,1
236793,-100,4,1,0,60,0,0
256347,-100,4,1,1,60,0,0

[Colours]
Combo1 : 22,173,45
Combo2 : 223,32,32
Combo3 : 49,119,223
Combo4 : 238,145,17

[HitObjects]
348,168,127,5,0,0:0:0:0:
284,228,238,1,0,0:0:0:0:
372,252,349,1,0,0:0:0:0:
148,208,572,1,0,0:0:0:0:
60,188,683,1,0,0:0:0:0:
80,276,794,1,0,0:0:0:0:
236,128,1016,1,0,0:0:0:0:
304,68,1127,1,0,0:0:0:0:
216,44,1238,1,0,0:0:0:0:
200,312,1460,1,0,0:0:0:0:
416,174,1905,5,0,0:0:0:0:
372,252,2016,1,0,0:0:0:0:
460,252,2127,1,0,0:0:0:0:
260,196,2349,1,0,0:0:0:0:
260,196,2405,1,0,0:0:0:0:
260,196,2460,2,0,L|270:248,1,45
284,318,2572,1,0,0:0:0:0:
72,104,2794,1,0,0:0:0:0:
116,180,2905,1,0,0:0:0:0:
160,104,3016,1,0,0:0:0:0:
72,308,3238,1,0,0:0:0:0:
368,328,3683,5,0,0:0:0:0:
416,252,3794,1,0,0:0:0:0:
396,164,3905,2,0,B|336:76|239:133,1,180
215,345,4349,2,0,B|218:343|326:319|308:212,1,180
240,52,4794,6,0,P|140:48|80:132,1,180
272,332,5238,2,0,P|372:336|432:252,1,180
196,212,5683,1,0,0:0:0:0:
112,120,5905,1,0,0:0:0:0:
120,100,5960,1,0,0:0:0:0:
136,84,6016,1,0,0:0:0:0:
156,72,6072,1,0,0:0:0:0:
176,68,6127,1,0,0:0:0:0:
200,68,6183,1,0,0:0:0:0:
220,76,6238,2,0,P|239:90|248:115,1,45
272,188,6349,1,0,0:0:0:0:
204,348,6572,5,0,0:0:0:0:
232,336,6627,1,0,0:0:0:0:
256,316,6683,1,0,0:0:0:0:
276,292,6738,1,0,0:0:0:0:
288,264,6794,1,0,0:0:0:0:
296,236,6849,1,0,0:0:0:0:
304,208,6905,1,0,0:0:0:0:
320,184,6960,1,0,0:0:0:0:
344,168,7016,1,0,0:0:0:0:
372,164,7072,1,0,0:0:0:0:
400,168,7127,1,0,0:0:0:0:
428,180,7183,1,0,0:0:0:0:
448,204,7238,2,0,L|508:292,1,90,2|0,0:0|0:0,0:0:0:0:
412,296,7460,6,0,P|368:320|336:372,1,90,2|0,0:0|0:0,0:0:0:0:
252,348,7683,1,2,0:0:0:0:
168,320,7794,1,2,0:0:0:0:
172,232,7905,2,0,P|203:192|210:143,1,90,2|0,0:0|0:0,0:0:0:0:
180,72,8127,1,2,0:0:0:0:
92,72,8238,1,2,0:0:0:0:
32,140,8349,2,0,P|12:192|12:236,1,90,2|0,0:0|0:0,0:0:0:0:
66,362,8572,2,0,P|84:321|88:276,1,90,2|0,0:0|0:0,0:0:0:0:
195,147,8794,2,0,P|177:188|172:232,1,90
260,220,9016,1,2,0:0:0:0:
288,136,9127,1,0,0:0:0:0:
360,84,9238,6,0,L|432:160,1,90,2|0,0:0|0:0,0:0:0:0:
364,220,9460,1,2,0:0:0:0:
448,260,9572,1,2,0:0:0:0:
436,348,9683,2,0,L|353:381,1,90,2|0,0:0|0:0,0:0:0:0:
308,300,9905,1,2,0:0:0:0:
228,340,10016,1,2,0:0:0:0:
196,260,10127,2,0,P|177:213|177:163,1,90,2|0,0:0|0:0,0:0:0:0:
240,112,10349,2,0,P|260:153|265:197,1,90,2|0,0:0|0:0,0:0:0:0:
92,196,10572,2,0,P|95:152|113:111,1,90
164,36,10794,5,2,0:0:0:0:
252,28,10905,1,0,0:0:0:0:
340,44,11016,2,0,B|368:52|396:80|396:80|416:96,1,90,2|0,0:0|0:0,0:0:0:0:
328,120,11238,5,2,0:0:0:0:
240,112,11349,1,0,0:0:0:0:
152,128,11460,2,0,B|124:136|96:164|96:164|76:180,1,90,2|0,0:0|0:0,0:0:0:0:
164,208,11683,5,2,0:0:0:0:
252,200,11794,1,0,0:0:0:0:
340,216,11905,2,0,B|368:224|396:252|396:252|416:268,1,90,2|0,0:0|0:0,0:0:0:0:
328,296,12127,5,2,0:0:0:0:
240,288,12238,1,0,0:0:0:0:
152,304,12349,2,0,B|124:312|96:340|96:340|76:356,1,90,2|0,0:0|0:0,0:0:0:0:
20,272,12572,2,0,L|8:164,1,90,2|0,0:0|0:0,0:0:0:0:
259,239,12794,2,0,L|268:328,1,90,2|0,0:0|0:0,0:0:0:0:
124,264,13016,1,0,0:0:0:0:
112,240,13072,1,0,0:0:0:0:
108,216,13127,1,0,0:0:0:0:
112,192,13183,1,0,0:0:0:0:
120,168,13238,2,0,P|156:132|208:124,1,90,2|0,0:0|0:0,0:0:0:0:
284,136,13460,1,2,0:0:0:0:
364,176,13572,1,0,0:0:0:0:
100,316,250793,5,2,0:0:0:0:
196,244,250904,1,2,0:0:0:0:
188,124,251015,2,0,P|168:88|120:56,1,90,2|0,0:0|0:0,0:0:0:0:
100,172,251237,5,2,0:0:0:0:
196,244,251348,1,2,0:0:0:0:
296,176,251459,2,0,P|312:128|292:68,1,90,2|0,0:0|0:0,0:0:0:0:
188,124,251681,5,2,0:0:0:0:
196,244,251793,1,2,0:0:0:0:
311,279,251904,2,0,P|361:277|399:246,1,90,2|0,0:0|0:0,0:0:0:0:
444,136,252126,2,0,P|394:138|356:169,1,90,2|0,0:0|0:0,0:0:0:0:
311,279,252348,2,0,P|361:277|399:246,1,90,0|0,0:0|0:0,0:0:0:0:
444,136,252570,1,2,0:0:0:0:
368,52,252681,1,2,0:0:0:0:
257,91,252793,6,0,L|160:112,1,90,2|0,0:0|0:0,0:0:0:0:
40,140,253015,1,2,0:0:0:0:
72,24,253126,1,2,0:0:0:0:
160,112,253237,2,0,B|188:148|184:180|184:180|184:212,1,90,2|0,0:0|0:0,0:0:0:0:
188,316,253459,1,2,0:0:0:0:
308,316,253570,1,2,0:0:0:0:
428,320,253681,2,0,L|428:208,1,90,2|0,0:0|0:0,0:0:0:0:
400,108,253904,1,2,0:0:0:0:
280,108,254015,1,2,0:0:0:0:
160,112,254126,2,0,L|88:196,1,90,2|0,0:0|0:0,0:0:0:0:
40,300,254348,5,2,0:0:0:0:
160,300,254459,1,2,0:0:0:0:
260,236,254570,2,0,P|288:180|288:128,1,90,2|0,0:0|0:0,0:0:0:0:
44,296,254793,5,2,0:0:0:0:
164,296,254904,1,2,0:0:0:0:
264,232,255015,2,0,P|292:176|292:124,1,90,2|0,0:0|0:0,0:0:0:0:
48,292,255237,5,2,0:0:0:0:
168,292,255348,1,2,0:0:0:0:
268,228,255459,2,0,P|296:172|296:120,1,90,2|0,0:0|0:0,0:0:0:0:
52,288,255681,5,2,0:0:0:0:
172,288,255793,1,2,0:0:0:0:
272,224,255904,2,0,P|300:168|300:116,1,90,2|0,0:0|0:0,0:0:0:0:
208,56,256126,1,2,0:0:0:0:
72,88,256237,1,0,0:0:0:0:
88,208,256348,6,0,P|140:200|204:156,1,90,2|0,0:0|0:0,0:0:0:0:
284,116,256570,1,10,0:0:0:0:
284,116,256626,1,8,0:0:0:0:
284,116,256681,2,0,L|304:52,1,45,8|0,0:0|0:0,0:0:0:0:
380,64,256793,2,0,L|348:164,1,90,2|0,0:0|0:0,0:0:0:0:
404,284,257015,2,0,L|434:188,1,90,2|0,0:0|0:0,0:0:0:0:
302,319,257237,6,0,L|272:224,1,90,2|0,0:0|0:0,0:0:0:0:
284,116,257459,1,8,0:0:0:0:
284,116,257515,1,8,0:0:0:0:
284,116,257570,2,0,L|364:44,2,90,10|0|0,0:0|0:0|0:0,0:0:0:0:
80,200,257904,2,0,L|192:184,1,90,2|0,0:0|0:0,0:0:0:0:
400,160,258126,5,6,0:0:0:0:
