osu file format v14

[General]
AudioFilename: Fleshgod Apocalypse - The Violation.mp3
AudioLeadIn: 0
PreviewTime: 122348
Countdown: 0
SampleSet: Normal
StackLeniency: 0.7
Mode: 0
LetterboxInBreaks: 0
WidescreenStoryboard: 1

[Editor]
Bookmarks: 127,35016,85238,115459,143015,157237,170570,183904,206570,236791
DistanceSpacing: 1.2
BeatDivisor: 4
GridSize: 4
TimelineZoom: 1.9

[Metadata]
Title:The Violation
TitleUnicode:The Violation
Artist:Fleshgod Apocalypse
ArtistUnicode:Fleshgod Apocalypse
Creator:UndeadBananaz
Version:Condemnation
Source:
Tags:brutal technical death metal agony
BeatmapID:458266
BeatmapSetID:192753

[Difficulty]
HPDrainRate:6
CircleSize:4.5
OverallDifficulty:9
ApproachRate:10
SliderMultiplier:2
SliderTickRate:2

[Events]
//Background and Video events
0,0,"BG1.jpg",0,0
//Break Periods
2,60549,64343
2,188216,250343
//Storyboard Layer 0 (Background)
//Storyboard Layer 1 (Fail)
//Storyboard Layer 2 (Pass)
//Storyboard Layer 3 (Foreground)
//Storyboard Sound Samples

[TimingPoints]
-539,222.222222222222,4,1,0,60,1,0
13794,-100,4,1,0,58,0,0
13905,-100,4,1,0,56,0,0
14016,-100,4,1,0,54,0,0
14127,-100,4,1,0,52,0,0
14238,-100,4,1,0,50,0,0
14349,-100,4,1,0,60,0,0
19905,-100,4,1,1,60,0,0
33516,-100,4,1,1,45,0,0
33683,-100,4,1,1,60,0,0
33738,-100,4,1,1,45,0,0
33905,-100,4,1,1,60,0,0
33960,-100,4,1,1,45,0,0
34127,-100,4,1,1,60,0,0
34183,-100,4,1,1,45,0,0
34572,-100,4,1,1,60,0,0
48794,222.222222222222,4,1,0,60,1,0
64793,-133.333333333333,4,1,2,60,0,0
71016,-100,4,1,1,60,0,0
84182,-100,4,1,1,45,0,0
84349,-100,4,1,1,60,0,0
84405,-100,4,1,1,45,0,0
84571,-100,4,1,1,60,0,0
84627,-100,4,1,1,45,0,0
84793,-100,4,1,1,60,0,0
90571,-100,4,1,1,60,0,1
92016,-100,4,1,1,50,0,1
92349,-100,4,1,1,60,0,1
115460,-100,4,1,1,60,0,0
121793,-100,4,1,1,58,0,0
121905,-100,4,1,1,56,0,0
122016,-100,4,1,1,54,0,0
122127,-100,4,1,1,52,0,0
122238,-100,4,1,1,50,0,0
122349,-100,4,1,1,60,0,0
145682,-100,4,1,2,60,0,0
146127,-100,4,1,2,60,0,0
146182,-100,4,1,2,30,0,0
146238,-100,4,1,2,60,0,0
146293,-100,4,1,2,30,0,0
146349,-100,4,1,2,60,0,0
146405,-100,4,1,2,30,0,0
146460,-100,4,1,2,60,0,0
146516,-100,4,1,2,30,0,0
146571,-100,4,1,1,60,0,0
152793,-100,4,1,2,60,0,0
153238,-100,4,1,2,60,0,0
153293,-100,4,1,2,30,0,0
153349,-100,4,1,2,60,0,0
153405,-100,4,1,2,30,0,0
153460,-100,4,1,2,60,0,0
153516,-100,4,1,2,30,0,0
153571,-100,4,1,2,60,0,0
153627,-100,4,1,2,30,0,0
153682,-100,4,1,2,60,0,0
164127,-100,4,1,1,60,0,0
170571,-133.333333333333,4,1,2,60,0,1
183905,-100,4,1,0,60,0,0
197682,222.222222222222,4,1,0,60,1,0
211904,-100,4,1,1,60,0,1
236793,-100,4,1,0,60,0,0
256347,-100,4,1,1,60,0,0

[Colours]
Combo1 : 97,175,175
Combo2 : 223,32,32
Combo3 : 49,119,223
Combo4 : 238,145,17

[HitObjects]
104,192,127,5,0,0:0:0:0:
192,112,238,1,0,0:0:0:0:
80,72,349,1,0,0:0:0:0:
304,152,572,1,0,0:0:0:0:
420,178,683,1,0,0:0:0:0:
388,63,794,1,0,0:0:0:0:
216,232,1016,1,0,0:0:0:0:
128,312,1127,1,0,0:0:0:0:
240,352,1238,1,0,0:0:0:0:
272,48,1460,1,0,0:0:0:0:
420,178,1905,5,0,0:0:0:0:
336,264,2016,1,0,0:0:0:0:
216,232,2127,1,0,0:0:0:0:
112,16,2349,1,0,0:0:0:0:
112,16,2405,1,0,0:0:0:0:
112,16,2460,2,0,L|122:68,1,50
136,138,2572,1,0,0:0:0:0:
336,264,2794,1,0,0:0:0:0:
304,152,2905,1,0,0:0:0:0:
420,178,3016,1,0,0:0:0:0:
104,288,3238,1,0,0:0:0:0:
240,52,3683,5,0,0:0:0:0:
304,152,3794,1,0,0:0:0:0:
372,56,3905,2,0,B|456:96|432:204|432:204|440:244,1,200
184,136,4349,2,0,B|160:226|258:277|258:277|274:296,1,200
240,52,4794,6,0,P|140:48|80:132,1,200
272,332,5238,2,0,P|372:336|432:252,1,200
196,212,5683,1,0,0:0:0:0:
440,164,5905,1,0,0:0:0:0:
424,148,5960,1,0,0:0:0:0:
400,136,6016,1,0,0:0:0:0:
376,136,6072,1,0,0:0:0:0:
352,144,6127,1,0,0:0:0:0:
332,160,6183,1,0,0:0:0:0:
320,180,6238,2,0,P|316:204|328:228,1,50
360,324,6349,1,0,0:0:0:0:
308,36,6572,5,0,0:0:0:0:
280,48,6627,1,0,0:0:0:0:
256,68,6683,1,0,0:0:0:0:
236,92,6738,1,0,0:0:0:0:
224,120,6794,1,0,0:0:0:0:
216,148,6849,1,0,0:0:0:0:
208,176,6905,1,0,0:0:0:0:
192,200,6960,1,0,0:0:0:0:
168,216,7016,1,0,0:0:0:0:
140,220,7072,1,0,0:0:0:0:
112,216,7127,1,0,0:0:0:0:
84,204,7183,1,0,0:0:0:0:
64,184,7238,1,2,0:0:0:0:
56,156,7294,1,0,0:0:0:0:
60,128,7349,1,0,0:0:0:0:
76,104,7405,1,0,0:0:0:0:
100,88,7460,6,0,P|144:64|176:12,1,100,2|0,0:0|0:0,0:0:0:0:
308,36,7683,1,2,0:0:0:0:
384,100,7794,1,2,0:0:0:0:
320,175,7905,2,0,P|289:215|282:264,1,100,2|0,0:0|0:0,0:0:0:0:
364,352,8127,1,2,0:0:0:0:
428,252,8238,1,2,0:0:0:0:
320,176,8349,2,0,P|268:156|224:156,1,100,2|0,0:0|0:0,0:0:0:0:
80,247,8572,2,0,P|126:266|176:268,1,100,2|0,0:0|0:0,0:0:0:0:
364,352,8794,2,0,P|318:333|268:331,1,100,0|0,0:0|0:0,0:0:0:0:
364,352,9016,1,2,0:0:0:0:
428,252,9127,1,0,0:0:0:0:
436,132,9238,6,0,L|364:56,1,100,2|0,0:0|0:0,0:0:0:0:
248,84,9460,1,2,0:0:0:0:
263,201,9572,1,2,0:0:0:0:
220,313,9683,2,0,L|122:351,1,100,2|0,0:0|0:0,0:0:0:0:
32,272,9905,1,2,0:0:0:0:
72,160,10016,1,2,0:0:0:0:
167,88,10127,2,0,P|214:69|264:69,1,100,2|0,0:0|0:0,0:0:0:0:
358,177,10349,2,0,P|313:198|264:200,1,100,2|0,0:0|0:0,0:0:0:0:
408,100,10572,2,0,P|444:148|444:204,1,100
408,300,10794,5,2,0:0:0:0:
292,324,10905,1,0,0:0:0:0:
184,272,11016,2,0,P|176:216|204:172,1,100,2|0,0:0|0:0,0:0:0:0:
400,304,11238,5,2,0:0:0:0:
284,328,11349,1,0,0:0:0:0:
176,276,11460,2,0,P|168:220|196:176,1,100,2|0,0:0|0:0,0:0:0:0:
392,308,11683,5,2,0:0:0:0:
276,332,11794,1,0,0:0:0:0:
168,280,11905,2,0,P|160:224|188:180,1,100,2|0,0:0|0:0,0:0:0:0:
384,312,12127,5,2,0:0:0:0:
268,336,12238,1,0,0:0:0:0:
160,284,12349,2,0,P|152:228|180:184,1,100,2|0,0:0|0:0,0:0:0:0:
295,55,12572,2,0,P|305:103|284:148,1,100,2|0,0:0|0:0,0:0:0:0:
124,104,12794,2,0,P|168:82|216:91,1,100,2|0,0:0|0:0,0:0:0:0:
388,120,13016,1,0,0:0:0:0:
400,144,13072,1,0,0:0:0:0:
404,168,13127,1,0,0:0:0:0:
400,192,13183,1,0,0:0:0:0:
392,216,13238,2,0,P|356:252|304:260,1,100,2|0,0:0|0:0,0:0:0:0:
188,252,13460,1,2,0:0:0:0:
92,180,13572,1,0,0:0:0:0:
112,60,13683,6,0,L|168:36,1,50,2|0,0:0|2:0,0:0:0:0:
220,92,13794,2,0,L|174:111,1,50,0|0,0:0|2:0,0:0:0:0:
288,144,13905,2,0,L|242:163,1,50,2|0,0:0|2:0,0:0:0:0:
344,196,14016,2,0,L|298:215,1,50,0|0,0:0|2:0,0:0:0:0:
408,248,14127,2,0,L|362:267,1,50,2|0,0:0|2:0,0:0:0:0:
472,300,14238,2,0,L|426:319,1,50,0|0,0:0|2:0,0:0:0:0:
304,344,14349,1,2,0:0:0:0:
188,320,14460,1,2,0:0:0:0:
96,244,14572,6,0,L|48:152,1,100,6|0,0:0|0:0,0:0:0:0:
112,60,14794,1,2,0:0:0:0:
228,84,14905,1,2,0:0:0:0:
320,160,15016,2,0,L|368:252,1,100,2|0,0:0|0:0,0:0:0:0:
476,204,15238,1,2,0:0:0:0:
444,88,15349,1,2,0:0:0:0:
332,48,15460,2,0,P|264:60|228:84,1,100,2|0,0:0|0:0,0:0:0:0:
157,222,15683,2,0,P|207:217|252:196,1,100,2|0,0:0|0:0,0:0:0:0:
71,303,15905,2,0,P|117:324|166:330,1,100
284,312,16127,1,2,0:0:0:0:
252,196,16238,1,2,0:0:0:0:
156,124,16349,6,0,P|108:111|59:120,1,100,2|0,0:0|0:0,0:0:0:0:
132,216,16572,1,2,0:0:0:0:
252,196,16683,1,2,0:0:0:0:
332,104,16794,2,0,P|340:48|328:8,1,100,2|0,0:0|0:0,0:0:0:0:
236,84,17016,1,2,0:0:0:0:
252,196,17127,1,2,0:0:0:0:
360,248,17238,2,0,P|436:264|472:252,1,100,2|0,0:0|0:0,0:0:0:0:
384,164,17460,1,2,0:0:0:0:
252,196,17572,1,2,0:0:0:0:
131,175,17683,2,0,P|119:128|130:79,1,100,2|0,0:0|0:0,0:0:0:0:
256,72,17905,2,0,L|244:20,2,50,2|0|0,0:0|0:0|0:0,0:0:0:0:
376,68,18127,6,0,P|360:140|324:160,1,100,2|0,0:0|0:0,0:0:0:0:
252,236,18349,2,0,L|296:268,2,50,2|0|0,0:0|0:0|0:0,0:0:0:0:
208,348,18572,2,0,P|156:300|152:248,1,100,2|0,0:0|0:0,0:0:0:0:
60,192,18794,2,0,L|4:228,2,50,2|0|0,0:0|0:0|0:0,0:0:0:0:
104,80,19016,1,2,0:0:0:0:
220,52,19127,1,0,0:0:0:0:
196,168,19238,1,2,0:0:0:0:
304,120,19349,1,0,0:0:0:0:
296,240,19460,2,0,L|408:212,1,100,2|0,0:0|0:0,0:0:0:0:
508,176,19683,1,2,0:0:0:0:
480,292,19794,1,0,0:0:0:0:
500,88,19905,6,0,P|451:96|418:132,1,100,2|0,0:0|0:0,0:0:0:0:
316,232,20127,1,10,0:0:0:0:
316,232,20183,1,8,0:0:0:0:
316,232,20238,2,8,L|360:268,1,50,8|0,0:0|0:0,0:0:0:0:
324,144,20349,2,0,L|340:40,1,100,2|0,0:0|0:0,0:0:0:0:
228,148,20572,2,0,L|212:246,1,100,2|0,0:0|0:0,0:0:0:0:
152,52,20794,5,6,0:0:0:0:
152,52,21016,1,8,0:0:0:0:
152,52,21072,1,8,0:0:0:0:
152,52,21127,2,8,L|198:69,1,50,8|0,0:0|0:0,0:0:0:0:
120,224,21238,2,0,L|166:241,1,50
260,188,21349,2,0,L|208:168,1,50
120,136,21460,2,0,L|68:116,1,50,2|0,0:0|0:0,0:0:0:0:
445,262,21683,6,0,L|260:188,1,200,6|0,0:0|0:0,0:0:0:0:
232,304,22016,1,0,0:0:0:0:
112,320,22127,1,0,0:0:0:0:
28,236,22238,1,0,0:0:0:0:
36,116,22349,2,0,B|72:92|88:56|88:56|120:44,1,100,2|0,0:0|0:0,0:0:0:0:
204,132,22572,2,0,P|256:180|380:172,1,200,2|0,0:0|0:0,0:0:0:0:
424,60,22905,1,0,0:0:0:0:
304,44,23016,1,0,0:0:0:0:
304,164,23127,1,0,0:0:0:0:
404,244,23238,2,0,P|444:208|454:155,1,100,2|0,0:0|0:0,0:0:0:0:
304,164,23460,6,0,P|259:185|236:228,1,100,2|0,0:0|0:0,0:0:0:0:
389,82,23683,2,0,P|352:50|304:44,1,100,2|0,0:0|0:0,0:0:0:0:
236,228,23905,2,0,P|272:264|328:276,1,100,2|0,0:0|0:0,0:0:0:0:
389,82,24127,2,0,P|352:50|304:44,1,100,2|0,0:0|0:0,0:0:0:0:
148,180,24349,6,0,P|140:252|172:300,1,100,2|0,0:0|0:0,0:0:0:0:
231,120,24572,2,0,P|198:83|152:67,1,100,2|0,0:0|0:0,0:0:0:0:
76,310,24794,2,0,P|111:344|160:356,1,100,2|0,0:0|0:0,0:0:0:0:
152,68,25016,2,0,P|98:74|54:116,1,100,2|0,0:0|0:0,0:0:0:0:
160,356,25238,2,0,P|252:352|340:264,1,200,6|0,0:0|0:0,0:0:0:0:
352,164,25572,1,0,0:0:0:0:
296,56,25683,1,0,0:0:0:0:
224,152,25794,1,0,0:0:0:0:
352,164,25905,2,0,L|472:184,1,100,2|0,0:0|0:0,0:0:0:0:
224,152,26127,6,0,L|125:135,1,100,2|0,0:0|0:0,0:0:0:0:
60,236,26349,1,2,0:0:0:0:
76,252,26405,1,0,0:0:0:0:
96,264,26460,1,0,0:0:0:0:
120,268,26516,1,0,0:0:0:0:
144,272,26572,1,2,0:0:0:0:
168,272,26627,1,0,0:0:0:0:
192,268,26683,2,0,P|224:256|256:252,1,50
336,244,26794,1,2,0:0:0:0:
164,80,27016,2,0,P|232:48|356:84,1,200,6|0,0:0|0:0,0:0:0:0:
428,168,27349,1,0,0:0:0:0:
416,284,27460,2,0,B|392:320|360:332|360:332|320:332,1,100,2|0,0:0|0:0,0:0:0:0:
259,188,27683,2,0,P|306:204|336:244,1,100,2|0,0:0|0:0,0:0:0:0:
192,268,27905,6,0,P|144:232|132:192,1,100,2|0,0:0|0:0,0:0:0:0:
148,60,28127,2,0,P|196:96|208:136,1,100,0|0,0:0|0:0,0:0:0:0:
92,156,28349,1,0,0:0:0:0:
68,144,28405,1,0,0:0:0:0:
56,124,28460,1,0,0:0:0:0:
56,100,28516,1,0,0:0:0:0:
68,76,28572,1,0,0:0:0:0:
88,60,28627,1,0,0:0:0:0:
112,52,28683,1,0,0:0:0:0:
136,52,28738,1,0,0:0:0:0:
160,56,28794,1,0,0:0:0:0:
184,64,28849,1,0,0:0:0:0:
208,76,28905,2,0,P|236:88|264:88,1,50
336,80,29016,5,2,0:0:0:0:
434,316,29238,2,0,L|324:321,1,100,2|0,0:0|0:0,0:0:0:0:
240,245,29460,2,0,L|367:238,1,100,2|0,0:0|0:0,0:0:0:0:
428,155,29683,2,0,L|324:160,1,100,6|0,0:0|0:0,0:0:0:0:
208,160,29905,1,0,0:0:0:0:
304,92,30016,1,0,0:0:0:0:
144,104,30127,1,0,0:0:0:0:
240,36,30238,1,0,0:0:0:0:
8,180,30349,2,0,L|111:174,1,100,2|0,0:0|0:0,0:0:0:0:
204,250,30572,2,0,L|100:255,1,100,2|0,0:0|0:0,0:0:0:0:
21,339,30794,2,0,L|120:333,1,100,2|0,0:0|0:0,0:0:0:0:
240,328,31016,2,0,P|277:300|293:244,1,100,2|0,0:0|0:0,0:0:0:0:
288,96,31238,2,0,P|249:127|235:174,1,100,2|0,0:0|0:0,0:0:0:0:
368,136,31460,6,0,L|472:136,1,100,2|0,0:0|0:0,0:0:0:0:
472,256,31683,2,0,L|372:256,1,100,2|0,0:0|0:0,0:0:0:0:
368,136,31905,2,0,L|368:36,1,100,2|0,0:0|0:0,0:0:0:0:
248,36,32127,2,0,L|248:136,1,100,2|0,0:0|0:0,0:0:0:0:
148,200,32349,6,0,L|148:96,1,100,2|0,0:0|0:0,0:0:0:0:
40,152,32572,1,0,0:0:0:0:
40,152,32627,1,0,0:0:0:0:
40,152,32683,2,0,L|40:92,1,50
52,240,32794,2,0,P|124:296|228:260,1,200
284,164,33127,1,0,0:0:0:0:
180,100,33238,1,0,0:0:0:0:
408,108,33460,2,0,L|464:148,3,50,2|0|0|0,0:0|0:0|0:0|0:0,0:0:0:0:
376,212,33683,2,0,L|408:260,3,50,2|0|0|0,0:0|0:0|0:0|0:0,0:0:0:0:
296,276,33905,2,0,L|308:328,3,50,2|0|0|0,0:0|0:0|0:0|0:0,0:0:0:0:
192,296,34127,2,0,L|176:348,7,50,2|0|0|0|0|0|0|0,0:0|0:0|0:0|0:0|0:0|0:0|0:0|0:0,0:0:0:0:
112,244,34572,1,6,0:0:0:0:
112,244,34683,1,0,0:0:0:0:
429,69,35016,6,0,P|397:107|352:128,1,100,6|0,0:0|2:0,0:0:0:0:
232,152,35238,1,0,0:0:0:0:
256,36,35349,1,0,0:0:0:0:
352,128,35460,2,0,P|360:160|340:240,1,100,2|0,0:0|0:0,0:0:0:0:
252,300,35683,1,0,0:0:0:0:
132,316,35794,1,0,0:0:0:0:
39,239,35905,2,0,P|41:190|69:149,1,100,2|0,0:0|0:0,0:0:0:0:
176,96,36127,2,0,P|174:145|146:186,1,100
56,104,36349,1,2,0:0:0:0:
136,12,36460,1,0,0:0:0:0:
256,36,36572,1,2,0:0:0:0:
284,152,36683,1,0,0:0:0:0:
332,260,36794,6,0,L|440:296,1,100,6|0,0:0|0:0,0:0:0:0:
508,204,37016,1,0,0:0:0:0:
484,88,37127,1,0,0:0:0:0:
380,32,37238,2,0,L|285:63,1,100,2|0,0:0|0:0,0:0:0:0:
101,175,37460,2,0,L|196:144,1,100,2|0,0:0|0:0,0:0:0:0:
98,291,37683,2,0,P|49:285|11:255,1,100,2|0,0:0|0:0,0:0:0:0:
208,244,37905,1,0,0:0:0:0:
320,292,38016,2,0,P|292:332|246:351,2,100,2|0|0,0:0|0:0|0:0,0:0:0:0:
440,300,38349,2,0,L|417:202,1,100,2|0,0:0|0:0,0:0:0:0:
484,88,38572,6,0,L|376:64,1,100,6|0,0:0|0:0,0:0:0:0:
271,48,38794,2,0,L|320:136,1,100
423,167,39016,2,0,L|484:88,1,100,2|0,0:0|0:0,0:0:0:0:
320,136,39238,2,0,L|259:215,1,100
176,299,39460,2,0,P|126:294|88:264,1,100,2|0,0:0|0:0,0:0:0:0:
24,160,39683,1,2,0:0:0:0:
92,64,39794,1,0,0:0:0:0:
212,68,39905,1,2,0:0:0:0:
148,168,40016,1,0,0:0:0:0:
92,64,40127,1,2,0:0:0:0:
212,68,40238,1,0,0:0:0:0:
272,172,40349,6,0,L|272:276,1,100,2|0,0:0|0:0,0:0:0:0:
376,312,40572,2,0,L|376:212,1,100,2|0,0:0|0:0,0:0:0:0:
376,24,40794,2,0,L|376:124,1,100,2|0,0:0|0:0,0:0:0:0:
484,176,41016,2,0,L|484:76,1,100,2|0,0:0|0:0,0:0:0:0:
376,123,41238,2,0,P|328:136|280:128,1,100,2|0,0:0|0:0,0:0:0:0:
156,116,41460,1,10,0:0:0:0:
228,20,41572,1,10,0:0:0:0:
280,128,41683,2,0,P|260:184|216:212,1,100,10|0,0:0|0:0,0:0:0:0:
108,228,41905,1,10,0:0:0:0:
156,116,42016,1,10,0:0:0:0:
228,208,42127,6,0,P|233:257|205:309,1,100,10|0,0:0|0:0,0:0:0:0:
96,332,42349,2,0,P|48:320|12:280,1,100,2|0,0:0|0:0,0:0:0:0:
35,165,42572,2,0,P|79:187|108:228,1,100,2|0,0:0|0:0,0:0:0:0:
156,116,42794,1,2,0:0:0:0:
228,20,42905,1,0,0:0:0:0:
344,52,43016,2,0,B|384:68|404:100|404:100|408:132,1,100,2|0,0:0|0:0,0:0:0:0:
372,236,43238,2,0,B|332:220|312:188|312:188|308:156,1,100,2|0,0:0|0:0,0:0:0:0:
456,196,43460,1,2,0:0:0:0:
436,316,43572,1,0,0:0:0:0:
316,320,43683,1,2,0:0:0:0:
232,232,43794,1,0,0:0:0:0:
228,112,43905,6,0,L|128:148,1,100,6|0,0:0|0:0,0:0:0:0:
37,297,44127,2,0,L|132:264,1,100,0|0,0:0|0:0,0:0:0:0:
322,78,44349,2,0,L|228:112,1,100,2|0,0:0|0:0,0:0:0:0:
412,160,44572,2,0,L|506:126,1,100,0|0,0:0|0:0,0:0:0:0:
508,228,44794,1,2,0:0:0:0:
436,296,44905,1,0,0:0:0:0:
336,292,45016,1,2,0:0:0:0:
276,212,45127,1,0,0:0:0:0:
380,203,45238,1,2,0:0:0:0:
336,292,45349,1,0,0:0:0:0:
240,322,45460,1,2,0:0:0:0:
156,267,45572,1,0,0:0:0:0:
148,168,45683,6,0,L|192:68,1,100,2|0,0:0|0:0,0:0:0:0:
308,96,45905,1,0,0:0:0:0:
276,212,46016,1,0,0:0:0:0:
392,176,46127,2,0,L|436:76,1,100,2|0,0:0|0:0,0:0:0:0:
308,96,46349,1,0,0:0:0:0:
276,212,46460,1,0,0:0:0:0:
392,176,46572,2,0,L|351:267,1,100,2|0,0:0|0:0,0:0:0:0:
240,322,46794,1,2,0:0:0:0:
120,328,46905,1,0,0:0:0:0:
56,172,47016,1,2,0:0:0:0:
168,216,47127,1,0,0:0:0:0:
212,32,47238,1,2,0:0:0:0:
92,44,47349,1,0,0:0:0:0:
308,96,47460,6,0,L|408:80,1,100,2|0,0:0|0:0,0:0:0:0:
464,184,47683,1,0,0:0:0:0:
468,216,47738,1,0,0:0:0:0:
460,248,47849,1,4,0:3:0:0:
436,272,47905,1,4,0:3:0:0:
404,284,47960,2,0,P|356:284|340:272,1,66.6666666666667,4|4,0:3|0:3,0:0:0:0:
236,232,48127,1,4,0:0:0:0:
20,124,48349,1,0,0:0:0:0:
180,304,48572,1,0,0:0:0:0:
208,64,48794,6,0,P|300:64|400:164,1,200,6|0,0:0|0:0,0:0:0:0:
412,244,49127,1,0,0:0:0:0:
328,328,49238,1,0,0:0:0:0:
208,336,49349,1,0,0:0:0:0:
87,331,49460,2,0,P|51:299|44:250,1,100,2|0,0:0|0:0,0:0:0:0:
220,200,49682,2,0,P|184:234|136:248,1,100,2|0,0:0|0:0,0:0:0:0:
211,106,49905,2,0,P|260:118|297:150,1,100,2|0,0:0|0:0,0:0:0:0:
112,104,50127,6,0,P|177:29|284:44,1,200,6|0,0:0|0:0,0:0:0:0:
384,84,50460,1,0,0:0:0:0:
448,184,50571,1,0,0:0:0:0:
420,300,50682,1,0,0:0:0:0:
349,199,50794,2,0,L|448:184,1,100,2|0,0:0|0:0,0:0:0:0:
332,284,51016,1,2,0:0:0:0:
316,304,51071,1,0,0:0:0:0:
296,320,51127,1,0,0:0:0:0:
272,328,51182,1,0,0:0:0:0:
248,332,51238,1,2,0:0:0:0:
224,332,51294,1,4,3:0:0:0:
200,328,51349,1,4,3:0:0:0:
176,320,51405,1,4,3:0:0:0:
156,308,51460,6,0,P|120:272|148:128,1,200,6|0,0:0|0:0,0:0:0:0:
228,56,51794,1,0,0:0:0:0:
348,56,51905,2,0,L|456:56,1,100
404,168,52127,2,0,L|300:168,1,100
332,284,52349,2,0,L|436:284,1,100
500,180,52571,1,2,0:0:0:0:
476,168,52627,1,0,0:0:0:0:
452,164,52682,1,2,0:0:0:0:
428,164,52738,1,0,0:0:0:0:
404,168,52793,2,0,P|312:196|268:188,1,100,2|0,0:0|0:0,0:0:0:0:
188,180,53016,1,0,0:0:0:0:
124,76,53127,1,0,0:0:0:0:
188,180,53238,5,0,0:0:0:0:
72,156,53349,1,0,0:0:0:0:
188,180,53460,1,0,0:0:0:0:
92,252,53571,1,0,0:0:0:0:
188,180,53682,1,0,0:0:0:0:
212,180,53738,1,0,0:0:0:0:
236,188,53793,1,0,0:0:0:0:
256,204,53849,1,0,0:0:0:0:
268,224,53905,1,0,0:0:0:0:
280,244,53960,1,0,0:0:0:0:
296,264,54016,1,0,0:0:0:0:
316,276,54071,1,0,0:0:0:0:
340,280,54127,2,0,B|376:268|376:268|416:268|416:268|452:256,1,100,2|0,0:0|0:0,0:0:0:0:
440,140,54349,2,0,B|444:100|432:52|432:52|416:40,1,100,2|0,0:0|0:0,0:0:0:0:
304,48,54571,2,0,B|283:54|283:54|243:54|243:54|207:66,1,100,2|0,0:0|0:0,0:0:0:0:
100,120,54793,2,0,B|96:160|108:208|108:208|124:220,1,100,2|0,0:0|0:0,0:0:0:0:
224,267,55016,6,0,P|194:307|148:327,1,100,2|0,0:0|0:0,0:0:0:0:
224,267,55238,2,0,P|256:216|304:196,1,100,2|0,0:0|0:0,0:0:0:0:
408,188,55460,1,2,0:0:0:0:
408,188,55571,2,0,B|448:156|484:160|484:160|504:156,1,100,2|0,0:0|0:0,0:0:0:0:
492,276,55793,1,0,0:0:0:0:
376,304,55905,1,0,0:0:0:0:
296,216,56016,1,0,0:0:0:0:
176,204,56127,2,0,B|148:208|148:208|100:200|56:216,1,100,2|0,0:0|0:0,0:0:0:0:
160,124,56349,2,0,B|192:124|192:124|228:112|276:120,1,100,2|0,0:0|0:0,0:0:0:0:
344,32,56571,2,0,B|316:36|316:36|268:28|224:44,1,100,2|0,0:0|0:0,0:0:0:0:
124,52,56793,1,2,0:0:0:0:
120,292,57016,1,0,0:0:0:0:
144,288,57071,1,0,0:0:0:0:
168,280,57127,1,0,0:0:0:0:
188,264,57182,1,0,0:0:0:0:
204,244,57238,1,0,0:0:0:0:
212,220,57293,1,0,0:0:0:0:
216,196,57349,1,0,0:0:0:0:
228,172,57405,1,0,0:0:0:0:
244,152,57460,1,0,0:0:0:0:
264,136,57516,1,0,0:0:0:0:
288,132,57571,2,0,P|312:136|340:160,1,50
400,192,57682,1,4,0:0:0:0:
256,192,57738,12,4,60349,0:0:0:0:
192,256,64793,6,0,L|112:284,2,75.0000028610231,0|0|2,0:0|0:0|0:0,0:0:0:0:
264,240,65127,1,0,0:0:0:0:
336,264,65238,2,0,P|384:248|412:220,1,75.0000028610231,10|0,0:0|2:0,0:0:0:0:
432,164,65460,2,0,P|420:120|392:92,1,75.0000028610231,2|0,0:0|2:0,0:0:0:0:
344,52,65682,2,2,P|276:112|196:104,1,150.000005722046,10|0,0:0|0:0,0:0:0:0:
148,88,66016,1,0,0:0:0:0:
76,112,66127,2,0,L|60:188,1,75.0000028610231,8|0,0:0|2:0,0:0:0:0:
52,260,66349,2,0,L|112:304,1,75.0000028610231,0|0,0:0|2:0,0:0:0:0:
188,308,66571,6,0,B|216:304|216:304|240:284|272:280,1,75.0000028610231,8|0,0:0|0:0,0:0:0:0:
296,348,66793,1,2,0:0:0:0:
332,280,66905,1,0,0:0:0:0:
292,216,67016,2,0,P|292:184|308:140,1,75.0000028610231,10|0,0:0|2:0,0:0:0:0:
244,100,67238,2,0,P|296:64|324:64,1,75.0000028610231,2|0,0:0|2:0,0:0:0:0:
380,68,67460,2,0,B|380:92|380:92|396:120|384:160,1,75.0000028610231,10|0,0:0|0:0,0:0:0:0:
368,212,67682,1,2,0:0:0:0:
440,196,67793,1,0,0:0:0:0:
420,268,67905,2,0,P|408:320|380:352,1,75.0000028610231,10|0,0:0|2:0,0:0:0:0:
324,312,68127,2,0,L|232:304,1,75.0000028610231,2|0,0:0|0:0,0:0:0:0:
184,340,68349,6,0,B|156:324|152:296|152:296|112:280,1,75.0000028610231,10|0,0:0|2:0,0:0:0:0:
72,248,68571,1,2,0:0:0:0:
56,212,68627,1,0,0:0:0:0:
64,176,68682,1,0,0:0:0:0:
92,148,68738,1,0,0:0:0:0:
128,136,68793,2,0,P|165:136|196:156,1,75.0000028610231,2|0,0:0|2:0,0:0:0:0:
272,152,69016,2,0,P|252:108|224:88,1,75.0000028610231,2|0,0:0|2:0,0:0:0:0:
243,19,69238,2,0,P|278:33|305:59,1,75.0000028610231,2|0,0:0|2:0,0:0:0:0:
352,116,69460,1,2,0:0:0:0:
408,164,69571,1,2,0:0:0:0:
480,180,69682,2,0,L|520:144,3,37.5000014305115,2|0|0|0,0:0|0:0|0:0|0:0,0:0:0:0:
476,256,69905,2,0,L|516:276,3,37.5000014305115,2|0|0|0,0:0|0:0|0:0|0:0,0:0:0:0:
408,288,70127,6,0,P|344:304|308:300,1,75.0000028610231
260,296,70349,1,0,0:0:0:0:
188,272,70460,1,0,0:0:0:0:
144,212,70571,1,2,0:0:0:0:
148,136,70682,1,0,0:0:0:0:
188,72,70793,1,2,0:0:0:0:
260,48,70905,1,0,0:0:0:0:
360,40,71016,6,0,L|452:84,2,100,2|0|0,0:0|0:0|0:0,0:0:0:0:
320,132,71349,2,0,L|220:172,2,100,2|0|0,0:0|0:0|0:0,0:0:0:0:
412,172,71682,2,0,L|468:272,1,100,2|0,0:0|0:0,0:0:0:0:
380,320,71905,2,0,P|280:260|176:272,1,200,2|0,0:0|0:0,0:0:0:0:
88,308,72238,1,0,0:0:0:0:
56,192,72349,1,2,0:0:0:0:
108,84,72460,1,0,0:0:0:0:
224,56,72571,1,2,0:0:0:0:
320,132,72682,1,0,0:0:0:0:
204,150,72793,6,0,P|203:100|224:56,1,100,2|0,0:0|0:0,0:0:0:0:
344,32,73016,1,0,0:0:0:0:
168,264,73127,1,2,0:0:0:0:
298,152,73238,2,0,P|298:202|280:248,1,100,2|0,0:0|0:0,0:0:0:0:
411,172,73460,2,0,P|393:125|392:76,1,100,2|0,0:0|0:0,0:0:0:0:
452,284,73682,1,2,0:0:0:0:
352,348,73793,1,0,0:0:0:0:
280,248,73905,1,2,0:0:0:0:
188,324,74016,1,0,0:0:0:0:
68,320,74127,1,2,0:0:0:0:
132,220,74238,1,0,0:0:0:0:
32,148,74349,1,2,0:0:0:0:
108,56,74460,1,0,0:0:0:0:
200,132,74571,6,0,L|272:64,2,100,2|0|0,0:0|0:0|0:0,0:0:0:0:
320,152,74905,1,2,0:0:0:0:
320,152,75016,2,0,L|392:84,2,100,2|0|0,0:0|0:0|0:0,0:0:0:0:
440,172,75349,1,2,0:0:0:0:
440,172,75460,2,0,L|512:104,2,100,2|0|0,0:0|0:0|0:0,0:0:0:0:
360,260,75793,1,0,0:0:0:0:
480,280,75905,1,2,0:0:0:0:
440,172,76016,1,0,0:0:0:0:
320,152,76127,1,2,0:0:0:0:
200,168,76238,1,0,0:0:0:0:
256,272,76349,6,0,B|239:288|239:288|213:328|163:329,1,100,2|0,0:0|0:0,0:0:0:0:
60,348,76571,1,0,0:0:0:0:
112,240,76682,1,0,0:0:0:0:
12,176,76793,2,0,B|36:148|76:144|76:144|120:128,1,100,2|0,0:0|0:0,0:0:0:0:
216,172,77016,1,0,0:0:0:0:
304,88,77127,1,0,0:0:0:0:
196,60,77238,2,0,B|156:60|132:44|132:44|88:44,1,100,2|0,0:0|0:0,0:0:0:0:
264,24,77460,1,0,0:0:0:0:
348,108,77571,1,0,0:0:0:0:
465,180,77682,2,0,P|476:132|464:84,1,100,2|0,0:0|0:0,0:0:0:0:
316,208,77905,1,0,0:0:0:0:
400,296,78016,1,0,0:0:0:0:
207,155,78127,6,0,P|167:185|152:232,1,100,2|0,0:0|0:0,0:0:0:0:
220,336,78349,1,0,0:0:0:0:
100,340,78460,1,0,0:0:0:0:
48,232,78571,2,0,P|61:185|52:132,1,100,2|0,0:0|0:0,0:0:0:0:
152,232,78793,1,0,0:0:0:0:
272,236,78905,1,0,0:0:0:0:
340,136,79016,2,0,L|312:36,1,100,2|0,0:0|0:0,0:0:0:0:
432,52,79238,1,2,0:0:0:0:
456,168,79349,1,0,0:0:0:0:
340,136,79460,1,2,0:0:0:0:
432,52,79571,1,0,0:0:0:0:
456,168,79682,1,2,0:0:0:0:
368,248,79793,1,0,0:0:0:0:
172,289,79905,6,0,L|268:320,1,100,2|0,0:0|0:0,0:0:0:0:
236,208,80127,1,0,0:0:0:0:
144,172,80238,1,0,0:0:0:0:
144,172,80349,2,0,L|44:140,1,100,2|0,0:0|0:0,0:0:0:0:
136,60,80571,2,0,L|231:90,1,100,2|0,0:0|0:0,0:0:0:0:
340,136,80793,1,2,0:0:0:0:
456,168,80905,1,0,0:0:0:0:
368,248,81016,1,2,0:0:0:0:
252,216,81127,1,0,0:0:0:0:
225,97,81238,1,2,0:0:0:0:
340,136,81349,1,0,0:0:0:0:
368,248,81460,1,2,0:0:0:0:
252,216,81571,1,0,0:0:0:0:
144,172,81682,6,0,L|48:128,1,100,2|0,0:0|0:0,0:0:0:0:
56,252,81905,1,0,0:0:0:0:
156,316,82016,1,0,0:0:0:0:
276,336,82127,2,0,L|408:340,1,100,2|0,0:0|0:0,0:0:0:0:
472,268,82349,1,0,0:0:0:0:
504,152,82460,1,0,0:0:0:0:
404,88,82571,2,0,L|296:136,1,100,2|0,0:0|0:0,0:0:0:0:
200,168,82793,1,2,0:0:0:0:
80,144,82905,1,0,0:0:0:0:
156,52,83016,1,2,0:0:0:0:
276,72,83127,1,0,0:0:0:0:
324,184,83238,1,2,0:0:0:0:
248,276,83349,1,0,0:0:0:0:
128,256,83460,6,0,L|24:264,2,100,2|0|0,0:0|0:0|0:0,0:0:0:0:
248,276,83793,1,0,0:0:0:0:
368,272,83905,2,0,P|408:240|420:184,1,100,2|0,0:0|0:0,0:0:0:0:
376,84,84127,2,0,L|420:40,3,50,2|0|0|0,0:0|0:0|0:0|0:0,0:0:0:0:
276,72,84349,2,0,L|264:124,3,50,2|0|0|0,0:0|0:0|0:0|0:0,0:0:0:0:
184,72,84571,2,0,L|144:32,3,50,2|0|0|0,0:0|0:0|0:0|0:0,0:0:0:0:
112,124,84793,1,6,0:0:0:0:
248,276,85238,6,0,P|176:300|96:212,1,200,4|0,0:0|0:0,0:0:0:0:
112,124,85571,1,0,0:0:0:0:
188,60,85682,1,0,0:0:0:0:
288,48,85793,1,0,0:0:0:0:
384,80,85905,1,0,0:0:0:0:
444,160,86016,1,0,0:0:0:0:
448,260,86127,2,0,L|372:336,1,100
280,312,86349,2,0,L|350:241,1,100
260,212,86571,2,0,L|184:288,1,100
92,264,86793,2,0,L|162:193,1,100
68,156,87016,5,0,0:0:0:0:
108,64,87127,1,0,0:0:0:0:
208,52,87238,1,0,0:0:0:0:
284,116,87349,1,0,0:0:0:0:
260,212,87460,1,0,0:0:0:0:
280,312,87571,1,0,0:0:0:0:
384,328,87682,1,0,0:0:0:0:
436,244,87793,1,0,0:0:0:0:
376,154,87905,6,0,L|284:116,1,100
208,52,88127,1,0,0:0:0:0:
108,64,88238,1,0,0:0:0:0:
164,148,88349,1,0,0:0:0:0:
264,136,88460,1,0,0:0:0:0:
308,44,88571,1,0,0:0:0:0:
208,52,88682,1,0,0:0:0:0:
108,64,88793,6,0,P|29:118|36:216,1,200
100,288,89127,1,0,0:0:0:0:
208,280,89238,2,0,L|300:184,1,100
336,104,89460,1,0,0:0:0:0:
216,112,89571,1,0,0:0:0:0:
300,302,89682,2,0,L|392:206,1,100
452,140,89905,1,0,0:0:0:0:
336,104,90016,1,0,0:0:0:0:
392,332,90127,2,0,L|484:236,1,100
452,140,90349,1,0,0:0:0:0:
424,24,90460,1,0,0:0:0:0:
336,104,90571,6,0,P|295:131|245:134,1,100,2|0,0:0|0:0,0:0:0:0:
148,120,90793,1,0,0:0:0:0:
56,164,90905,1,0,0:0:0:0:
52,264,91016,1,2,0:0:0:0:
136,320,91127,1,0,0:0:0:0:
236,316,91238,1,0,0:0:0:0:
304,244,91349,1,0,0:0:0:0:
272,148,91460,1,2,0:0:0:0:
256,48,91571,1,0,0:0:0:0:
352,80,91682,1,0,0:0:0:0:
424,148,91793,1,0,0:0:0:0:
448,244,91905,1,2,0:0:0:0:
372,312,92016,1,2,0:0:0:0:
348,320,92071,1,0,0:0:0:0:
324,316,92127,1,8,0:0:0:0:
300,304,92182,1,8,0:0:0:0:
280,288,92238,1,8,0:0:0:0:
264,268,92293,1,8,0:0:0:0:
244,256,92349,6,2,P|172:220|64:264,1,200,6|0,0:0|0:0,0:0:0:0:
156,308,92682,1,0,0:0:0:0:
160,208,92793,1,2,0:0:0:0:
116,116,92905,1,0,0:0:0:0:
24,72,93016,1,0,0:0:0:0:
32,172,93127,1,0,0:0:0:0:
116,116,93238,1,2,0:0:0:0:
208,80,93349,1,0,0:0:0:0:
308,84,93460,1,0,0:0:0:0:
396,128,93571,1,0,0:0:0:0:
308,84,93682,1,2,0:0:0:0:
392,32,93793,1,0,0:0:0:0:
484,76,93905,1,0,0:0:0:0:
484,176,94016,1,0,0:0:0:0:
405,290,94127,6,2,P|351:212|396:128,1,200,6|0,0:0|0:0,0:0:0:0:
484,176,94460,1,0,0:0:0:0:
500,272,94571,1,2,0:0:0:0:
405,290,94682,1,0,0:0:0:0:
320,240,94793,1,0,0:0:0:0:
232,192,94905,1,0,0:0:0:0:
132,192,95016,1,2,0:0:0:0:
68,268,95127,1,0,0:0:0:0:
164,288,95238,1,0,0:0:0:0:
132,192,95349,1,0,0:0:0:0:
68,268,95460,1,2,0:0:0:0:
164,288,95571,1,0,0:0:0:0:
132,192,95682,2,0,P|88:168|32:168,1,100
64,72,95905,6,0,P|108:96|252:64,1,200,6|0,0:0|0:0,0:0:0:0:
348,44,96238,1,0,0:0:0:0:
444,68,96349,1,2,0:0:0:0:
512,140,96460,1,0,0:0:0:0:
508,240,96571,1,0,0:0:0:0:
440,312,96682,1,0,0:0:0:0:
340,328,96793,1,2,0:0:0:0:
252,280,96905,1,0,0:0:0:0:
240,180,97016,1,0,0:0:0:0:
324,128,97127,1,0,0:0:0:0:
408,180,97238,2,0,P|368:228|324:236,1,100,2|0,0:0|0:0,0:0:0:0:
165,236,97460,2,0,P|193:195|240:180,1,100
252,280,97682,5,2,0:0:0:0:
232,304,97756,1,0,0:0:0:0:
200,320,97831,1,0,0:0:0:0:
168,324,97905,1,0,0:0:0:0:
136,320,97979,1,2,0:0:0:0:
108,304,98053,1,0,0:0:0:0:
84,280,98127,1,0,0:0:0:0:
76,248,98201,1,0,0:0:0:0:
76,216,98275,1,2,0:0:0:0:
84,184,98349,1,0,0:0:0:0:
104,160,98423,1,0,0:0:0:0:
132,144,98497,1,0,0:0:0:0:
212,168,98571,5,2,0:0:0:0:
232,192,98645,1,0,0:0:0:0:
264,204,98719,1,0,0:0:0:0:
296,204,98793,1,0,0:0:0:0:
328,196,98868,1,2,0:0:0:0:
356,176,98942,1,0,0:0:0:0:
372,148,99016,1,0,0:0:0:0:
380,116,99090,1,0,0:0:0:0:
376,84,99164,1,2,0:0:0:0:
364,52,99238,1,0,0:0:0:0:
336,32,99312,1,0,0:0:0:0:
304,28,99386,1,0,0:0:0:0:
276,44,99460,6,0,P|185:74|92:28,1,200,6|0,0:0|0:0,0:0:0:0:
44,116,99793,1,0,0:0:0:0:
40,216,99905,1,2,0:0:0:0:
96,300,100016,1,0,0:0:0:0:
192,324,100127,1,0,0:0:0:0:
292,312,100238,1,0,0:0:0:0:
376,256,100349,1,2,0:0:0:0:
400,160,100460,1,0,0:0:0:0:
372,64,100571,1,0,0:0:0:0:
276,44,100682,1,0,0:0:0:0:
204,112,100793,1,2,0:0:0:0:
232,208,100905,1,0,0:0:0:0:
304,136,101016,1,0,0:0:0:0:
400,160,101127,1,0,0:0:0:0:
467,231,101238,6,0,P|468:281|440:321,1,100,2|0,0:0|0:0,0:0:0:0:
204,297,101460,2,0,P|203:248|232:208,1,100,0|0,0:0|0:0,0:0:0:0:
372,64,101682,2,0,P|373:114|345:154,1,100,2|0,0:0|0:0,0:0:0:0:
109,130,101904,2,0,P|108:81|137:41,1,100,0|0,0:0|0:0,0:0:0:0:
204,112,102127,1,2,0:0:0:0:
176,208,102238,1,0,0:0:0:0:
76,216,102349,1,0,0:0:0:0:
16,136,102460,1,0,0:0:0:0:
56,44,102571,1,2,0:0:0:0:
156,32,102682,1,0,0:0:0:0:
204,112,102793,1,0,0:0:0:0:
284,172,102905,1,0,0:0:0:0:
384,176,103016,6,2,P|444:128|384:24,1,200,6|0,0:0|0:0,0:0:0:0:
312,76,103349,1,0,0:0:0:0:
284,172,103460,1,2,0:0:0:0:
324,264,103571,1,0,0:0:0:0:
424,272,103682,2,0,P|480:240|508:188,1,100,0|0,0:0|0:0,0:0:0:0:
387,15,103905,2,0,P|342:37|312:76,1,100,2|0,0:0|0:0,0:0:0:0:
284,172,104127,1,0,0:0:0:0:
324,264,104238,1,0,0:0:0:0:
252,332,104349,1,2,0:0:0:0:
180,260,104460,1,0,0:0:0:0:
108,192,104571,1,0,0:0:0:0:
20,236,104682,1,0,0:0:0:0:
80,316,104793,6,2,P|144:304|192:172,1,200,2|0,0:0|0:0,0:0:0:0:
188,92,105127,1,0,0:0:0:0:
104,40,105238,1,2,0:0:0:0:
28,108,105349,1,0,0:0:0:0:
112,164,105460,1,0,0:0:0:0:
188,92,105571,1,0,0:0:0:0:
276,43,105682,2,2,P|367:76|397:167,1,200,6|0,0:0|0:0,0:0:0:0:
376,268,106016,1,0,0:0:0:0:
312,344,106127,2,0,B|264:340|240:312|240:312|220:304,1,100,2|0,0:0|0:0,0:0:0:0:
132,260,106349,1,8,0:0:0:0:
110,246,106405,1,0,0:0:0:0:
88,233,106460,1,8,0:0:0:0:
68,220,106516,1,0,0:0:0:0:
48,208,106571,6,2,P|32:136|136:68,1,200,6|0,0:0|0:0,0:0:0:0:
224,60,106905,1,0,0:0:0:0:
320,88,107016,1,2,0:0:0:0:
372,172,107127,1,0,0:0:0:0:
376,268,107238,1,0,0:0:0:0:
288,220,107349,1,0,0:0:0:0:
372,172,107460,1,2,0:0:0:0:
464,208,107571,1,0,0:0:0:0:
472,308,107682,1,0,0:0:0:0:
388,364,107793,1,0,0:0:0:0:
292,328,107905,1,2,0:0:0:0:
208,276,108016,1,0,0:0:0:0:
116,240,108127,1,0,0:0:0:0:
24,276,108238,1,0,0:0:0:0:
116,240,108349,6,0,P|128:192|108:140,1,100,2|0,0:0|0:0,0:0:0:0:
32,84,108571,1,0,0:0:0:0:
0,176,108682,1,0,0:0:0:0:
24,276,108793,1,2,0:0:0:0:
108,332,108905,1,0,0:0:0:0:
204,300,109016,1,0,0:0:0:0:
236,204,109127,1,0,0:0:0:0:
172,128,109238,1,2,0:0:0:0:
132,220,109349,1,0,0:0:0:0:
204,300,109460,1,0,0:0:0:0:
300,280,109571,1,0,0:0:0:0:
332,184,109682,1,2,0:0:0:0:
272,104,109793,1,0,0:0:0:0:
172,128,109905,2,0,P|180:180|228:220,1,100
416,140,110127,6,2,P|403:50|307:2,1,200,6|0,0:0|0:0,0:0:0:0:
216,16,110460,1,0,0:0:0:0:
120,48,110571,1,2,0:0:0:0:
76,140,110682,1,0,0:0:0:0:
92,240,110793,1,0,0:0:0:0:
164,312,110905,1,0,0:0:0:0:
264,320,111016,1,2,0:0:0:0:
348,268,111127,1,0,0:0:0:0:
376,172,111238,1,0,0:0:0:0:
348,76,111349,1,0,0:0:0:0:
272,140,111460,2,0,B|248:176|264:212|264:212|248:248,1,100,2|0,0:0|0:0,0:0:0:0:
408,344,111682,2,0,P|440:304|436:240,1,100
376,172,111905,5,6,0:0:0:0:
192,100,112127,1,10,0:0:0:0:
184,124,112182,1,8,0:0:0:0:
188,148,112238,1,8,0:0:0:0:
200,168,112293,1,0,0:0:0:0:
216,188,112349,1,0,0:0:0:0:
236,204,112405,1,0,0:0:0:0:
248,224,112460,2,0,P|260:256|256:280,1,50
264,356,112571,2,0,B|224:360|196:332|196:332|164:328,1,100,2|0,0:0|0:0,0:0:0:0:
68,328,112793,1,6,0:0:0:0:
332,48,113016,1,8,0:0:0:0:
324,72,113071,1,8,0:0:0:0:
328,96,113127,1,8,0:0:0:0:
340,116,113182,1,0,0:0:0:0:
356,136,113238,1,0,0:0:0:0:
376,152,113294,1,0,0:0:0:0:
388,172,113349,2,0,P|400:204|396:228,1,50
368,300,113460,2,0,L|260:288,1,100,2|0,0:0|0:0,0:0:0:0:
240,188,113682,1,2,0:0:0:0:
72,80,113905,5,8,0:0:0:0:
56,100,113960,1,8,0:0:0:0:
48,124,114016,1,10,0:0:0:0:
48,148,114071,1,0,0:0:0:0:
52,172,114127,1,0,0:0:0:0:
64,196,114182,1,0,0:0:0:0:
80,216,114238,1,0,0:0:0:0:
100,228,114293,1,0,0:0:0:0:
124,236,114349,2,0,B|160:240|160:240|188:256|232:248,1,100,2|0,0:0|0:0,0:0:0:0:
320,240,114571,1,2,0:0:0:0:
364,152,114682,1,0,0:0:0:0:
464,152,114793,1,0,0:0:0:0:
504,244,114905,1,2,0:0:0:0:
464,336,115016,1,0,0:0:0:0:
364,328,115127,1,0,0:0:0:0:
320,240,115238,2,0,L|428:236,1,100,2|0,0:0|0:0,0:0:0:0:
240,304,115460,6,0,L|132:308,1,100,6|0,0:0|0:0,0:0:0:0:
64,196,115682,1,2,0:0:0:0:
184,188,115793,1,2,0:0:0:0:
200,68,115905,2,0,L|100:71,1,100,2|0,0:0|0:0,0:0:0:0:
64,196,116127,1,2,0:0:0:0:
184,188,116238,1,2,0:0:0:0:
200,68,116349,2,0,L|299:64,1,100,2|0,0:0|0:0,0:0:0:0:
503,120,116571,2,0,L|404:124,1,100,2|0,0:0|0:0,0:0:0:0:
249,236,116793,2,0,L|348:232,1,100,0|0,0:0|0:0,0:0:0:0:
444,304,117016,1,2,0:0:0:0:
444,304,117127,1,0,0:0:0:0:
328,336,117238,6,0,B|284:324|252:340|252:340|196:332,1,100,2|0,0:0|0:0,0:0:0:0:
116,296,117460,1,2,0:0:0:0:
40,204,117571,1,2,0:0:0:0:
88,96,117682,2,0,B|104:64|160:68|160:68|192:52,1,100,2|0,0:0|0:0,0:0:0:0:
296,72,117905,1,2,0:0:0:0:
336,184,118016,1,2,0:0:0:0:
220,220,118127,2,0,P|174:201|148:152,1,100,2|0,0:0|0:0,0:0:0:0:
396,100,118349,2,0,P|429:136|432:192,1,100,2|0,0:0|0:0,0:0:0:0:
385,353,118571,2,0,P|352:316|348:268,1,100,0|0,0:0|0:0,0:0:0:0:
316,152,118793,5,2,0:0:0:0:
200,128,118904,1,0,0:0:0:0:
92,180,119015,2,0,P|84:236|112:280,1,100,2|0,0:0|0:0,0:0:0:0:
308,148,119237,5,2,0:0:0:0:
192,124,119348,1,0,0:0:0:0:
84,176,119459,2,0,P|76:232|104:276,1,100,2|0,0:0|0:0,0:0:0:0:
300,144,119682,5,2,0:0:0:0:
184,120,119793,1,0,0:0:0:0:
76,172,119904,2,0,P|68:228|96:272,1,100,2|0,0:0|0:0,0:0:0:0:
292,140,120126,5,2,0:0:0:0:
176,116,120237,1,0,0:0:0:0:
68,168,120348,2,0,P|60:224|88:268,1,100,2|0,0:0|0:0,0:0:0:0:
206,324,120571,2,0,P|216:276|196:232,1,100,2|0,0:0|0:0,0:0:0:0:
308,148,120793,2,0,B|344:176|348:216|348:216|372:240,1,100,2|0,0:0|0:0,0:0:0:0:
480,256,121016,1,0,0:0:0:0:
469,277,121071,1,0,0:0:0:0:
456,297,121127,1,0,0:0:0:0:
438,316,121182,1,0,0:0:0:0:
419,329,121238,2,0,B|396:340|396:340|358:353|313:337,1,100,2|0,0:0|0:0,0:0:0:0:
364,228,121460,1,2,0:0:0:0:
456,152,121571,1,0,0:0:0:0:
432,56,121682,6,0,L|376:32,1,50,2|0,0:0|2:0,0:0:0:0:
324,88,121793,2,0,L|370:107,1,50,0|0,0:0|2:0,0:0:0:0:
256,140,121904,2,0,L|302:159,1,50,2|0,0:0|2:0,0:0:0:0:
200,192,122015,2,0,L|246:211,1,50,0|0,0:0|2:0,0:0:0:0:
136,244,122126,2,0,L|182:263,1,50,2|0,0:0|2:0,0:0:0:0:
72,296,122237,2,0,L|118:315,1,50,0|0,0:0|2:0,0:0:0:0:
48,200,122349,1,2,0:0:0:0:
60,80,122460,1,2,0:0:0:0:
176,52,122571,6,0,L|280:80,1,100,2|0,0:0|0:0,0:0:0:0:
456,152,122793,1,2,0:0:0:0:
444,272,122904,1,2,0:0:0:0:
328,300,123015,2,0,L|224:272,1,100,2|0,0:0|0:0,0:0:0:0:
32,196,123238,1,2,0:0:0:0:
44,76,123349,1,2,0:0:0:0:
160,48,123460,2,0,L|264:76,1,100,2|0,0:0|0:0,0:0:0:0:
456,152,123682,2,0,L|359:126,1,100,2|0,0:0|0:0,0:0:0:0:
151,186,123905,2,0,L|248:212,1,100,0|0,0:0|0:0,0:0:0:0:
328,300,124127,1,2,0:0:0:0:
200,320,124238,1,0,0:0:0:0:
248,212,124349,6,0,B|251:183|251:183|243:127|271:99,1,100,2|0,0:0|0:0,0:0:0:0:
352,16,124571,1,2,0:0:0:0:
420,112,124682,1,2,0:0:0:0:
317,193,124793,2,0,P|270:208|224:192,1,100,2|0,0:0|0:0,0:0:0:0:
152,108,125016,1,2,0:0:0:0:
268,80,125127,1,2,0:0:0:0:
224,192,125238,2,0,P|164:220|104:212,1,100,2|0,0:0|0:0,0:0:0:0:
136,92,125460,1,2,0:0:0:0:
292,68,125571,1,2,0:0:0:0:
232,208,125682,2,0,P|176:240|124:232,1,100,2|0,0:0|0:0,0:0:0:0:
120,76,125905,1,2,0:0:0:0:
312,60,126016,1,2,0:0:0:0:
240,228,126127,6,0,P|176:256|136:252,1,100,2|0,0:0|0:0,0:0:0:0:
120,76,126349,1,2,0:0:0:0:
312,60,126460,1,2,0:0:0:0:
240,228,126571,2,0,P|176:256|136:252,1,100,2|0,0:0|0:0,0:0:0:0:
136,92,126793,1,2,0:0:0:0:
292,68,126904,1,2,0:0:0:0:
232,208,127015,2,0,P|176:240|124:232,1,100,2|0,0:0|0:0,0:0:0:0:
152,108,127238,1,2,0:0:0:0:
268,80,127349,1,2,0:0:0:0:
224,192,127460,2,0,P|164:220|104:212,1,100,2|0,0:0|0:0,0:0:0:0:
320,168,127682,2,0,P|363:143|412:140,1,100,2|0,0:0|0:0,0:0:0:0:
444,256,127905,6,0,P|400:280|351:283,1,100,2|0,0:0|0:0,0:0:0:0:
232,288,128127,1,10,0:0:0:0:
232,288,128183,1,8,0:0:0:0:
232,288,128238,2,8,L|216:342,1,50,8|0,0:0|0:0,0:0:0:0:
136,232,128349,2,0,B|120:216|120:216|72:200|60:152,1,100,2|0,0:0|0:0,0:0:0:0:
128,18,128572,2,0,P|124:67|152:108,1,100,2|0,0:0|0:0,0:0:0:0:
273,202,128794,5,6,0:0:0:0:
273,202,129016,1,8,0:0:0:0:
273,202,129072,1,8,0:0:0:0:
273,202,129127,2,8,L|319:219,1,50,8|0,0:0|0:0,0:0:0:0:
436,328,129238,2,0,L|390:311,1,50
312,136,129349,2,8,L|358:153,1,50,8|0,0:0|0:0,0:0:0:0:
480,264,129460,2,0,L|434:247,1,50,2|0,0:0|0:0,0:0:0:0:
87,126,129683,6,0,L|272:200,1,200,6|0,0:0|0:0,0:0:0:0:
224,308,130016,1,0,0:0:0:0:
104,320,130127,1,0,0:0:0:0:
20,236,130238,1,0,0:0:0:0:
0,108,130349,2,0,P|23:64|67:41,1,100,2|0,0:0|0:0,0:0:0:0:
184,76,130571,2,0,P|288:56|376:104,1,200,2|0,0:0|0:0,0:0:0:0:
268,164,130905,1,0,0:0:0:0:
376,216,131016,1,0,0:0:0:0:
268,268,131127,1,0,0:0:0:0:
380,313,131238,2,0,P|387:264|376:216,1,100,2|0,0:0|0:0,0:0:0:0:
160,224,131460,6,0,P|152:273|164:321,1,100,2|0,0:0|0:0,0:0:0:0:
368,132,131682,2,0,P|375:82|363:34,1,100,2|0,0:0|0:0,0:0:0:0:
147,42,131904,2,0,P|139:91|151:139,1,100,2|0,0:0|0:0,0:0:0:0:
460,320,132127,2,0,P|467:270|455:222,1,100,2|0,0:0|0:0,0:0:0:0:
80,228,132349,2,0,P|72:277|84:325,1,100,2|0,0:0|0:0,0:0:0:0:
452,136,132571,2,0,P|459:86|447:38,1,100,2|0,0:0|0:0,0:0:0:0:
72,44,132793,2,0,P|64:93|76:141,1,100,2|0,0:0|0:0,0:0:0:0:
252,216,133016,2,0,P|259:166|247:118,1,100,2|0,0:0|0:0,0:0:0:0:
176,276,133238,6,0,P|256:312|344:244,1,200,6|0,0:0|0:0,0:0:0:0:
336,132,133571,1,0,0:0:0:0:
224,84,133682,1,0,0:0:0:0:
132,164,133793,1,0,0:0:0:0:
176,276,133905,2,0,B|196:304|196:304|224:320|240:350,1,100,2|0,0:0|0:0,0:0:0:0:
76,340,134127,2,0,B|56:312|56:312|28:296|24:248,1,100,2|0,0:0|0:0,0:0:0:0:
16,144,134349,1,2,0:0:0:0:
29,125,134405,1,0,0:0:0:0:
46,109,134460,1,0,0:0:0:0:
69,100,134516,1,0,0:0:0:0:
91,93,134572,1,2,0:0:0:0:
115,89,134627,1,0,0:0:0:0:
139,89,134683,2,0,P|172:95|204:93,1,50
286,87,134794,1,2,0:0:0:0:
272,328,135016,6,0,P|372:316|408:224,1,200,6|0,0:0|0:0,0:0:0:0:
292,200,135349,1,0,0:0:0:0:
388,128,135460,2,0,L|496:76,1,100,2|0,0:0|0:0,0:0:0:0:
292,200,135682,2,0,L|201:243,1,100,2|0,0:0|0:0,0:0:0:0:
21,203,135905,2,0,L|112:160,1,100,2|0,0:0|0:0,0:0:0:0:
282,24,136127,2,0,L|192:68,1,100,0|0,0:0|0:0,0:0:0:0:
72,64,136349,1,0,0:0:0:0:
72,64,136571,1,0,0:0:0:0:
72,88,136627,1,0,0:0:0:0:
84,108,136682,1,0,0:0:0:0:
104,124,136738,1,0,0:0:0:0:
128,132,136793,1,0,0:0:0:0:
152,136,136849,1,0,0:0:0:0:
172,148,136905,2,0,P|200:172|208:188,1,50
216,268,137016,5,2,0:0:0:0:
456,284,137238,2,0,B|420:284|420:284|384:300|336:288,1,100,2|0,0:0|0:0,0:0:0:0:
300,184,137460,2,0,B|336:196|376:184|376:184|396:160,1,100,2|0,0:0|0:0,0:0:0:0:
344,56,137682,2,0,B|292:56|292:56|216:92|148:56,1,200,6|0,0:0|0:0,0:0:0:0:
28,64,138016,1,0,0:0:0:0:
0,180,138127,1,0,0:0:0:0:
64,280,138238,1,0,0:0:0:0:
180,312,138349,2,0,P|229:313|277:298,1,100,2|0,0:0|0:0,0:0:0:0:
455,283,138571,6,0,P|411:260|363:248,1,100,2|0,0:0|0:0,0:0:0:0:
168,232,138793,2,0,P|217:233|265:218,1,100,2|0,0:0|0:0,0:0:0:0:
471,203,139015,2,0,P|427:180|379:168,1,100,2|0,0:0|0:0,0:0:0:0:
156,152,139238,2,0,P|205:153|253:138,1,100,2|0,0:0|0:0,0:0:0:0:
487,123,139460,2,0,P|443:100|395:88,1,100,2|0,0:0|0:0,0:0:0:0:
168,232,139682,2,0,P|217:233|265:218,1,100,2|0,0:0|0:0,0:0:0:0:
471,203,139904,2,0,P|427:180|379:168,1,100,2|0,0:0|0:0,0:0:0:0:
180,312,140127,2,0,P|229:313|277:298,1,100,2|0,0:0|0:0,0:0:0:0:
455,283,140349,6,0,P|411:260|363:248,1,100,6|0,0:0|0:0,0:0:0:0:
276,164,140571,1,0,0:0:0:0:
276,164,140627,1,0,0:0:0:0:
276,164,140682,2,0,L|276:104,1,50
168,232,140793,2,0,P|104:228|44:108,1,200
136,44,141127,1,0,0:0:0:0:
256,48,141238,1,0,0:0:0:0:
328,312,141460,2,0,L|384:272,3,50,2|0|0|0,0:0|0:0|0:0|0:0,0:0:0:0:
252,292,141683,2,0,L|284:244,3,50,2|0|0|0,0:0|0:0|0:0|0:0,0:0:0:0:
176,292,141905,2,0,L|188:240,3,50,2|0|0|0,0:0|0:0|0:0|0:0,0:0:0:0:
100,241,142127,2,0,L|100:308,2,66.6666666666667,2|0|0,0:0|0:0|0:0,0:0:0:0:
100,208,142349,1,0,0:0:0:0:
116,180,142423,1,8,0:0:0:0:
140,160,142497,1,8,0:0:0:0:
176,152,142571,1,8,0:0:0:0:
212,164,142627,1,0,0:0:0:0:
232,176,142682,1,0,0:0:0:0:
252,188,142738,1,0,0:0:0:0:
276,200,142793,1,0,0:0:0:0:
296,212,142849,1,0,0:0:0:0:
319,223,142905,2,0,P|344:224|368:215,1,50
480,196,143016,6,2,P|456:132|336:96,1,200,6|2,0:0|0:0,0:0:0:0:
240,96,143349,1,0,0:0:0:0:
148,60,143460,2,0,B|123:71|123:71|88:80|88:80|54:94,1,100,2|0,0:0|0:0,0:0:0:0:
0,204,143682,1,0,0:0:0:0:
56,312,143793,1,0,0:0:0:0:
171,343,143905,2,0,P|221:346|269:334,1,100,2|0,0:0|0:0,0:0:0:0:
416,213,144127,2,0,P|367:210|319:223,1,100
200,228,144349,1,2,0:0:0:0:
100,164,144460,1,0,0:0:0:0:
148,60,144571,1,2,0:0:0:0:
248,124,144682,1,0,0:0:0:0:
100,164,144793,6,0,L|-8:120,1,100,2|0,0:0|0:0,0:0:0:0:
16,248,145016,1,0,0:0:0:0:
96,336,145127,1,0,0:0:0:0:
304,353,145238,2,0,L|212:316,1,100,2|0,0:0|0:0,0:0:0:0:
244,200,145460,2,0,L|336:237,1,100
452,276,145682,1,10,0:0:0:0:
512,172,145793,1,0,0:0:0:0:
460,64,145905,1,10,0:0:0:0:
388,160,146016,1,0,0:0:0:0:
336,52,146127,2,0,L|360:4,1,50,8|0,0:0|0:0,0:0:0:0:
306,139,146238,2,0,L|284:184,1,50,8|0,0:0|0:0,0:0:0:0:
217,104,146349,2,0,L|240:60,1,50,8|0,0:0|0:0,0:0:0:0:
188,192,146460,2,0,L|165:236,1,50,8|0,0:0|0:0,0:0:0:0:
37,320,146571,6,0,L|84:232,1,100,6|0,0:0|0:0,0:0:0:0:
128,120,146793,1,0,0:0:0:0:
8,116,146905,1,0,0:0:0:0:
84,232,147016,2,0,B|124:264|164:256|164:256|176:260,1,100,2|0,0:0|0:0,0:0:0:0:
284,312,147238,1,0,0:0:0:0:
404,308,147349,1,0,0:0:0:0:
340,208,147460,2,0,B|344:184|344:184|380:132|380:132|384:108,1,100,2|0,0:0|0:0,0:0:0:0:
312,24,147682,1,2,0:0:0:0:
217,104,147793,1,0,0:0:0:0:
128,24,147905,1,2,0:0:0:0:
48,112,148016,1,0,0:0:0:0:
140,36,148127,1,2,0:0:0:0:
60,124,148238,1,0,0:0:0:0:
217,104,148349,6,0,L|324:128,1,100,6|0,0:0|0:0,0:0:0:0:
432,112,148571,1,0,0:0:0:0:
356,20,148682,1,0,0:0:0:0:
340,208,148793,2,0,L|424:280,1,100,2|0,0:0|0:0,0:0:0:0:
332,360,149016,1,0,0:0:0:0:
228,300,149127,1,0,0:0:0:0:
116,344,149238,2,0,B|105:329|105:329|61:313|37:285,1,100,2|0,0:0|0:0,0:0:0:0:
40,164,149460,1,0,0:0:0:0:
160,172,149571,1,0,0:0:0:0:
172,52,149682,2,0,L|60:40,1,100,2|0,0:0|0:0,0:0:0:0:
160,172,149905,1,0,0:0:0:0:
272,124,150016,1,0,0:0:0:0:
352,32,150127,6,0,L|464:80,1,100,2|0,0:0|0:0,0:0:0:0:
472,188,150349,1,0,0:0:0:0:
456,308,150460,1,0,0:0:0:0:
364,232,150571,2,0,L|256:308,1,100,2|0,0:0|0:0,0:0:0:0:
176,344,150793,1,0,0:0:0:0:
60,308,150905,1,0,0:0:0:0:
20,196,151016,2,0,P|36:160|96:128,1,100,2|0,0:0|0:0,0:0:0:0:
148,232,151238,1,2,0:0:0:0:
252,172,151349,1,0,0:0:0:0:
240,52,151460,1,2,0:0:0:0:
124,16,151571,1,0,0:0:0:0:
24,80,151682,1,2,0:0:0:0:
136,124,151793,1,0,0:0:0:0:
240,52,151905,6,0,P|284:31|332:40,1,100,2|0,0:0|0:0,0:0:0:0:
448,76,152127,1,0,0:0:0:0:
484,192,152238,1,0,0:0:0:0:
428,296,152349,2,0,L|316:336,1,100,2|0,0:0|0:0,0:0:0:0:
149,285,152571,2,0,L|244:252,1,100,2|0,0:0|0:0,0:0:0:0:
344,184,152793,1,10,0:0:0:0:
268,92,152905,1,0,0:0:0:0:
156,52,153016,1,10,0:0:0:0:
36,68,153127,1,0,0:0:0:0:
0,184,153238,2,0,L|44:160,1,50,8|0,0:0|0:0,0:0:0:0:
168,148,153349,2,0,L|124:172,1,50,8|0,0:0|0:0,0:0:0:0:
8,276,153460,2,0,L|52:252,1,50,8|0,0:0|0:0,0:0:0:0:
176,240,153571,2,0,L|132:264,1,50,8|0,0:0|0:0,0:0:0:0:
91,343,153682,6,0,P|140:346|187:331,1,100,6|0,0:0|0:0,0:0:0:0:
300,284,153905,1,0,0:0:0:0:
416,316,154016,1,0,0:0:0:0:
380,200,154127,2,0,B|392:176|392:176|424:136|424:136|432:112,1,100,2|0,0:0|0:0,0:0:0:0:
336,44,154349,1,0,0:0:0:0:
284,152,154460,1,0,0:0:0:0:
200,68,154571,2,0,B|173:67|173:67|123:55|123:55|98:58,1,100,2|0,0:0|0:0,0:0:0:0:
28,152,154793,1,2,0:0:0:0:
88,256,154905,1,0,0:0:0:0:
160,160,155016,1,2,0:0:0:0:
224,260,155127,1,0,0:0:0:0:
284,152,155238,1,2,0:0:0:0:
348,256,155349,1,0,0:0:0:0:
400,148,155460,6,0,L|456:248,1,100
392,340,155682,2,0,L|452:368,3,50
333,303,155905,2,0,L|348:256,3,50
269,281,156127,2,0,L|209:253,3,50
228,344,156349,5,0,0:0:0:0:
204,344,156405,1,0,0:0:0:0:
180,340,156460,1,0,0:0:0:0:
160,328,156516,1,0,0:0:0:0:
144,308,156571,1,0,0:0:0:0:
140,284,156627,1,0,0:0:0:0:
140,260,156682,1,0,0:0:0:0:
148,236,156738,1,0,0:0:0:0:
160,212,156793,1,0,0:0:0:0:
164,188,156849,1,0,0:0:0:0:
164,164,156905,1,0,0:0:0:0:
152,140,156960,1,0,0:0:0:0:
132,124,157016,1,0,0:0:0:0:
108,116,157071,1,0,0:0:0:0:
84,124,157127,2,0,P|68:148|72:176,1,50
216,272,157238,6,2,P|276:252|320:132,1,200,6|2,0:0|0:0,0:0:0:0:
272,20,157571,1,0,0:0:0:0:
156,44,157682,2,0,P|199:67|228:107,1,100,2|0,0:0|0:0,0:0:0:0:
76,216,157905,2,0,P|32:192|3:152,1,100,2|0,0:0|0:0,0:0:0:0:
244,184,158127,2,0,P|300:204|348:192,1,100,2|0,0:0|0:0,0:0:0:0:
510,120,158349,2,0,P|464:101|416:108,1,100,2|0,0:0|0:0,0:0:0:0:
492,240,158571,1,2,0:0:0:0:
468,300,158645,1,0,0:0:0:0:
408,332,158719,1,0,0:0:0:0:
340,340,158793,1,2,0:0:0:0:
276,316,158868,1,0,0:0:0:0:
232,268,158942,1,0,0:0:0:0:
243,184,159016,6,0,P|271:142|274:93,1,100,2|0,0:0|0:0,0:0:0:0:
152,208,159238,2,0,P|124:249|121:298,1,100,2|0,0:0|0:0,0:0:0:0:
192,128,159460,1,2,0:0:0:0:
200,340,159571,1,0,0:0:0:0:
288,113,159682,2,0,P|316:154|320:204,1,100,2|0,0:0|0:0,0:0:0:0:
232,56,159905,5,2,0:0:0:0:
292,272,160016,1,0,0:0:0:0:
360,56,160127,2,0,L|456:124,1,100,2|0,0:0|0:0,0:0:0:0:
485,265,160349,2,0,L|404:208,1,100
292,272,160571,2,0,L|373:329,1,100
192,240,160793,5,2,0:0:0:0:
72,264,160905,1,0,0:0:0:0:
268,176,161016,2,0,L|344:92,1,100,2|0,0:0|0:0,0:0:0:0:
116,88,161238,1,2,0:0:0:0:
232,56,161349,1,0,0:0:0:0:
96,176,161460,2,0,L|0:140,1,100,2|0,0:0|0:0,0:0:0:0:
144,336,161682,6,0,B|184:356|232:332|232:332|240:331,1,100,2|0,0:0|0:0,0:0:0:0:
456,276,161905,1,2,0:0:0:0:
364,196,162016,1,0,0:0:0:0:
464,292,162127,1,2,0:0:0:0:
356,180,162238,1,0,0:0:0:0:
448,260,162349,1,2,0:0:0:0:
372,212,162460,1,0,0:0:0:0:
372,332,162571,6,0,P|324:316|292:276,1,100,2|0,0:0|0:0,0:0:0:0:
277,126,162793,2,0,P|324:142|356:180,1,100,2|0,0:0|0:0,0:0:0:0:
184,168,163016,1,2,0:0:0:0:
72,120,163127,1,0,0:0:0:0:
160,260,163238,1,2,0:0:0:0:
268,308,163349,1,0,0:0:0:0:
72,120,163460,6,0,P|112:80|164:76,1,100,2|0,0:0|0:0,0:0:0:0:
100,304,163682,1,2,0:0:0:0:
28,208,163793,1,0,0:0:0:0:
268,308,163905,2,0,P|247:352|204:375,1,100,2|0,0:0|0:0,0:0:0:0:
308,212,164127,1,8,0:0:0:0:
352,188,164182,1,8,0:0:0:0:
340,140,164238,1,8,0:0:0:0:
384,112,164293,1,0,0:0:0:0:
376,64,164349,6,0,P|432:24|496:116,1,200,4|0,0:0|0:0,0:0:0:0:
432,208,164682,1,0,0:0:0:0:
504,304,164793,2,0,B|480:316|480:316|432:316|432:316|408:327,1,100
201,306,165016,2,0,B|224:296|224:296|272:296|272:296|296:284,1,100
96,260,165238,2,0,L|24:288,2,66.6666666666667
64,180,165460,2,0,L|-7:148,2,66.6666666666667
92,96,165682,2,0,L|64:24,2,66.6666666666667
172,64,165905,2,0,L|203:-7,2,66.6666666666667
164,152,166127,5,0,0:0:0:0:
160,184,166201,1,0,0:0:0:0:
180,220,166275,1,0,0:0:0:0:
216,236,166350,1,0,0:0:0:0:
264,228,166424,1,0,0:0:0:0:
300,200,166498,1,0,0:0:0:0:
336,160,166572,1,0,0:0:0:0:
388,128,166646,1,0,0:0:0:0:
448,132,166719,1,0,0:0:0:0:
492,172,166794,1,0,0:0:0:0:
508,224,166868,1,0,0:0:0:0:
496,276,166942,1,0,0:0:0:0:
452,304,167016,5,0,0:0:0:0:
400,308,167090,1,0,0:0:0:0:
348,296,167164,1,0,0:0:0:0:
296,296,167238,1,0,0:0:0:0:
248,320,167312,1,0,0:0:0:0:
204,348,167386,1,0,0:0:0:0:
144,364,167460,1,0,0:0:0:0:
164,308,167534,1,0,0:0:0:0:
164,248,167608,1,0,0:0:0:0:
120,208,167682,1,0,0:0:0:0:
60,204,167756,1,0,0:0:0:0:
24,252,167831,1,0,0:0:0:0:
48,304,167905,6,0,P|125:249|106:156,1,200
40,56,168238,1,0,0:0:0:0:
156,80,168349,2,0,B|188:76|188:76|220:96|252:92,1,100
444,115,168571,2,0,P|405:145|356:152,1,100
219,290,168793,6,0,L|316:264,1,100
500,317,169016,2,0,L|404:344,1,100
219,290,169238,2,0,L|192:193,1,100
269,35,169460,2,0,L|296:132,1,100
132,273,169682,5,0,0:0:0:0:
136,121,169793,1,0,0:0:0:0:
180,145,169849,1,0,0:0:0:0:
192,193,169905,1,0,0:0:0:0:
72,200,170016,1,0,0:0:0:0:
40,84,170127,1,0,0:0:0:0:
140,20,170238,1,0,0:0:0:0:
244,76,170349,1,0,0:0:0:0:
256,196,170460,1,0,0:0:0:0:
136,352,170571,6,0,P|99:343|68:316,2,75.0000028610231,8|0|0,0:0|0:0|0:0,0:0:0:0:
212,348,170905,1,0,0:0:0:0:
284,336,171016,2,0,L|360:280,1,75.0000028610231,8|0,0:0|0:0,0:0:0:0:
420,300,171238,1,0,0:0:0:0:
452,232,171349,1,0,0:0:0:0:
420,164,171460,6,0,P|413:127|424:91,1,75.0000028610231,8|0,0:0|0:0,0:0:0:0:
360,52,171682,1,0,0:0:0:0:
328,120,171793,1,0,0:0:0:0:
260,152,171905,2,0,P|204:156|184:148,1,75.0000028610231,8|0,0:0|0:0,0:0:0:0:
224,84,172127,1,0,0:0:0:0:
160,48,172238,1,0,0:0:0:0:
124,112,172349,6,0,L|62:155,1,75.0000028610231,8|0,0:0|0:0,0:0:0:0:
20,216,172571,1,0,0:0:0:0:
72,272,172682,1,0,0:0:0:0:
124,216,172793,2,0,P|144:232|152:292,1,75.0000028610231,8|0,0:0|0:0,0:0:0:0:
200,340,173016,1,0,0:0:0:0:
276,340,173127,1,0,0:0:0:0:
244,272,173238,6,0,L|280:196,1,75.0000028610231,8|0,0:0|0:0,0:0:0:0:
352,212,173460,1,0,0:0:0:0:
328,140,173571,1,0,0:0:0:0:
256,128,173682,2,0,P|272:88|320:68,1,75.0000028610231,8|0,0:0|0:0,0:0:0:0:
372,72,173905,1,0,0:0:0:0:
408,140,174016,1,0,0:0:0:0:
484,148,174127,6,0,B|488:164|488:164|488:208|488:208|493:221,1,75.0000028610231,8|0,0:0|0:0,0:0:0:0:
508,296,174349,1,0,0:0:0:0:
444,332,174460,1,0,0:0:0:0:
380,296,174571,2,0,L|296:272,1,75.0000028610231,8|0,0:0|0:0,0:0:0:0:
236,252,174793,1,0,0:0:0:0:
212,324,174905,1,0,0:0:0:0:
160,271,175016,6,0,P|154:235|130:206,1,75.0000028610231,8|0,0:0|0:0,0:0:0:0:
84,264,175238,1,0,0:0:0:0:
56,196,175349,1,0,0:0:0:0:
68,120,175460,2,0,P|100:102|137:103,1,75.0000028610231
265,131,175682,2,0,P|233:149|196:148,1,75.0000028610231
308,64,175905,5,0,0:0:0:0:
380,80,176016,1,0,0:0:0:0:
428,136,176127,1,0,0:0:0:0:
440,208,176238,1,0,0:0:0:0:
380,252,176349,2,0,L|304:288,1,75.0000028610231
172,356,176571,2,0,L|240:324,1,75.0000028610231
244,248,176793,5,0,0:0:0:0:
192,196,176905,1,0,0:0:0:0:
120,176,177016,1,0,0:0:0:0:
44,184,177127,1,0,0:0:0:0:
104,72,177238,1,0,0:0:0:0:
140,104,177312,1,0,0:0:0:0:
188,116,177386,1,0,0:0:0:0:
236,112,177460,1,0,0:0:0:0:
284,104,177534,1,0,0:0:0:0:
332,92,177608,1,0,0:0:0:0:
376,68,177682,6,0,P|411:49|443:37,1,75.0000028610231
452,120,177905,1,0,0:0:0:0:
400,184,178016,1,0,0:0:0:0:
252,240,178127,2,0,L|320:208,1,75.0000028610231
240,324,178349,1,0,0:0:0:0:
160,312,178460,1,0,0:0:0:0:
68,208,178571,6,0,L|102:261,2,50.0000019073487,8|0|0,0:0|0:0|0:0,0:0:0:0:
68,152,178793,1,0,0:0:0:0:
84,100,178868,1,0,0:0:0:0:
124,60,178942,1,0,0:0:0:0:
176,48,179016,2,0,P|193:53|209:64,2,37.5000014305115,8|0|0,0:0|0:0|0:0,0:0:0:0:
160,128,179238,1,0,0:0:0:0:
180,180,179312,1,0,0:0:0:0:
232,196,179386,1,0,0:0:0:0:
284,184,179460,6,0,L|352:153,1,75.0000028610231,8|0,0:0|0:0,0:0:0:0:
472,128,179682,1,0,0:0:0:0:
400,88,179793,1,0,0:0:0:0:
420,192,179905,2,0,L|468:252,1,75.0000028610231,8|0,0:0|0:0,0:0:0:0:
428,324,180127,1,0,0:0:0:0:
348,340,180238,1,0,0:0:0:0:
276,304,180349,5,8,0:0:0:0:
228,280,180423,1,0,0:0:0:0:
172,280,180497,1,0,0:0:0:0:
123,304,180571,2,0,P|104:319|90:339,2,50.0000019073487
120,224,180793,1,8,0:0:0:0:
140,172,180867,1,0,0:0:0:0:
128,120,180941,1,0,0:0:0:0:
88,84,181015,2,0,P|64:75|39:74,2,50.0000019073487
176,52,181238,6,0,L|256:36,1,75.0000028610231
332,36,181460,1,0,0:0:0:0:
304,112,181571,1,0,0:0:0:0:
304,196,181682,2,0,B|312:212|312:212|320:248|320:248|329:265,1,75.0000028610231,8|0,0:0|0:0,0:0:0:0:
400,312,181905,1,0,0:0:0:0:
440,240,182016,1,0,0:0:0:0:
404,168,182127,5,8,0:0:0:0:
392,116,182201,1,0,0:0:0:0:
408,64,182275,1,0,0:0:0:0:
456,36,182349,2,0,P|480:34|503:44,2,50.0000019073487
304,112,182571,1,8,0:0:0:0:
252,124,182645,1,0,0:0:0:0:
200,108,182719,1,0,0:0:0:0:
172,60,182793,2,0,P|170:35|180:12,2,50.0000019073487
116,128,183016,5,0,0:0:0:0:
88,160,183071,1,0,0:0:0:0:
84,200,183127,1,0,0:0:0:0:
100,240,183182,1,0,0:0:0:0:
136,264,183238,2,0,P|154:268|172:265,3,37.5000014305115
248,240,183460,1,0,0:0:0:0:
280,212,183515,1,0,0:0:0:0:
320,208,183571,1,0,0:0:0:0:
360,224,183626,1,0,0:0:0:0:
384,260,183682,2,0,P|388:278|385:296,3,37.5000014305115
288,340,183905,6,0,L|180:348,1,100,4|0,0:0|0:0,0:0:0:0:
0,247,184127,2,0,L|100:240,1,100
252,68,184349,2,0,L|176:148,1,100
340,136,184571,2,0,L|444:132,1,100
461,323,184793,6,0,L|384:260,1,100
292,184,185016,1,0,0:0:0:0:
312,64,185127,1,0,0:0:0:0:
424,24,185238,1,0,0:0:0:0:
400,140,185349,1,0,0:0:0:0:
280,120,185460,1,0,0:0:0:0:
368,200,185571,1,0,0:0:0:0:
184,91,185682,6,0,L|280:120,1,100,4|0,0:0|0:0,0:0:0:0:
192,200,185905,1,0,0:0:0:0:
72,188,186016,1,0,0:0:0:0:
256,300,186127,2,0,L|356:320,1,100
148,332,186349,1,0,0:0:0:0:
36,312,186460,1,0,0:0:0:0:
72,188,186571,5,0,0:0:0:0:
40,68,186682,1,0,0:0:0:0:
160,96,186793,1,0,0:0:0:0:
8,144,186905,1,0,0:0:0:0:
152,188,187016,1,0,0:0:0:0:
8,240,187127,1,0,0:0:0:0:
176,260,187238,1,0,0:0:0:0:
36,312,187349,1,0,0:0:0:0:
323,192,187460,6,0,L|224:200,1,100,4|0,0:0|0:0,0:0:0:0:
276,80,187682,1,0,0:0:0:0:
376,112,187793,1,0,0:0:0:0:
372,364,187905,2,0,P|346:321|340:272,1,100
100,316,250793,5,2,0:0:0:0:
196,244,250904,1,2,0:0:0:0:
188,124,251015,2,0,P|168:88|120:56,1,100,2|0,0:0|0:0,0:0:0:0:
100,172,251237,5,2,0:0:0:0:
196,244,251348,1,2,0:0:0:0:
296,176,251459,2,0,P|312:128|292:68,1,100,2|0,0:0|0:0,0:0:0:0:
188,124,251681,5,2,0:0:0:0:
196,244,251793,1,2,0:0:0:0:
311,279,251904,2,0,P|361:277|399:246,1,100,2|0,0:0|0:0,0:0:0:0:
444,136,252126,2,0,P|394:138|356:169,1,100,2|0,0:0|0:0,0:0:0:0:
311,279,252348,2,0,P|361:277|399:246,1,100,0|0,0:0|0:0,0:0:0:0:
444,136,252570,1,2,0:0:0:0:
368,52,252681,1,2,0:0:0:0:
257,91,252793,6,0,L|160:112,1,100,2|0,0:0|0:0,0:0:0:0:
40,140,253015,1,2,0:0:0:0:
72,24,253126,1,2,0:0:0:0:
160,112,253237,2,0,B|188:148|184:180|184:180|184:212,1,100,2|0,0:0|0:0,0:0:0:0:
188,316,253459,1,2,0:0:0:0:
308,316,253570,1,2,0:0:0:0:
428,320,253681,2,0,L|428:208,1,100,2|0,0:0|0:0,0:0:0:0:
400,108,253904,1,2,0:0:0:0:
280,108,254015,1,2,0:0:0:0:
160,112,254126,2,0,L|88:196,1,100,2|0,0:0|0:0,0:0:0:0:
40,300,254348,5,2,0:0:0:0:
160,300,254459,1,2,0:0:0:0:
260,236,254570,2,0,P|288:180|288:128,1,100,2|0,0:0|0:0,0:0:0:0:
44,296,254793,5,2,0:0:0:0:
164,296,254904,1,2,0:0:0:0:
264,232,255015,2,0,P|292:176|292:124,1,100,2|0,0:0|0:0,0:0:0:0:
48,292,255237,5,2,0:0:0:0:
168,292,255348,1,2,0:0:0:0:
268,228,255459,2,0,P|296:172|296:120,1,100,2|0,0:0|0:0,0:0:0:0:
52,288,255681,5,2,0:0:0:0:
172,288,255793,1,2,0:0:0:0:
272,224,255904,2,0,P|300:168|300:116,1,100,2|0,0:0|0:0,0:0:0:0:
208,56,256126,1,2,0:0:0:0:
72,88,256237,1,0,0:0:0:0:
88,208,256348,6,0,P|140:200|204:156,1,100,2|0,0:0|0:0,0:0:0:0:
284,116,256570,1,10,0:0:0:0:
284,116,256626,1,8,0:0:0:0:
284,116,256681,2,0,L|304:52,1,50,8|0,0:0|0:0,0:0:0:0:
380,64,256793,2,0,L|348:164,1,100,2|0,0:0|0:0,0:0:0:0:
404,284,257015,2,0,L|434:188,1,100,2|0,0:0|0:0,0:0:0:0:
302,319,257237,6,0,L|272:224,1,100,2|0,0:0|0:0,0:0:0:0:
284,116,257459,1,8,0:0:0:0:
284,116,257515,1,8,0:0:0:0:
284,116,257570,2,0,L|364:44,2,100,10|0|0,0:0|0:0|0:0,0:0:0:0:
80,200,257904,2,0,L|192:184,1,100,2|0,0:0|0:0,0:0:0:0:
400,160,258126,5,6,0:0:0:0:
