osu file format v13

[General]
AudioFilename: Kingborn.mp3
AudioLeadIn: 0
PreviewTime: 76615
Countdown: 1
SampleSet: None
StackLeniency: 0.7
Mode: 0
LetterboxInBreaks: 1
WidescreenStoryboard: 0

[Editor]
Bookmarks: 76615,93542,99175,121645,132292,164118,174000,192353,195177,205071,217424,226235,248824,271189,282012,303189,313071,334247,355424
DistanceSpacing: 0.9
BeatDivisor: 8
GridSize: 16
TimelineZoom: 2.7

[Metadata]
Title:Kingborn
TitleUnicode:Kingborn
Artist:Fleshgod Apocalypse
ArtistUnicode:Fleshgod Apocalypse
Creator:lovu
Version:Prudence
Source:
Tags:
BeatmapID:569119
BeatmapSetID:247174

[Difficulty]
HPDrainRate:4
CircleSize:4
OverallDifficulty:8
ApproachRate:10
SliderMultiplier:1.8
SliderTickRate:1

[Events]
//Background and Video events
0,0,"ss+(2014-09-29+at+10.16.20).jpg",0,0
//Break Periods
2,121859,126974
2,130330,131915
//Storyboard Layer 0 (Background)
//Storyboard Layer 1 (Fail)
//Storyboard Layer 2 (Pass)
//Storyboard Layer 3 (Foreground)
//Storyboard Sound Samples

[TimingPoints]
76615,705.882352941176,4,2,0,70,1,0
76615,-133.333333333333,4,2,0,70,0,0
77629,-133.333333333333,4,2,0,5,0,0
77717,-133.333333333333,4,2,0,70,0,0
79041,-133.333333333333,4,2,0,5,0,0
79129,-133.333333333333,4,2,0,70,0,0
81865,-133.333333333333,4,2,0,5,0,0
81953,-133.333333333333,4,2,0,70,0,0
83276,-133.333333333333,4,2,0,5,0,0
83365,-133.333333333333,4,2,0,70,0,0
84688,-133.333333333333,4,2,0,5,0,0
84776,-133.333333333333,4,2,0,70,0,0
86100,-133.333333333333,4,2,0,5,0,0
86188,-133.333333333333,4,1,0,70,0,0
87909,-133.333333333333,4,2,0,70,0,0
88923,-133.333333333333,4,2,0,5,0,0
89012,-133.333333333333,4,2,0,70,0,0
90335,-133.333333333333,4,2,0,5,0,0
90423,-133.333333333333,4,2,0,70,0,0
91747,-133.333333333333,4,2,0,5,0,0
91835,-133.333333333333,4,2,0,70,0,0
93159,-133.333333333333,4,2,0,5,0,0
93247,-133.333333333333,4,2,0,70,0,0
93542,235.294117647059,4,1,0,70,1,0
93542,-200,4,1,0,70,0,0
99175,-100,4,1,0,70,0,0
132353,-83.3333333333333,4,1,0,70,0,0
189659,-100,4,1,0,70,0,0
191777,-83.3333333333333,4,1,0,70,0,0
205071,-133.333333333333,4,1,0,70,0,0
214247,-100,4,1,0,70,0,0

[HitObjects]
41,312,76615,6,0,B|98:336|98:336|175:289|258:323,1,202.500007724762,0|0,0:0|0:0,0:0:0:0:
495,334,78026,2,0,B|480:272|480:272|448:256|400:224|384:176|386:143,1,202.500007724762,0|0,0:0|0:0,0:0:0:0:
304,32,79438,6,0,B|256:85|201:104|135:102|58:62|58:62|27:177|126:245,1,472.500018024445,0|0,0:0|0:0,0:0:0:0:
272,322,82262,2,0,B|272:288|272:288|320:240|320:240|368:288|368:288|368:336|368:336,1,202.500007724762,0|0,0:0|0:0,0:0:0:0:
491,139,83673,2,0,B|491:173|491:173|443:221|443:221|395:173|395:173|395:125|395:125,1,202.500007724762,0|0,0:0|0:0,0:0:0:0:
335,46,85085,2,0,B|303:73|271:78|271:78|207:46|207:46|173:50|142:68,1,202.500007724762,0|0,0:0|0:0,0:0:0:0:
138,72,86203,1,0,0:0:0:0:
124,80,86262,1,0,0:0:0:0:
110,87,86320,1,0,0:0:0:0:
95,92,86379,1,0,0:0:0:0:
79,94,86438,1,0,0:0:0:0:
63,95,86497,1,0,0:0:0:0:
5,153,86732,5,0,0:0:0:0:
18,241,86968,1,0,0:0:0:0:
47,258,87085,1,0,0:0:0:0:
79,264,87203,1,0,0:0:0:0:
146,204,87438,1,0,0:0:0:0:
227,242,87673,1,0,0:0:0:0:
256,226,87791,1,0,0:0:0:0:
277,201,87909,2,0,P|356:138|446:170,1,202.500007724762,0|0,0:0|0:0,0:0:0:0:
484,286,89320,2,0,B|430:294|386:265|386:265|340:310|285:311,1,202.500007724762,0|0,0:0|0:0,0:0:0:0:
127,302,90732,2,0,B|33:264|155:171|42:133,1,202.500007724762,0|0,0:0|0:0,0:0:0:0:
217,309,92144,2,0,B|310:271|188:178|301:140,1,202.500007724762,0|0,0:0|0:0,0:0:0:0:
432,251,93556,6,0,P|448:271|462:303,2,45,0|0|0,0:0|0:0|0:0,0:0:0:0:
390,233,93894,1,0,0:0:0:0:
350,213,94012,1,0,0:0:0:0:
317,182,94130,1,0,0:0:0:0:
293,144,94247,1,0,0:0:0:0:
280,101,94365,1,0,0:0:0:0:
279,55,94483,2,0,L|239:34,1,45,0|0,0:0|0:0,0:0:0:0:
184,85,94718,2,0,L|144:64,1,45,0|0,0:0|0:0,0:0:0:0:
89,115,94953,2,0,L|49:94,1,45,0|0,0:0|0:0,0:0:0:0:
24,186,95189,5,0,0:0:0:0:
38,202,95247,1,0,0:0:0:0:
57,212,95306,2,0,L|92:203,5,22.5,0|0|0|0|0|0,0:0|0:0|0:0|0:0|0:0|0:0,0:0:0:0:
108,293,95659,2,0,L|136:260,5,22.5,0|0|0|0|0|0,0:0|0:0|0:0|0:0|0:0|0:0,0:0:0:0:
197,334,96012,2,0,L|199:294,5,22.5,0|0|0|0|0|0,0:0|0:0|0:0|0:0|0:0|0:0,0:0:0:0:
294,322,96365,2,0,L|272:287,1,22.5,0|0,0:0|0:0,0:0:0:0:
470,112,97189,5,0,0:0:0:0:
427,100,97306,1,0,0:0:0:0:
382,106,97424,1,0,0:0:0:0:
337,102,97542,1,0,0:0:0:0:
295,87,97659,1,0,0:0:0:0:
258,62,97777,1,0,0:0:0:0:
31,244,99189,6,0,P|68:235|123:180,1,90,0|0,0:0|0:0,0:0:0:0:
138,120,99424,1,0,0:0:0:0:
200,55,99542,1,0,0:0:0:0:
287,35,99659,1,0,0:0:0:0:
376,40,99777,1,0,0:0:0:0:
453,85,99894,6,0,P|509:100|564:98,2,90,0|0|0,0:0|0:0|0:0,0:0:0:0:
434,173,100247,2,0,P|454:212|484:246,2,90,0|0|0,0:0|0:0|0:0,0:0:0:0:
351,219,100600,2,0,P|335:275|338:330,2,90,0|0|0,0:0|0:0|0:0,0:0:0:0:
266,185,100953,2,0,P|226:205|193:235,2,90,0|0|0,0:0|0:0|0:0,0:0:0:0:
183,126,101306,5,0,0:0:0:0:
99,160,101424,1,0,0:0:0:0:
60,241,101542,1,0,0:0:0:0:
89,325,101659,2,0,P|137:321|198:341,1,90,0|0,0:0|0:0,0:0:0:0:
408,310,101894,1,0,0:0:0:0:
339,369,102012,2,0,P|277:367|225:351,1,90,0|0,0:0|0:0,0:0:0:0:
175,309,102247,1,0,0:0:0:0:
148,222,102365,1,0,0:0:0:0:
60,240,102483,1,0,0:0:0:0:
33,153,102600,1,0,0:0:0:0:
10,66,102718,6,0,P|75:53|122:65,1,90,0|0,0:0|0:0,0:0:0:0:
117,155,102953,2,0,P|153:99|195:74,1,90,0|0,0:0|0:0,0:0:0:0:
248,185,103189,2,0,P|235:119|247:72,1,90,0|0,0:0|0:0,0:0:0:0:
374,131,103424,2,0,P|318:93|293:51,1,90,0|0,0:0|0:0,0:0:0:0:
449,27,103659,2,0,P|383:38|336:27,1,90,0|0,0:0|0:0,0:0:0:0:
475,143,103894,6,0,P|409:125|362:132,1,90,0|0,0:0|0:0,0:0:0:0:
232,279,104130,2,0,P|274:294|319:295,1,90,0|0,0:0|0:0,0:0:0:0:
404,220,104365,2,0,P|361:203|316:202,1,90,0|0,0:0|0:0,0:0:0:0:
149,355,104600,2,0,P|191:371|236:372,1,90,0|0,0:0|0:0,0:0:0:0:
57,319,104836,5,0,0:0:0:0:
24,235,104953,1,0,0:0:0:0:
27,144,105071,1,0,0:0:0:0:
49,53,105189,2,0,P|99:29|153:28,1,90,0|0,0:0|0:0,0:0:0:0:
196,90,105424,1,0,0:0:0:0:
262,28,105542,2,0,P|306:34|345:55,1,90,0|0,0:0|0:0,0:0:0:0:
311,137,105777,2,0,P|289:176|283:220,1,90,0|0,0:0|0:0,0:0:0:0:
399,120,106012,2,0,P|420:80|426:36,1,90,0|0,0:0|0:0,0:0:0:0:
501,69,106247,5,0,0:0:0:0:
473,154,106365,1,0,0:0:0:0:
425,230,106483,1,0,0:0:0:0:
352,282,106600,1,0,0:0:0:0:
304,358,106718,1,0,0:0:0:0:
213,357,106836,5,0,0:0:0:0:
165,281,106953,1,0,0:0:0:0:
92,229,107071,1,0,0:0:0:0:
44,153,107189,1,0,0:0:0:0:
16,68,107306,1,0,0:0:0:0:
105,77,107424,1,0,0:0:0:0:
190,44,107542,1,0,0:0:0:0:
176,137,107659,6,0,P|229:121|255:94,2,90,0|0|0,0:0|0:0|0:0,0:0:0:0:
301,250,108012,2,0,P|313:196|303:160,2,90,0|0|0,0:0|0:0|0:0,0:0:0:0:
468,231,108365,2,0,P|427:193|391:184,2,90,0|0|0,0:0|0:0|0:0,0:0:0:0:
449,332,108718,2,0,P|362:384|264:363,1,180,0|0,0:0|0:0,0:0:0:0:
75,324,109071,5,0,0:0:0:0:
68,302,109130,1,0,0:0:0:0:
64,280,109189,1,0,0:0:0:0:
65,257,109247,1,0,0:0:0:0:
69,235,109306,5,0,0:0:0:0:
76,214,109365,1,0,0:0:0:0:
87,195,109424,1,0,0:0:0:0:
101,177,109483,1,0,0:0:0:0:
118,162,109542,5,0,0:0:0:0:
138,172,109600,1,0,0:0:0:0:
159,178,109659,1,0,0:0:0:0:
181,182,109718,1,0,0:0:0:0:
204,182,109777,5,0,0:0:0:0:
226,179,109836,1,0,0:0:0:0:
247,172,109894,1,0,0:0:0:0:
267,162,109953,1,0,0:0:0:0:
286,149,110012,5,0,0:0:0:0:
302,133,110071,1,0,0:0:0:0:
315,115,110130,1,0,0:0:0:0:
323,94,110189,1,0,0:0:0:0:
327,72,110247,2,0,L|320:-6,1,45,0|0,0:0|0:0,0:0:0:0:
475,30,110483,6,0,L|484:159,1,90,0|0,0:0|0:0,0:0:0:0:
474,209,110718,1,0,0:0:0:0:
421,281,110836,1,0,0:0:0:0:
343,324,110953,1,0,0:0:0:0:
254,330,111071,1,0,0:0:0:0:
171,297,111189,2,0,P|116:263|61:254,1,90,0|0,0:0|0:0,0:0:0:0:
5,174,111424,5,0,0:0:0:0:
93,188,111542,1,0,0:0:0:0:
180,164,111659,1,0,0:0:0:0:
246,104,111777,1,0,0:0:0:0:
275,18,111894,2,0,P|316:2|361:0,1,90,0|0,0:0|0:0,0:0:0:0:
459,136,112130,2,0,P|417:151|372:154,1,90,0|0,0:0|0:0,0:0:0:0:
324,91,112365,2,0,P|365:75|410:72,1,90,0|0,0:0|0:0,0:0:0:0:
508,209,112600,2,0,P|466:224|421:227,1,90,0|0,0:0|0:0,0:0:0:0:
449,361,112836,2,0,P|414:332|389:295,1,90,0|0,0:0|0:0,0:0:0:0:
280,384,113071,2,0,P|287:339|307:299,1,90,0|0,0:0|0:0,0:0:0:0:
190,383,113306,5,0,0:0:0:0:
102,361,113424,1,0,0:0:0:0:
36,300,113542,1,0,0:0:0:0:
12,213,113659,1,0,0:0:0:0:
39,128,113777,1,0,0:0:0:0:
107,71,113894,1,0,0:0:0:0:
195,51,114012,5,0,0:0:0:0:
205,140,114130,1,0,0:0:0:0:
262,209,114247,1,0,0:0:0:0:
347,236,114365,1,0,0:0:0:0:
434,211,114483,1,0,0:0:0:0:
495,145,114600,1,0,0:0:0:0:
504,55,114718,2,0,P|475:21|418:2,1,90,0|0,0:0|0:0,0:0:0:0:
401,87,114953,2,0,P|357:75|300:92,1,90,0|0,0:0|0:0,0:0:0:0:
336,161,115189,2,0,P|294:176|256:223,1,90,0|0,0:0|0:0,0:0:0:0:
61,188,115424,2,0,P|90:154|147:135,1,90,0|0,0:0|0:0,0:0:0:0:
164,220,115659,2,0,P|208:208|265:225,1,90,0|0,0:0|0:0,0:0:0:0:
229,294,115894,2,0,P|271:309|309:356,1,90,0|0,0:0|0:0,0:0:0:0:
370,372,116130,6,0,P|400:339|442:323,1,90,0|0,0:0|0:0,0:0:0:0:
485,242,116365,1,0,0:0:0:0:
395,249,116483,1,0,0:0:0:0:
314,210,116600,1,0,0:0:0:0:
262,135,116718,1,0,0:0:0:0:
239,47,116836,2,0,P|160:46|116:64,1,90,0|0,0:0|0:0,0:0:0:0:
0,94,117071,2,0,P|79:93|123:111,1,90,0|0,0:0|0:0,0:0:0:0:
50,194,117306,6,0,P|78:229|132:257,1,90,0|0,0:0|0:0,0:0:0:0:
209,228,117542,2,0,P|180:192|126:164,1,90,0|0,0:0|0:0,0:0:0:0:
43,290,117777,2,0,P|79:316|138:329,1,90,0|0,0:0|0:0,0:0:0:0:
236,139,118012,2,0,P|198:111|139:98,1,90,0|0,0:0|0:0,0:0:0:0:
469,290,118247,2,0,P|432:316|373:329,1,90,0|0,0:0|0:0,0:0:0:0:
276,139,118483,2,0,P|313:111|372:98,1,90,0|0,0:0|0:0,0:0:0:0:
423,169,118718,5,0,0:0:0:0:
415,190,118777,1,0,0:0:0:0:
402,208,118836,1,0,0:0:0:0:
385,223,118894,1,0,0:0:0:0:
365,233,118953,1,0,0:0:0:0:
307,302,119071,1,0,0:0:0:0:
220,327,119189,1,0,0:0:0:0:
134,300,119306,2,0,L|80:247,5,45,0|0|0|0|0|0,0:0|0:0|0:0|0:0|0:0|0:0,0:0:0:0:
187,225,119659,2,0,L|133:172,5,45,0|0|0|0|0|0,0:0|0:0|0:0|0:0|0:0|0:0,0:0:0:0:
241,151,120012,2,0,L|187:98,5,45,0|0|0|0|0|0,0:0|0:0|0:0|0:0|0:0|0:0,0:0:0:0:
136,83,120365,5,0,0:0:0:0:
110,91,120424,1,0,0:0:0:0:
88,107,120483,1,0,0:0:0:0:
68,126,120542,1,0,0:0:0:0:
53,149,120600,1,0,0:0:0:0:
43,174,120659,1,0,0:0:0:0:
36,199,120718,1,0,0:0:0:0:
34,227,120777,1,0,0:0:0:0:
37,253,120836,1,0,0:0:0:0:
44,279,120894,1,0,0:0:0:0:
57,303,120953,1,0,0:0:0:0:
72,325,121012,1,0,0:0:0:0:
95,339,121071,2,0,P|148:346|212:334,1,90,0|0,0:0|0:0,0:0:0:0:
319,254,121306,2,0,P|275:258|233:273,1,90,0|0,0:0|0:0,0:0:0:0:
377,365,121542,2,0,P|422:360|464:345,1,90,0|0,0:0|0:0,0:0:0:0:
88,269,127424,6,0,P|99:319|70:372,2,90,8|0|0,0:0|0:0|0:0,0:0:0:0:
39,159,127777,2,0,P|28:109|57:56,2,90,0|0|0,0:0|0:0|0:0,0:0:0:0:
174,134,128130,2,0,P|146:176|88:193,2,90,8|0|0,0:0|0:0|0:0,0:0:0:0:
232,54,128483,1,0,0:0:0:0:
318,29,128600,1,0,0:0:0:0:
407,41,128718,1,0,0:0:0:0:
477,97,128836,2,0,P|487:147|507:195,1,90,8|0,0:0|0:0,0:0:0:0:
498,273,129071,5,0,0:0:0:0:
430,331,129189,1,0,0:0:0:0:
342,349,129306,1,0,0:0:0:0:
273,289,129424,5,8,0:0:0:0:
185,308,129542,1,8,0:0:0:0:
117,366,129659,1,8,0:0:0:0:
36,330,129777,5,8,0:0:0:0:
8,207,129894,1,8,0:0:0:0:
133,178,130012,1,8,0:0:0:0:
163,303,130130,1,8,0:0:0:0:
151,319,132365,5,0,0:0:0:0:
175,332,132424,1,0,0:0:0:0:
201,339,132483,1,0,0:0:0:0:
228,340,132542,1,0,0:0:0:0:
255,338,132600,1,0,0:0:0:0:
280,328,132659,1,0,0:0:0:0:
303,313,132718,2,0,P|386:290|508:350,1,215.999993408203,0|0,0:0|0:0,0:0:0:0:
372,205,133071,5,0,0:0:0:0:
348,218,133130,1,0,0:0:0:0:
322,225,133189,1,0,0:0:0:0:
295,226,133247,1,0,0:0:0:0:
268,224,133306,1,0,0:0:0:0:
243,214,133365,1,0,0:0:0:0:
220,199,133424,2,0,P|136:176|14:236,1,215.999993408203,0|0,0:0|0:0,0:0:0:0:
140,107,133777,5,0,0:0:0:0:
163,94,133836,1,0,0:0:0:0:
189,85,133894,1,0,0:0:0:0:
215,80,133953,1,0,0:0:0:0:
242,78,134012,1,0,0:0:0:0:
269,81,134071,1,0,0:0:0:0:
296,87,134130,2,0,B|399:36|504:96,1,215.999993408203,0|0,0:0|0:0,0:0:0:0:
469,177,134483,5,0,0:0:0:0:
485,272,134600,1,0,0:0:0:0:
387,273,134718,1,0,0:0:0:0:
318,342,134836,1,0,0:0:0:0:
228,304,134953,1,0,0:0:0:0:
130,312,135071,1,0,0:0:0:0:
46,261,135189,5,0,0:0:0:0:
34,237,135247,1,0,0:0:0:0:
26,212,135306,1,0,0:0:0:0:
23,185,135365,1,0,0:0:0:0:
23,158,135424,1,0,0:0:0:0:
29,132,135483,1,0,0:0:0:0:
44,109,135542,2,0,P|145:96|245:29,1,215.999993408203,0|0,0:0|0:0,0:0:0:0:
367,19,135894,5,0,0:0:0:0:
410,106,136012,1,0,0:0:0:0:
451,195,136130,1,0,0:0:0:0:
488,283,136247,5,0,0:0:0:0:
421,353,136365,1,0,0:0:0:0:
324,365,136483,1,0,0:0:0:0:
230,340,136600,5,0,0:0:0:0:
227,323,136659,1,0,0:0:0:0:
215,312,136718,1,0,0:0:0:0:
207,297,136777,1,0,0:0:0:0:
196,284,136836,1,0,0:0:0:0:
191,269,136894,1,0,0:0:0:0:
180,256,136953,1,0,0:0:0:0:
176,240,137012,1,0,0:0:0:0:
166,226,137071,1,0,0:0:0:0:
162,209,137130,1,0,0:0:0:0:
151,197,137189,1,0,0:0:0:0:
148,181,137247,1,0,0:0:0:0:
138,167,137306,1,0,0:0:0:0:
178,27,137424,5,0,0:0:0:0:
181,44,137483,1,0,0:0:0:0:
194,55,137542,1,0,0:0:0:0:
201,70,137600,1,0,0:0:0:0:
213,83,137659,1,0,0:0:0:0:
218,98,137718,1,0,0:0:0:0:
229,109,137777,1,0,0:0:0:0:
242,118,137836,1,0,0:0:0:0:
256,123,137894,1,0,0:0:0:0:
271,125,137953,1,0,0:0:0:0:
287,122,138012,2,0,P|396:82|503:192,1,269.999991760254,0|0,0:0|0:0,0:0:0:0:
503,230,138365,2,0,P|423:317|346:313,1,161.999995056153,0|0,0:0|0:0,0:0:0:0:
74,280,138718,5,0,0:0:0:0:
54,261,138777,1,0,0:0:0:0:
39,240,138836,1,0,0:0:0:0:
27,214,138894,1,0,0:0:0:0:
22,188,138953,1,0,0:0:0:0:
21,162,139012,1,0,0:0:0:0:
25,135,139071,2,0,P|79:49|71:16,2,107.999996704102,0|0|0,0:0|0:0|0:0,0:0:0:0:
115,175,139424,5,0,0:0:0:0:
122,200,139483,1,0,0:0:0:0:
135,224,139542,1,0,0:0:0:0:
153,244,139600,1,0,0:0:0:0:
175,259,139659,1,0,0:0:0:0:
201,268,139718,1,0,0:0:0:0:
228,268,139777,2,0,P|293:262|364:300,1,107.999996704102,0|0,0:0|0:0,0:0:0:0:
484,288,140012,5,0,0:0:0:0:
494,191,140130,1,0,0:0:0:0:
408,146,140247,1,0,0:0:0:0:
342,73,140365,1,0,0:0:0:0:
246,90,140483,1,0,0:0:0:0:
152,64,140600,1,0,0:0:0:0:
66,110,140718,1,0,0:0:0:0:
32,201,140836,5,0,0:0:0:0:
42,231,140894,1,0,0:0:0:0:
57,260,140953,1,0,0:0:0:0:
78,285,141012,1,0,0:0:0:0:
102,306,141071,1,0,0:0:0:0:
130,322,141130,1,0,0:0:0:0:
160,334,141189,5,0,0:0:0:0:
192,340,141247,1,0,0:0:0:0:
224,340,141306,1,0,0:0:0:0:
256,334,141365,1,0,0:0:0:0:
287,323,141424,1,0,0:0:0:0:
315,307,141483,1,0,0:0:0:0:
339,286,141542,1,0,0:0:0:0:
360,261,141600,1,0,0:0:0:0:
380,236,141659,2,0,P|429:188|484:173,1,107.999996704102,0|0,0:0|0:0,0:0:0:0:
512,303,141894,2,0,P|463:351|408:366,1,107.999996704102,0|0,0:0|0:0,0:0:0:0:
57,272,142953,5,2,0:0:0:0:
78,257,143012,1,0,0:0:0:0:
89,230,143071,1,0,0:0:0:0:
89,205,143130,1,0,0:0:0:0:
88,179,143189,1,0,0:0:0:0:
89,150,143247,1,0,0:0:0:0:
93,124,143306,1,2,0:0:0:0:
104,99,143365,1,0,0:0:0:0:
119,78,143424,1,0,0:0:0:0:
140,66,143483,1,0,0:0:0:0:
168,66,143542,1,0,0:0:0:0:
190,80,143600,1,0,0:0:0:0:
205,102,143659,1,2,0:0:0:0:
380,247,144012,5,2,0:0:0:0:
395,268,144071,1,0,0:0:0:0:
418,281,144130,1,0,0:0:0:0:
444,283,144189,1,0,0:0:0:0:
470,275,144247,1,0,0:0:0:0:
490,257,144306,1,0,0:0:0:0:
502,233,144365,1,2,0:0:0:0:
380,50,144718,5,2,0:0:0:0:
387,76,144777,1,0,0:0:0:0:
386,102,144836,1,0,0:0:0:0:
378,128,144894,1,0,0:0:0:0:
365,152,144953,1,0,0:0:0:0:
344,169,145012,1,0,0:0:0:0:
320,181,145071,1,2,0:0:0:0:
278,270,145189,1,0,0:0:0:0:
190,310,145306,1,0,0:0:0:0:
95,284,145424,1,2,0:0:0:0:
35,206,145542,1,0,0:0:0:0:
39,109,145659,1,0,0:0:0:0:
101,33,145777,5,2,0:0:0:0:
113,56,145836,1,0,0:0:0:0:
121,81,145894,1,0,0:0:0:0:
122,109,145953,1,0,0:0:0:0:
119,136,146012,1,0,0:0:0:0:
128,162,146071,1,0,0:0:0:0:
142,184,146130,5,2,0:0:0:0:
163,202,146189,1,0,0:0:0:0:
186,214,146247,1,0,0:0:0:0:
212,222,146306,1,0,0:0:0:0:
239,222,146365,1,0,0:0:0:0:
265,217,146424,1,0,0:0:0:0:
290,206,146483,1,2,0:0:0:0:
492,344,146836,5,2,0:0:0:0:
467,354,146894,1,0,0:0:0:0:
440,357,146953,1,0,0:0:0:0:
413,354,147012,1,0,0:0:0:0:
388,345,147071,1,0,0:0:0:0:
364,331,147130,1,0,0:0:0:0:
347,309,147189,1,2,0:0:0:0:
253,332,147306,5,0,0:0:0:0:
157,352,147424,1,0,0:0:0:0:
62,375,147542,5,2,0:0:0:0:
74,279,147659,1,0,0:0:0:0:
87,182,147777,1,0,0:0:0:0:
98,85,147894,5,2,0:0:0:0:
155,163,148012,1,0,0:0:0:0:
246,196,148130,1,0,0:0:0:0:
342,198,148247,1,0,0:0:0:0:
433,165,148365,1,0,0:0:0:0:
490,87,148483,1,2,0:0:0:0:
393,79,148600,5,2,0:0:0:0:
371,94,148659,1,0,0:0:0:0:
346,104,148718,1,0,0:0:0:0:
319,109,148777,1,0,0:0:0:0:
292,108,148836,1,0,0:0:0:0:
266,101,148894,1,0,0:0:0:0:
242,90,148953,1,2,0:0:0:0:
24,287,149306,5,2,0:0:0:0:
42,308,149365,1,0,0:0:0:0:
63,324,149424,1,0,0:0:0:0:
88,335,149483,1,0,0:0:0:0:
115,342,149542,1,0,0:0:0:0:
141,341,149600,1,0,0:0:0:0:
167,337,149659,5,2,0:0:0:0:
195,332,149718,1,0,0:0:0:0:
221,328,149777,1,0,0:0:0:0:
248,327,149836,1,0,0:0:0:0:
274,334,149894,1,0,0:0:0:0:
299,345,149953,1,0,0:0:0:0:
320,361,150012,1,2,0:0:0:0:
498,243,150365,5,2,0:0:0:0:
472,235,150424,1,0,0:0:0:0:
449,221,150483,1,0,0:0:0:0:
431,201,150542,1,0,0:0:0:0:
419,176,150600,1,0,0:0:0:0:
415,150,150659,1,0,0:0:0:0:
417,123,150718,1,2,0:0:0:0:
483,50,150836,5,0,0:0:0:0:
394,10,150953,1,0,0:0:0:0:
315,67,151071,5,0,0:0:0:0:
329,163,151189,1,0,0:0:0:0:
262,233,151306,1,0,0:0:0:0:
166,217,151424,5,2,0:0:0:0:
141,206,151483,1,0,0:0:0:0:
120,189,151542,1,0,0:0:0:0:
105,166,151600,1,0,0:0:0:0:
98,140,151659,1,0,0:0:0:0:
99,113,151718,1,0,0:0:0:0:
107,88,151777,5,2,0:0:0:0:
123,66,151836,1,0,0:0:0:0:
145,50,151894,1,0,0:0:0:0:
171,43,151953,1,0,0:0:0:0:
195,53,152012,1,0,0:0:0:0:
221,63,152071,1,0,0:0:0:0:
247,64,152130,1,2,0:0:0:0:
465,261,152483,5,2,0:0:0:0:
438,258,152542,1,0,0:0:0:0:
411,259,152600,1,0,0:0:0:0:
384,264,152659,1,0,0:0:0:0:
359,273,152718,1,0,0:0:0:0:
335,285,152777,1,0,0:0:0:0:
313,301,152836,2,0,L|283:354,3,53.9999983520508,2|0|0|0,0:0|0:0|0:0|0:0,0:0:0:0:
209,318,153071,2,0,L|156:348,3,53.9999983520508,2|0|0|0,0:0|0:0|0:0|0:0,0:0:0:0:
118,280,153306,2,0,L|57:280,3,53.9999983520508,2|0|0|0,0:0|0:0|0:0|0:0,0:0:0:0:
37,195,153542,5,2,0:0:0:0:
63,201,153600,1,0,0:0:0:0:
90,204,153659,1,0,0:0:0:0:
117,204,153718,1,0,0:0:0:0:
143,201,153777,1,0,0:0:0:0:
170,195,153836,1,0,0:0:0:0:
195,186,153894,5,2,0:0:0:0:
219,174,153953,1,0,0:0:0:0:
242,159,154012,1,0,0:0:0:0:
263,142,154071,1,0,0:0:0:0:
281,123,154130,1,0,0:0:0:0:
297,100,154189,1,0,0:0:0:0:
313,79,154247,2,0,P|388:27|515:71,1,215.999993408203,2|0,0:0|0:0,0:0:0:0:
492,187,154600,5,2,0:0:0:0:
464,189,154659,1,0,0:0:0:0:
437,197,154718,1,0,0:0:0:0:
412,208,154777,1,0,0:0:0:0:
389,223,154836,1,0,0:0:0:0:
370,242,154894,1,0,0:0:0:0:
351,261,154953,2,0,P|267:330|137:340,1,215.999993408203,2|0,0:0|0:0,0:0:0:0:
194,103,155306,5,2,0:0:0:0:
169,90,155365,1,0,0:0:0:0:
143,85,155424,1,0,0:0:0:0:
116,87,155483,1,0,0:0:0:0:
91,96,155542,1,0,0:0:0:0:
69,112,155600,1,0,0:0:0:0:
52,133,155659,5,2,0:0:0:0:
41,157,155718,1,0,0:0:0:0:
38,184,155777,1,0,0:0:0:0:
41,211,155836,1,0,0:0:0:0:
52,235,155894,1,0,0:0:0:0:
69,256,155953,1,0,0:0:0:0:
91,272,156012,2,0,L|143:300,5,53.9999983520508,2|0|0|0|0|0,0:0|0:0|0:0|0:0|0:0|0:0,0:0:0:0:
219,301,156365,5,2,0:0:0:0:
241,285,156424,1,0,0:0:0:0:
264,272,156483,1,0,0:0:0:0:
289,262,156542,1,0,0:0:0:0:
316,256,156600,1,0,0:0:0:0:
342,252,156659,1,0,0:0:0:0:
369,252,156718,5,2,0:0:0:0:
396,251,156777,1,0,0:0:0:0:
422,243,156836,1,0,0:0:0:0:
444,227,156894,1,0,0:0:0:0:
460,206,156953,1,0,0:0:0:0:
466,180,157012,1,0,0:0:0:0:
463,153,157071,2,0,P|453:120|267:47,1,215.999993408203,2|0,0:0|0:0,0:0:0:0:
162,17,157424,5,2,0:0:0:0:
167,41,157483,1,0,0:0:0:0:
163,68,157542,1,0,0:0:0:0:
165,93,157600,1,0,0:0:0:0:
157,119,157659,1,0,0:0:0:0:
159,146,157718,1,0,0:0:0:0:
148,170,157777,1,2,0:0:0:0:
94,250,157894,5,0,0:0:0:0:
136,337,158012,1,0,0:0:0:0:
228,368,158130,1,2,0:0:0:0:
324,358,158247,1,0,0:0:0:0:
402,300,158365,1,0,0:0:0:0:
462,223,158483,5,2,0:0:0:0:
451,126,158600,1,0,0:0:0:0:
367,176,158718,1,0,0:0:0:0:
315,93,158836,2,0,P|355:56|407:36,2,107.999996704102,2|0|0,0:0|0:0|0:0,0:0:0:0:
261,180,159189,5,2,0:0:0:0:
243,200,159247,1,0,0:0:0:0:
221,216,159306,1,0,0:0:0:0:
197,228,159365,1,0,0:0:0:0:
171,236,159424,1,0,0:0:0:0:
144,239,159483,1,0,0:0:0:0:
117,234,159542,2,0,B|71:203|12:212|12:212|-19:263|47:332,1,215.999993408203,0|0,0:0|0:0,0:0:0:0:
257,357,159894,5,2,0:0:0:0:
282,349,159953,1,0,0:0:0:0:
306,335,160012,1,0,0:0:0:0:
327,319,160071,1,0,0:0:0:0:
345,299,160130,1,0,0:0:0:0:
359,275,160189,1,0,0:0:0:0:
366,249,160247,5,2,0:0:0:0:
366,221,160306,1,0,0:0:0:0:
367,194,160365,1,0,0:0:0:0:
378,170,160424,1,0,0:0:0:0:
398,152,160483,1,0,0:0:0:0:
423,144,160542,1,0,0:0:0:0:
450,146,160600,2,0,B|495:92|495:92|449:12|341:29,1,215.999993408203,2|0,0:0|0:0,0:0:0:0:
186,24,160953,5,0,0:0:0:0:
159,21,161012,1,0,0:0:0:0:
132,23,161071,1,0,0:0:0:0:
106,30,161130,1,0,0:0:0:0:
82,42,161189,1,0,0:0:0:0:
61,59,161247,1,0,0:0:0:0:
45,81,161306,1,0,0:0:0:0:
33,105,161365,5,0,0:0:0:0:
25,131,161424,1,0,0:0:0:0:
24,158,161483,1,0,0:0:0:0:
32,185,161542,1,0,0:0:0:0:
44,209,161600,5,0,0:0:0:0:
61,230,161659,1,0,0:0:0:0:
82,247,161718,1,0,0:0:0:0:
106,258,161777,1,0,0:0:0:0:
133,265,161836,5,0,0:0:0:0:
160,265,161894,1,0,0:0:0:0:
186,261,161953,1,0,0:0:0:0:
212,252,162012,1,0,0:0:0:0:
236,240,162071,5,0,0:0:0:0:
259,226,162130,1,0,0:0:0:0:
282,212,162189,1,0,0:0:0:0:
305,198,162247,1,0,0:0:0:0:
330,187,162306,1,0,0:0:0:0:
360,177,162365,6,0,P|408:160|491:190,1,107.999996704102,0|0,0:0|0:0,0:0:0:0:
505,282,162600,1,0,0:0:0:0:
419,358,162718,2,0,B|382:357|358:337|358:337|320:355,1,107.999996704102,0|0,0:0|0:0,0:0:0:0:
222,365,162953,1,0,0:0:0:0:
127,341,163071,1,0,0:0:0:0:
61,269,163189,1,0,0:0:0:0:
42,174,163306,1,0,0:0:0:0:
64,79,163424,2,0,P|128:79|169:101,1,107.999996704102,0|0,0:0|0:0,0:0:0:0:
212,226,163659,2,0,P|148:226|107:204,1,107.999996704102,0|0,0:0|0:0,0:0:0:0:
291,225,163894,2,0,P|345:227|394:206,1,107.999996704102,0|0,0:0|0:0,0:0:0:0:
439,78,164130,2,0,P|385:76|337:98,1,107.999996704102,0|0,0:0|0:0,0:0:0:0:
496,158,164365,5,0,0:0:0:0:
476,253,164483,1,0,0:0:0:0:
395,306,164600,2,0,P|331:306|290:328,1,107.999996704102,0|0,0:0|0:0,0:0:0:0:
196,346,164836,1,0,0:0:0:0:
113,294,164953,1,0,0:0:0:0:
115,197,165071,2,0,P|98:135|66:101,1,107.999996704102,0|0,0:0|0:0,0:0:0:0:
176,44,165306,5,0,0:0:0:0:
189,67,165365,1,0,0:0:0:0:
207,87,165424,1,0,0:0:0:0:
230,102,165483,1,0,0:0:0:0:
255,111,165542,1,0,0:0:0:0:
281,115,165600,1,0,0:0:0:0:
308,111,165659,1,0,0:0:0:0:
334,103,165718,1,0,0:0:0:0:
359,92,165777,2,0,L|401:42,5,53.9999983520508,0|0|0|0|0|0,0:0|0:0|0:0|0:0|0:0|0:0,0:0:0:0:
461,78,166130,5,0,0:0:0:0:
473,102,166189,1,0,0:0:0:0:
481,128,166247,1,0,0:0:0:0:
482,155,166306,1,0,0:0:0:0:
478,181,166365,1,0,0:0:0:0:
468,206,166424,1,0,0:0:0:0:
452,228,166483,1,0,0:0:0:0:
432,247,166542,1,0,0:0:0:0:
418,270,166600,2,0,L|414:331,5,53.9999983520508,0|0|0|0|0|0,0:0|0:0|0:0|0:0|0:0|0:0,0:0:0:0:
323,316,166953,2,0,L|319:377,5,53.9999983520508,0|0|0|0|0|0,0:0|0:0|0:0|0:0|0:0|0:0,0:0:0:0:
223,337,167306,5,0,0:0:0:0:
195,337,167365,1,0,0:0:0:0:
168,337,167424,1,0,0:0:0:0:
140,337,167483,1,0,0:0:0:0:
112,337,167542,5,0,0:0:0:0:
93,317,167600,1,0,0:0:0:0:
77,295,167659,1,0,0:0:0:0:
66,271,167718,1,0,0:0:0:0:
58,245,167777,1,0,0:0:0:0:
55,218,167836,1,0,0:0:0:0:
56,191,167894,1,0,0:0:0:0:
61,165,167953,1,0,0:0:0:0:
71,139,168012,1,0,0:0:0:0:
84,116,168071,1,0,0:0:0:0:
101,95,168130,1,0,0:0:0:0:
121,77,168189,1,0,0:0:0:0:
144,63,168247,1,0,0:0:0:0:
169,52,168306,1,0,0:0:0:0:
195,47,168365,6,0,P|266:52|321:74,1,107.999996704102,0|0,0:0|0:0,0:0:0:0:
343,140,168600,2,0,P|272:135|217:113,1,107.999996704102,0|0,0:0|0:0,0:0:0:0:
201,207,168836,2,0,P|272:212|327:234,1,107.999996704102,0|0,0:0|0:0,0:0:0:0:
411,366,169071,2,0,P|340:361|285:339,1,107.999996704102,0|0,0:0|0:0,0:0:0:0:
313,207,169306,2,0,P|242:212|187:234,1,107.999996704102,0|0,0:0|0:0,0:0:0:0:
101,366,169542,2,0,P|172:361|227:339,1,107.999996704102,0|0,0:0|0:0,0:0:0:0:
352,280,169777,5,0,0:0:0:0:
378,275,169836,1,0,0:0:0:0:
403,265,169894,1,0,0:0:0:0:
426,251,169953,1,0,0:0:0:0:
446,233,170012,1,0,0:0:0:0:
463,212,170071,1,0,0:0:0:0:
475,187,170130,1,0,0:0:0:0:
482,162,170189,1,0,0:0:0:0:
485,135,170247,6,0,L|430:33,1,107.999996704102,0|0,0:0|0:0,0:0:0:0:
342,39,170483,2,0,L|394:134,1,107.999996704102,0|0,0:0|0:0,0:0:0:0:
304,132,170718,2,0,L|248:29,1,107.999996704102,0|0,0:0|0:0,0:0:0:0:
161,35,170953,2,0,L|213:131,1,107.999996704102,0|0,0:0|0:0,0:0:0:0:
16,209,171189,2,0,L|124:213,1,107.999996704102,0|0,0:0|0:0,0:0:0:0:
143,384,171424,2,0,L|200:293,1,107.999996704102,0|0,0:0|0:0,0:0:0:0:
377,384,171659,2,0,L|326:289,1,107.999996704102,0|0,0:0|0:0,0:0:0:0:
471,245,171894,5,0,0:0:0:0:
487,223,171952,1,0,0:0:0:0:
497,198,172011,1,0,0:0:0:0:
503,172,172070,1,0,0:0:0:0:
502,145,172129,1,0,0:0:0:0:
495,119,172188,1,0,0:0:0:0:
483,95,172246,1,0,0:0:0:0:
466,74,172305,1,0,0:0:0:0:
445,58,172364,1,0,0:0:0:0:
420,46,172423,1,0,0:0:0:0:
394,41,172482,1,0,0:0:0:0:
245,4,172600,6,0,P|203:41|181:90,1,107.999996704102,0|0,0:0|0:0,0:0:0:0:
51,75,172836,2,0,P|62:129|94:173,1,107.999996704102,0|0,0:0|0:0,0:0:0:0:
4,269,173071,2,0,P|56:286|111:281,1,107.999996704102,0|0,0:0|0:0,0:0:0:0:
411,171,173306,2,0,P|358:154|304:159,1,107.999996704102,0|0,0:0|0:0,0:0:0:0:
5,174,173542,2,0,P|55:158|109:162,1,107.999996704102,0|0,0:0|0:0,0:0:0:0:
411,273,173777,2,0,P|361:289|307:285,1,107.999996704102,0|0,0:0|0:0,0:0:0:0:
122,76,174012,5,0,0:0:0:0:
147,65,174071,1,0,0:0:0:0:
173,59,174130,1,0,0:0:0:0:
200,58,174189,1,0,0:0:0:0:
227,63,174247,1,0,0:0:0:0:
252,72,174306,1,0,0:0:0:0:
275,86,174365,1,0,0:0:0:0:
296,104,174424,1,0,0:0:0:0:
312,125,174483,1,0,0:0:0:0:
324,149,174542,1,0,0:0:0:0:
331,175,174600,1,0,0:0:0:0:
328,201,174659,1,0,0:0:0:0:
318,226,174718,5,0,0:0:0:0:
293,215,174777,1,0,0:0:0:0:
267,209,174836,1,0,0:0:0:0:
240,208,174894,1,0,0:0:0:0:
213,213,174953,1,0,0:0:0:0:
188,222,175012,1,0,0:0:0:0:
165,236,175071,1,0,0:0:0:0:
144,254,175130,1,0,0:0:0:0:
128,275,175189,1,0,0:0:0:0:
116,299,175247,1,0,0:0:0:0:
109,325,175306,1,0,0:0:0:0:
112,351,175365,1,0,0:0:0:0:
124,374,175424,2,0,L|186:342,11,53.9999983520508,0|0|0|0|0|0|0|0|0|0|0|0,0:0|0:0|0:0|0:0|0:0|0:0|0:0|0:0|0:0|0:0|0:0|0:0,0:0:0:0:
221,292,176130,2,0,L|269:317,11,53.9999983520508,0|0|0|0|0|0|0|0|0|0|0|0,0:0|0:0|0:0|0:0|0:0|0:0|0:0|0:0|0:0|0:0|0:0|0:0,0:0:0:0:
341,355,176836,5,0,0:0:0:0:
346,328,176894,1,0,0:0:0:0:
352,302,176953,1,0,0:0:0:0:
358,275,177012,1,0,0:0:0:0:
363,249,177071,1,0,0:0:0:0:
369,223,177130,1,0,0:0:0:0:
384,200,177189,1,0,0:0:0:0:
390,174,177247,1,0,0:0:0:0:
395,147,177306,1,0,0:0:0:0:
401,121,177365,1,0,0:0:0:0:
407,94,177424,1,0,0:0:0:0:
412,68,177483,1,0,0:0:0:0:
421,42,177542,2,0,L|366:19,3,53.9999983520508,0|0|0|0,0:0|0:0|0:0|0:0,0:0:0:0:
333,85,177777,2,0,L|284:106,3,53.9999983520508,0|0|0|0,0:0|0:0|0:0|0:0,0:0:0:0:
198,138,178012,2,0,L|233:177,3,53.9999983520508,0|0|0|0,0:0|0:0|0:0|0:0,0:0:0:0:
224,55,178247,5,0,0:0:0:0:
198,45,178306,1,0,0:0:0:0:
172,41,178365,1,0,0:0:0:0:
145,42,178424,1,0,0:0:0:0:
119,48,178483,1,0,0:0:0:0:
94,60,178542,1,0,0:0:0:0:
73,77,178600,1,0,0:0:0:0:
56,97,178659,1,0,0:0:0:0:
43,121,178718,1,0,0:0:0:0:
35,147,178777,1,0,0:0:0:0:
33,174,178836,1,0,0:0:0:0:
36,200,178894,1,0,0:0:0:0:
45,225,178953,2,0,L|27:287,3,53.9999983520508,0|0|0|0,0:0|0:0|0:0|0:0,0:0:0:0:
104,284,179189,2,0,L|119:345,3,53.9999983520508,0|0|0|0,0:0|0:0|0:0|0:0,0:0:0:0:
182,306,179424,2,0,L|226:351,3,53.9999983520508,0|0|0|0,0:0|0:0|0:0|0:0,0:0:0:0:
262,284,179659,5,0,0:0:0:0:
277,307,179718,1,0,0:0:0:0:
295,326,179777,1,0,0:0:0:0:
317,343,179836,1,0,0:0:0:0:
342,354,179894,1,0,0:0:0:0:
367,362,179953,1,0,0:0:0:0:
394,364,180012,1,0,0:0:0:0:
421,361,180071,1,0,0:0:0:0:
447,354,180130,1,0,0:0:0:0:
471,340,180189,5,0,0:0:0:0:
491,322,180247,1,0,0:0:0:0:
505,299,180306,1,0,0:0:0:0:
511,272,180365,1,0,0:0:0:0:
508,247,180424,1,0,0:0:0:0:
496,223,180483,1,0,0:0:0:0:
479,202,180542,1,0,0:0:0:0:
460,183,180600,1,0,0:0:0:0:
441,163,180659,1,0,0:0:0:0:
426,141,180718,1,0,0:0:0:0:
419,115,180777,1,0,0:0:0:0:
419,87,180836,2,0,L|373:20,3,53.9999983520508,0|0|0|0,0:0|0:0|0:0|0:0,0:0:0:0:
340,152,181071,2,0,L|332:72,3,53.9999983520508,0|0|0|0,0:0|0:0|0:0|0:0,0:0:0:0:
240,171,181306,2,0,L|272:97,3,53.9999983520508,0|0|0|0,0:0|0:0|0:0|0:0,0:0:0:0:
137,147,181542,2,0,L|201:99,7,53.9999983520508,0|0|0|0|0|0|0|0,0:0|0:0|0:0|0:0|0:0|0:0|0:0|0:0,0:0:0:0:
76,220,182012,5,0,0:0:0:0:
67,245,182071,1,0,0:0:0:0:
67,272,182130,1,0,0:0:0:0:
75,298,182189,1,0,0:0:0:0:
90,320,182247,1,0,0:0:0:0:
111,337,182306,1,0,0:0:0:0:
136,346,182365,1,0,0:0:0:0:
163,348,182424,1,0,0:0:0:0:
189,342,182483,1,0,0:0:0:0:
215,331,182542,1,0,0:0:0:0:
241,322,182600,1,0,0:0:0:0:
267,317,182659,1,0,0:0:0:0:
294,317,182718,6,0,L|417:352,1,107.999996704102,0|0,0:0|0:0,0:0:0:0:
481,261,182953,2,0,L|377:231,1,107.999996704102,0|0,0:0|0:0,0:0:0:0:
154,259,183189,2,0,L|257:229,1,107.999996704102,0|0,0:0|0:0,0:0:0:0:
508,187,183424,2,0,L|386:152,1,107.999996704102,0|0,0:0|0:0,0:0:0:0:
127,185,183659,2,0,L|248:150,1,107.999996704102,0|0,0:0|0:0,0:0:0:0:
512,116,183894,1,0,0:0:0:0:
139,48,184130,5,0,0:0:0:0:
113,55,184189,1,0,0:0:0:0:
88,66,184247,1,0,0:0:0:0:
66,81,184306,1,0,0:0:0:0:
47,100,184365,1,0,0:0:0:0:
31,123,184424,1,0,0:0:0:0:
20,147,184483,1,0,0:0:0:0:
13,173,184542,1,0,0:0:0:0:
11,200,184600,1,0,0:0:0:0:
13,227,184659,1,0,0:0:0:0:
20,253,184718,1,0,0:0:0:0:
31,278,184777,1,0,0:0:0:0:
47,300,184836,1,0,0:0:0:0:
66,319,184894,1,0,0:0:0:0:
88,334,184953,1,0,0:0:0:0:
113,346,185012,1,0,0:0:0:0:
139,353,185071,1,0,0:0:0:0:
165,355,185130,1,0,0:0:0:0:
192,353,185189,1,0,0:0:0:0:
218,346,185247,5,0,0:0:0:0:
243,334,185306,1,0,0:0:0:0:
265,319,185365,1,0,0:0:0:0:
284,300,185424,1,0,0:0:0:0:
300,278,185483,1,0,0:0:0:0:
311,253,185542,1,0,0:0:0:0:
318,227,185600,1,0,0:0:0:0:
320,200,185659,1,0,0:0:0:0:
318,172,185718,1,0,0:0:0:0:
318,145,185777,1,0,0:0:0:0:
322,119,185836,1,0,0:0:0:0:
331,92,185894,1,0,0:0:0:0:
345,69,185953,1,0,0:0:0:0:
362,49,186012,1,0,0:0:0:0:
383,31,186071,1,0,0:0:0:0:
409,23,186130,2,0,L|470:21,9,53.9999983520508,0|0|0|0|0|0|0|0|0|0,0:0|0:0|0:0|0:0|0:0|0:0|0:0|0:0|0:0|0:0,0:0:0:0:
308,1,186718,5,0,0:0:0:0:
281,0,186777,1,0,0:0:0:0:
254,0,186836,1,0,0:0:0:0:
227,1,186894,1,0,0:0:0:0:
201,8,186953,1,0,0:0:0:0:
176,17,187012,1,0,0:0:0:0:
152,30,187071,1,0,0:0:0:0:
130,46,187130,1,0,0:0:0:0:
110,64,187189,1,0,0:0:0:0:
92,84,187247,1,0,0:0:0:0:
77,107,187306,1,0,0:0:0:0:
65,131,187365,1,0,0:0:0:0:
56,156,187424,2,0,L|40:222,3,53.9999983520508,0|0|0|0,0:0|0:0|0:0|0:0,0:0:0:0:
130,251,187659,2,0,L|148:315,3,53.9999983520508,0|0|0|0,0:0|0:0|0:0|0:0,0:0:0:0:
252,255,187894,2,0,L|237:306,3,53.9999983520508,0|0|0|0,0:0|0:0|0:0|0:0,0:0:0:0:
345,172,188130,2,0,L|358:224,3,53.9999983520508,0|0|0|0,0:0|0:0|0:0|0:0,0:0:0:0:
455,221,188365,2,0,L|442:273,3,53.9999983520508,0|0|0|0,0:0|0:0|0:0|0:0,0:0:0:0:
456,122,188600,5,0,0:0:0:0:
442,99,188659,1,0,0:0:0:0:
423,82,188718,1,0,0:0:0:0:
398,69,188777,1,0,0:0:0:0:
372,64,188836,1,0,0:0:0:0:
345,64,188894,1,0,0:0:0:0:
319,73,188953,1,0,0:0:0:0:
296,87,189012,1,0,0:0:0:0:
278,107,189071,5,0,0:0:0:0:
266,131,189130,1,0,0:0:0:0:
259,157,189189,1,0,0:0:0:0:
261,184,189247,1,0,0:0:0:0:
263,210,189306,1,0,0:0:0:0:
262,236,189365,1,0,0:0:0:0:
255,262,189424,1,0,0:0:0:0:
239,285,189483,1,0,0:0:0:0:
220,303,189542,1,0,0:0:0:0:
195,315,189600,1,0,0:0:0:0:
167,315,189659,2,0,B|123:317|91:297|91:297|-15:240|8:53|140:30|140:30|252:14|311:94|311:94|427:104|492:39,1,810,0|0,0:0|0:0,0:0:0:0:
512,240,190953,2,0,B|448:259|408:276|362:263|318:142|280:112|230:132|163:207|100:112,1,450,0|0,0:0|0:0,0:0:0:0:
106,18,191777,5,0,0:0:0:0:
79,24,191836,1,0,0:0:0:0:
55,35,191894,1,0,0:0:0:0:
35,54,191953,1,0,0:0:0:0:
23,78,192012,1,0,0:0:0:0:
20,104,192071,1,0,0:0:0:0:
24,131,192130,1,0,0:0:0:0:
36,155,192189,1,0,0:0:0:0:
54,175,192247,1,0,0:0:0:0:
77,190,192306,1,0,0:0:0:0:
103,199,192365,6,0,L|177:328,2,107.999996704102,0|0|0,0:0|0:0|0:0,0:0:0:0:
202,142,192718,2,0,L|255:48,2,107.999996704102,0|0|0,0:0|0:0|0:0,0:0:0:0:
485,199,193071,6,0,L|411:328,2,107.999996704102,0|0|0,0:0|0:0|0:0,0:0:0:0:
386,142,193424,2,0,L|332:48,2,107.999996704102,0|0|0,0:0|0:0|0:0,0:0:0:0:
345,247,193777,5,0,0:0:0:0:
328,274,193836,1,0,0:0:0:0:
310,300,193894,1,0,0:0:0:0:
291,326,193953,1,0,0:0:0:0:
271,352,194012,5,0,0:0:0:0:
241,358,194071,1,0,0:0:0:0:
210,365,194130,1,0,0:0:0:0:
178,369,194189,1,0,0:0:0:0:
145,374,194247,5,0,0:0:0:0:
119,356,194306,1,0,0:0:0:0:
92,339,194365,1,0,0:0:0:0:
67,320,194424,1,0,0:0:0:0:
40,300,194483,5,0,0:0:0:0:
33,268,194542,1,0,0:0:0:0:
27,236,194600,1,0,0:0:0:0:
22,205,194659,1,0,0:0:0:0:
17,173,194718,5,0,0:0:0:0:
34,145,194777,1,0,0:0:0:0:
53,118,194836,1,0,0:0:0:0:
71,93,194894,1,0,0:0:0:0:
90,67,194953,5,0,0:0:0:0:
122,59,195012,1,0,0:0:0:0:
154,53,195071,1,0,0:0:0:0:
185,48,195130,1,0,0:0:0:0:
217,43,195189,2,0,B|266:39|332:52|380:79|427:101|427:101|451:171,1,269.999991760254,0|0,0:0|0:0,0:0:0:0:
453,200,195542,2,0,B|459:242|459:242|417:297|314:293,1,161.999995056153,0|0,0:0|0:0,0:0:0:0:
140,132,195894,5,0,0:0:0:0:
120,150,195952,1,0,0:0:0:0:
106,173,196011,1,0,0:0:0:0:
98,199,196070,1,0,0:0:0:0:
97,225,196129,1,0,0:0:0:0:
104,252,196188,1,0,0:0:0:0:
117,275,196247,2,0,P|225:344|337:351,1,215.999993408203,0|0,0:0|0:0,0:0:0:0:
443,283,196600,5,0,0:0:0:0:
443,255,196659,1,0,0:0:0:0:
454,230,196718,1,0,0:0:0:0:
453,201,196777,1,0,0:0:0:0:
463,176,196836,1,0,0:0:0:0:
463,149,196894,1,0,0:0:0:0:
473,124,196953,2,0,B|482:76|459:51|459:51|371:79|295:37,1,215.999993408203,0|0,0:0|0:0,0:0:0:0:
230,106,197306,5,0,0:0:0:0:
133,118,197424,1,0,0:0:0:0:
40,86,197542,1,0,0:0:0:0:
11,178,197659,1,0,0:0:0:0:
95,227,197777,1,0,0:0:0:0:
192,222,197895,1,0,0:0:0:0:
286,239,198012,5,0,0:0:0:0:
309,251,198070,1,0,0:0:0:0:
322,275,198129,1,0,0:0:0:0:
320,301,198188,1,0,0:0:0:0:
303,322,198247,1,0,0:0:0:0:
279,332,198306,1,0,0:0:0:0:
252,332,198365,2,0,B|214:306|166:303|166:303|99:344|14:300,1,215.999993408203,0|0,0:0|0:0,0:0:0:0:
5,239,198718,5,0,0:0:0:0:
70,166,198836,1,0,0:0:0:0:
151,114,198953,1,0,0:0:0:0:
218,43,199071,1,0,0:0:0:0:
311,15,199189,1,0,0:0:0:0:
405,36,199306,1,0,0:0:0:0:
466,111,199424,1,0,0:0:0:0:
469,126,199483,1,0,0:0:0:0:
467,142,199542,1,0,0:0:0:0:
471,157,199600,1,0,0:0:0:0:
467,172,199659,1,0,0:0:0:0:
470,187,199718,1,0,0:0:0:0:
465,202,199777,1,0,0:0:0:0:
469,217,199836,1,0,0:0:0:0:
462,231,199894,1,0,0:0:0:0:
463,247,199953,1,0,0:0:0:0:
457,262,200012,1,0,0:0:0:0:
354,336,200247,5,0,0:0:0:0:
347,321,200305,1,0,0:0:0:0:
339,307,200364,1,0,0:0:0:0:
329,294,200423,1,0,0:0:0:0:
318,282,200482,1,0,0:0:0:0:
305,272,200541,1,0,0:0:0:0:
292,263,200599,1,0,0:0:0:0:
277,256,200658,1,0,0:0:0:0:
262,250,200717,1,0,0:0:0:0:
246,246,200776,1,0,0:0:0:0:
230,244,200836,2,0,P|80:222|30:101,1,269.999991760254,0|0,0:0|0:0,0:0:0:0:
28,72,201189,2,0,P|109:89|202:30,1,161.999995056153,0|0,0:0|0:0,0:0:0:0:
371,16,201542,5,0,0:0:0:0:
376,42,201600,1,0,0:0:0:0:
382,68,201659,1,0,0:0:0:0:
388,95,201718,1,0,0:0:0:0:
394,121,201777,1,0,0:0:0:0:
400,147,201836,1,0,0:0:0:0:
407,173,201894,2,0,P|451:239|491:255,2,107.999996704102,0|0|0,0:0|0:0|0:0,0:0:0:0:
319,160,202247,5,0,0:0:0:0:
292,162,202305,1,0,0:0:0:0:
265,164,202364,1,0,0:0:0:0:
238,167,202423,1,0,0:0:0:0:
211,169,202482,1,0,0:0:0:0:
184,172,202541,1,0,0:0:0:0:
157,174,202600,2,0,B|98:180|98:180|32:190|-13:242|0:296,1,215.999993408203,0|0,0:0|0:0,0:0:0:0:
85,336,202953,1,0,0:0:0:0:
181,350,203071,1,0,0:0:0:0:
98,323,203189,1,0,0:0:0:0:
194,337,203307,1,0,0:0:0:0:
111,310,203424,1,0,0:0:0:0:
207,325,203542,1,0,0:0:0:0:
302,338,203659,5,0,0:0:0:0:
327,327,203717,1,0,0:0:0:0:
350,314,203776,1,0,0:0:0:0:
372,299,203835,1,0,0:0:0:0:
392,280,203894,1,0,0:0:0:0:
410,260,203953,1,0,0:0:0:0:
425,238,204011,1,0,0:0:0:0:
437,213,204070,1,0,0:0:0:0:
446,188,204129,1,0,0:0:0:0:
452,162,204188,1,0,0:0:0:0:
455,135,204247,1,0,0:0:0:0:
454,108,204306,1,0,0:0:0:0:
447,81,204365,5,0,0:0:0:0:
433,57,204424,1,0,0:0:0:0:
409,43,204483,1,0,0:0:0:0:
383,43,204541,1,0,0:0:0:0:
359,58,204600,1,0,0:0:0:0:
346,81,204659,1,0,0:0:0:0:
339,107,204718,1,0,0:0:0:0:
325,131,204777,1,0,0:0:0:0:
302,145,204836,1,0,0:0:0:0:
275,145,204894,1,0,0:0:0:0:
251,131,204953,1,0,0:0:0:0:
237,107,205012,1,0,0:0:0:0:
240,80,205071,6,0,L|185:18,2,67.5000025749208,0|0|0,0:0|0:0|0:0,0:0:0:0:
147,117,205424,2,0,L|191:167,2,67.5000025749208,0|0|0,0:0|0:0|0:0,0:0:0:0:
98,203,205777,2,0,L|142:253,2,67.5000025749208,0|0|0,0:0|0:0|0:0,0:0:0:0:
216,326,206130,2,0,L|171:376,2,67.5000025749208,0|0|0,0:0|0:0|0:0,0:0:0:0:
293,272,206483,5,0,0:0:0:0:
315,247,206600,1,0,0:0:0:0:
344,230,206718,1,0,0:0:0:0:
377,222,206836,1,0,0:0:0:0:
411,221,206953,1,0,0:0:0:0:
443,230,207071,1,0,0:0:0:0:
471,161,207189,5,0,0:0:0:0:
449,136,207306,1,0,0:0:0:0:
420,119,207424,1,0,0:0:0:0:
387,111,207542,1,0,0:0:0:0:
353,110,207659,1,0,0:0:0:0:
321,119,207777,1,0,0:0:0:0:
253,148,207894,6,0,P|229:187|219:228,2,67.5000025749208,0|0|0,0:0|0:0|0:0,0:0:0:0:
154,184,208247,2,0,P|152:229|164:270,2,67.5000025749208,0|0|0,0:0|0:0|0:0,0:0:0:0:
76,258,208600,2,0,P|97:298|128:327,2,67.5000025749208,0|0|0,0:0|0:0|0:0,0:0:0:0:
43,191,208953,2,0,P|21:150|-9:121,2,67.5000025749208,0|0|0,0:0|0:0|0:0,0:0:0:0:
92,135,209306,5,0,0:0:0:0:
150,89,209424,1,0,0:0:0:0:
216,56,209542,1,0,0:0:0:0:
288,40,209659,1,0,0:0:0:0:
362,46,209777,1,0,0:0:0:0:
431,69,209894,1,0,0:0:0:0:
494,107,210012,5,0,0:0:0:0:
420,94,210130,1,0,0:0:0:0:
346,104,210247,1,0,0:0:0:0:
275,128,210365,1,0,0:0:0:0:
212,168,210483,1,0,0:0:0:0:
166,226,210600,1,0,0:0:0:0:
137,294,210718,5,0,0:0:0:0:
166,310,210836,1,0,0:0:0:0:
199,314,210953,1,0,0:0:0:0:
231,323,211071,1,0,0:0:0:0:
264,324,211189,1,0,0:0:0:0:
295,335,211306,1,0,0:0:0:0:
325,266,211424,5,0,0:0:0:0:
296,250,211542,1,0,0:0:0:0:
263,246,211659,1,0,0:0:0:0:
231,237,211777,1,0,0:0:0:0:
198,236,211895,1,0,0:0:0:0:
167,225,212012,1,0,0:0:0:0:
92,226,212130,6,0,P|63:248|37:286,2,67.5000025749208,0|0|0,0:0|0:0|0:0,0:0:0:0:
129,161,212483,2,0,P|133:124|125:79,2,67.5000025749208,0|0|0,0:0|0:0|3:0,0:0:0:0:
203,160,212836,2,0,P|232:138|258:100,2,67.5000025749208,0|0|0,0:0|0:0|3:0,0:0:0:0:
360,211,213189,2,0,P|330:189|305:151,2,67.5000025749208,0|0|0,0:0|0:0|3:0,0:0:0:0:
425,246,213542,5,0,0:0:0:0:
416,278,213659,1,0,0:0:0:0:
395,304,213777,1,0,0:0:0:0:
362,311,213894,1,0,0:0:0:0:
330,302,214011,1,0,0:0:0:0:
304,282,214129,1,0,0:0:0:0:
232,256,214247,2,0,P|192:267|133:253,1,90,0|0,0:0|0:0,0:0:0:0:
86,162,214483,2,0,P|96:121|138:77,1,90,0|0,0:0|0:0,0:0:0:0:
244,85,214718,2,0,P|273:114|290:172,1,90,0|0,0:0|0:0,0:0:0:0:
149,267,214953,2,0,P|110:253|70:208,1,90,0|0,0:0|0:0,0:0:0:0:
112,83,215189,2,0,P|144:56|203:44,1,90,0|0,0:0|0:0,0:0:0:0:
298,149,215424,2,0,P|305:190|286:248,1,90,0|0,0:0|0:0,0:0:0:0:
320,343,215659,5,0,0:0:0:0:
337,342,215717,1,0,0:0:0:0:
355,342,215776,1,0,0:0:0:0:
369,336,215835,1,0,0:0:0:0:
377,322,215894,1,0,0:0:0:0:
395,325,215953,1,0,0:0:0:0:
404,313,216011,1,0,0:0:0:0:
413,303,216070,1,0,0:0:0:0:
431,303,216129,1,0,0:0:0:0:
441,292,216188,1,0,0:0:0:0:
445,274,216247,1,0,0:0:0:0:
462,269,216306,1,0,0:0:0:0:
464,255,216364,5,0,0:0:0:0:
461,240,216423,1,0,0:0:0:0:
478,234,216482,1,0,0:0:0:0:
476,216,216541,1,0,0:0:0:0:
477,199,216600,1,0,0:0:0:0:
486,185,216659,1,0,0:0:0:0:
479,168,216717,1,0,0:0:0:0:
483,151,216776,1,0,0:0:0:0:
481,134,216835,1,0,0:0:0:0:
475,118,216894,1,0,0:0:0:0:
474,100,216953,1,0,0:0:0:0:
457,95,217011,1,0,0:0:0:0:
447,84,217070,5,0,0:0:0:0:
444,67,217129,1,0,0:0:0:0:
430,61,217188,1,0,0:0:0:0:
423,50,217247,1,0,0:0:0:0:
415,40,217306,1,0,0:0:0:0:
397,38,217364,1,0,0:0:0:0:
383,30,217424,2,0,B|369:28|369:28|360:12|360:12|340:16|340:16|332:5,5,45,0|0|0|0|0|0,0:0|0:0|0:0|0:0|0:0|0:0,0:0:0:0:
368,132,217777,2,0,B|359:120|359:120|364:103|364:103|347:91|347:91|349:78,5,45,0|0|0|0|0|0,0:0|0:0|0:0|0:0|0:0|0:0,0:0:0:0:
282,188,218130,2,0,B|284:174|284:174|300:165|300:165|296:145|296:145|307:137,5,45,0|0|0|0|0|0,0:0|0:0|0:0|0:0|0:0|0:0,0:0:0:0:
200,154,218483,5,0,0:0:0:0:
182,154,218541,1,0,0:0:0:0:
170,141,218600,1,0,0:0:0:0:
157,132,218659,1,0,0:0:0:0:
142,141,218718,1,0,0:0:0:0:
125,142,218777,1,0,0:0:0:0:
108,136,218835,1,0,0:0:0:0:
96,146,218894,1,0,0:0:0:0:
85,158,218953,1,0,0:0:0:0:
67,156,219012,1,0,0:0:0:0:
53,160,219071,1,0,0:0:0:0:
45,177,219130,1,0,0:0:0:0:
30,184,219188,5,0,0:0:0:0:
16,190,219247,1,0,0:0:0:0:
18,208,219306,1,0,0:0:0:0:
13,224,219365,1,0,0:0:0:0:
1,237,219424,1,0,0:0:0:0:
10,253,219483,1,0,0:0:0:0:
9,270,219541,1,0,0:0:0:0:
14,282,219600,1,0,0:0:0:0:
29,288,219659,1,0,0:0:0:0:
29,306,219718,1,0,0:0:0:0:
45,309,219777,1,0,0:0:0:0:
55,323,219835,1,0,0:0:0:0:
68,334,219894,5,0,0:0:0:0:
85,328,219953,1,0,0:0:0:0:
101,331,220012,1,0,0:0:0:0:
117,333,220071,1,0,0:0:0:0:
135,328,220130,1,0,0:0:0:0:
147,340,220188,1,0,0:0:0:0:
163,341,220247,1,0,0:0:0:0:
179,345,220306,1,0,0:0:0:0:
193,355,220365,2,0,P|238:349|298:358,1,90,0|0,0:0|0:0,0:0:0:0:
286,274,220600,2,0,P|241:268|181:277,1,90,0|0,0:0|0:0,0:0:0:0:
198,193,220836,2,0,P|243:187|303:196,1,90,0|0,0:0|0:0,0:0:0:0:
291,112,221071,2,0,P|246:106|186:115,1,90,0|0,0:0|0:0,0:0:0:0:
366,125,221306,5,0,0:0:0:0:
382,132,221364,1,0,0:0:0:0:
398,129,221423,1,0,0:0:0:0:
415,125,221482,1,0,0:0:0:0:
430,131,221541,1,0,0:0:0:0:
445,120,221600,1,0,0:0:0:0:
460,127,221658,1,0,0:0:0:0:
470,115,221717,1,0,0:0:0:0:
486,121,221776,1,0,0:0:0:0:
485,104,221835,1,0,0:0:0:0:
467,100,221894,1,0,0:0:0:0:
463,85,221953,1,0,0:0:0:0:
450,82,222011,1,0,0:0:0:0:
437,75,222070,1,0,0:0:0:0:
427,64,222129,1,0,0:0:0:0:
412,72,222188,1,0,0:0:0:0:
403,56,222247,1,0,0:0:0:0:
386,62,222306,1,0,0:0:0:0:
374,55,222364,1,0,0:0:0:0:
362,51,222423,1,0,0:0:0:0:
349,54,222482,1,0,0:0:0:0:
337,43,222541,1,0,0:0:0:0:
320,49,222600,1,0,0:0:0:0:
309,37,222658,1,0,0:0:0:0:
294,36,222717,1,0,0:0:0:0:
276,37,222776,1,0,0:0:0:0:
261,28,222835,1,0,0:0:0:0:
245,33,222894,1,0,0:0:0:0:
229,34,222953,1,0,0:0:0:0:
213,33,223011,1,0,0:0:0:0:
198,40,223070,1,0,0:0:0:0:
181,39,223129,1,0,0:0:0:0:
166,43,223188,1,0,0:0:0:0:
149,36,223247,1,0,0:0:0:0:
135,45,223306,1,0,0:0:0:0:
120,47,223364,1,0,0:0:0:0:
103,42,223423,1,0,0:0:0:0:
87,50,223482,1,0,0:0:0:0:
71,46,223541,1,0,0:0:0:0:
54,45,223600,1,0,0:0:0:0:
37,51,223658,1,0,0:0:0:0:
20,48,223717,1,0,0:0:0:0:
16,59,223776,1,0,0:0:0:0:
17,77,223835,1,0,0:0:0:0:
11,93,223894,1,0,0:0:0:0:
1,108,223953,1,0,0:0:0:0:
14,109,224011,1,0,0:0:0:0:
29,112,224070,1,0,0:0:0:0:
43,119,224129,1,0,0:0:0:0:
59,119,224188,1,0,0:0:0:0:
73,125,224247,1,0,0:0:0:0:
89,120,224306,1,0,0:0:0:0:
105,129,224364,1,0,0:0:0:0:
122,126,224423,1,0,0:0:0:0:
131,142,224482,1,0,0:0:0:0:
144,153,224541,1,0,0:0:0:0:
145,171,224600,1,0,0:0:0:0:
158,183,224658,1,0,0:0:0:0:
171,194,224717,1,0,0:0:0:0:
173,211,224776,1,0,0:0:0:0:
186,224,224835,1,0,0:0:0:0:
222,286,224953,5,0,0:0:0:0:
273,337,225071,1,0,0:0:0:0:
342,355,225189,1,0,0:0:0:0:
412,337,225306,1,0,0:0:0:0:
463,286,225424,1,0,0:0:0:0:
482,216,225542,1,0,0:0:0:0:
440,78,225777,1,0,0:0:0:0:
296,89,226012,1,0,0:0:0:0:
166,25,226247,1,0,0:0:0:0:
