osu file format v6

[General]
AudioFilename: 04 Go Your Own Way.mp3
AudioLeadIn: 0
PreviewTime: 137336
Countdown: 1
SampleSet: Normal
StackLeniency: 1
Mode: 0
LetterboxInBreaks: 0

[Editor]
DistanceSpacing: 0.800000011920929
BeatDivisor: 4
GridSize: 64

[Metadata]
Title:Go Your Own Way
Artist:Fleetwood Mac
Creator:VampiricPadraig
Version:Easy
Source:
Tags:

[Difficulty]
HPDrainRate:0
CircleSize:4
OverallDifficulty:0
SliderMultiplier:1.4
SliderTickRate:1

[Events]
//Background and Video events
0,0,"SSFMRumoursB.jpg"
//Break Periods
2,23565,30104
2,44554,58422
2,73051,79581
2,103364,106312
//Storyboard Layer 0 (Background)
//Storyboard Layer 1 (Fail)
//Storyboard Layer 2 (Pass)
//Storyboard Layer 3 (Foreground)
//Storyboard Sound Samples
//Background Colour Transformations
3,100,251,26,31

[TimingPoints]
190,442.923902714081,4,1,0,100,1,0
3733,441.176470588235,4,1,0,100,1,0
23144,434.276470588235,4,1,0,100,1,0
24881,438.960439560439,4,1,0,100,1,0
31904,440.760439560439,4,1,0,100,1,0
60112,443.120439560439,4,1,0,100,1,0
88471,447.12043956044,4,1,0,100,1,0
92047,443.320439560439,4,1,0,100,1,0
100913,429.020439560439,4,1,0,100,1,0
102629,437.420439560441,4,1,0,100,1,0
106128,442.22043956044,4,1,0,100,1,0
107896,433.52043956044,4,1,0,100,1,0
109630,445.52043956044,4,1,0,100,1,0
122104,440.42043956044,4,1,0,100,1,0
123865,443.12043956044,4,1,0,100,1,0
129182,446.720439560441,4,1,0,100,1,0
130968,443.220439560441,4,1,0,100,1,0
187700,438.02043956044,4,1,0,100,1,0
192956,444.02043956044,4,1,0,100,1,0
194732,446.120439560441,4,1,0,100,1,0
200085,442.62043956044,4,1,0,100,1,0

[Colours]
Combo1 : 190,150,150
Combo2 : 150,190,150
Combo3 : 150,150,190
Combo4 : 100,100,100

[HitObjects]
64,64,9027,1,8
128,128,9468,1,0
192,64,9909,1,8
256,128,10350,1,0
192,192,10791,1,12
415,195,11674,5,8
378,300,12115,2,0,B|122:300,1,140
126,287,13052,1,0
191,196,13438,1,8
286,137,13954,1,0
226,43,14431,1,8
114,33,14872,1,0
33,111,15313,1,8
67,217,15755,2,12,B|195:89,1,140
128,256,18512,5,0
128,128,18953,2,8,B|320:128,1,140
384,64,20277,5,0
256,64,20718,1,8
192,192,21159,1,0
320,192,21600,1,8
320,320,22041,1,0
192,256,22482,1,0
64,256,22924,2,0,B|128:64,1,140
69,77,31904,5,8
296,187,32895,5,0
221,103,33336,1,0
109,95,33777,1,0
56,193,34254,1,0
110,290,34658,2,0,B|379:87,2,280
222,289,36972,5,0
319,234,37412,1,0
363,131,37854,1,0
256,64,38295,2,0,B|34:139|179:307,1,280
59,95,40168,5,0
164,57,40609,1,0
275,60,41049,1,0
358,134,41490,1,0
383,242,41931,2,0,B|57:254|272:127,1,280
192,192,43033,1,0
84,168,43473,1,0
69,279,43914,2,0,B|257:226,1,140
212,117,60222,5,0
320,128,60887,5,0
448,192,61109,1,0
273,305,61441,2,0,B|17:305,1,210
217,38,62549,1,0
81,20,62770,1,0
320,192,63213,1,0
320,190,63435,1,0
64,256,63878,1,0
192,192,64100,1,0
0,128,64432,2,0,B|132:-67|328:190|8:-41|256:-97|291:57|135:157|30:-5|-9:76|339:145|347:229|82:222|388:230|66:209|322:85|5:125|-2:124,1,630
88,141,67976,5,0
162,84,68198,1,0
256,64,68420,2,0,B|262:259|257:34,1,175
448,256,69639,1,0
384,192,69860,1,0
320,256,70082,2,0,B|430:106,5,175
252,162,81381,5,0
64,128,82489,5,0
126,124,82932,1,0
139,203,83375,1,0
199,252,83818,1,0
252,317,84262,2,0,B|-4:317,1,245
64,64,86699,5,0
192,64,87142,1,0
320,64,87585,1,0
192,128,88139,2,0,B|320:192|448:64,1,280
128,64,89700,5,0
256,64,90147,1,0
384,64,90594,1,0
384,192,91096,1,0
256,192,91489,2,0,B|384:128,2,140
182,35,93155,1,0
122,137,93598,1,0
76,169,93820,2,0,B|268:297,1,280
128,64,96480,5,0
128,192,96923,1,0
256,256,97366,1,0
320,128,97810,1,0
384,256,98253,2,0,B|64:256|0:64|256:64|256:320|384:320|448:320,1,630
128,64,101021,5,0
256,128,101342,1,0
192,64,101556,1,0
384,128,101985,2,0,B|64:192,1,385
192,128,108112,5,0
320,128,108690,1,0
384,256,109304,1,0
256,208,109705,12,0,112975
256,208,115199,12,0,118921
256,208,122104,12,0,127404
256,208,129329,12,0,131133
192,128,131965,5,0
256,192,132408,1,0
384,192,133073,1,0
347,178,133294,1,0
320,256,133738,1,0
256,320,134181,2,0,B|384:192,1,350
64,128,135954,5,0
192,192,136434,1,0
320,192,136840,1,0
256,320,137283,2,0,B|384:320,1,280
