osu file format v12

[General]
AudioFilename: fffff.mp3
AudioLeadIn: 2000
PreviewTime: 43701
Countdown: 0
SampleSet: None
StackLeniency: 0.7
Mode: 1
LetterboxInBreaks: 0
WidescreenStoryboard: 0

[Editor]
Bookmarks: 393,43701,72569,109561,139335,168207,197981,226853
DistanceSpacing: 1
BeatDivisor: 8
GridSize: 32

[Metadata]
Title:fffff (Long Ver)
TitleUnicode:
Artist:Five Hammer(seiya-murai)
ArtistUnicode:
Creator:Rappu
Version:-[ ix IshidaRappunari xi ]-
Source:Pop'n music
Tags:-[ ix Ishida xi ]-
BeatmapID:383117
BeatmapSetID:156329

[Difficulty]
HPDrainRate:5
CircleSize:5
OverallDifficulty:5
ApproachRate:5
SliderMultiplier:2
SliderTickRate:1

[Events]
//Background and Video events
0,0,"piano-wallpaper-4.jpg",0,0
//Break Periods
//Storyboard Layer 0 (Background)
//Storyboard Layer 1 (Fail)
//Storyboard Layer 2 (Pass)
//Storyboard Layer 3 (Foreground)
//Storyboard Sound Samples
//Background Colour Transformations
3,100,163,162,255

[TimingPoints]
393,451.127819548872,4,1,0,15,1,0
393,-142.857142857143,4,1,0,15,0,0
7611,-125,4,1,0,30,0,0
11220,-111.111111111111,4,1,0,30,0,0
14829,-100,4,1,0,30,0,0
29265,-90.9090909090909,4,1,0,50,0,0
36483,-83.3333333333333,4,1,0,50,0,0
42799,-50,4,1,0,50,0,1
42855,-100,4,1,0,50,0,0
43137,-50,4,1,0,50,0,1
43193,-100,4,1,0,50,0,0
43362,-50,4,1,0,50,0,1
43419,-100,4,1,0,50,0,0
72118,112.781954887218,4,1,0,100,1,0
72569,451.127819548872,4,1,0,100,1,0
72625,-100,4,1,0,50,0,0
87005,-83.3333333333333,4,1,0,50,0,1
101384,-83.3333333333333,4,1,0,50,0,0
101441,-66.6666666666667,4,1,0,50,0,1
101497,-100,4,1,0,50,0,0
105050,-90.9090909090909,4,1,0,50,0,0
106854,-83.3333333333333,4,1,0,50,0,0
107756,-71.4285714285714,4,1,0,50,0,0
108208,-50,4,1,0,50,0,1
108264,-50,4,1,0,50,0,0
108320,-50,4,1,0,50,0,1
108377,-50,4,1,0,50,0,0
108433,-50,4,1,0,50,0,1
108490,-50,4,1,0,50,0,0
108546,-50,4,1,0,50,0,1
108602,-50,4,1,0,50,0,0
108659,-133.333333333333,4,1,0,50,0,0
109505,-117.647058823529,4,1,0,50,0,0
109561,-100,4,1,0,50,0,0
136629,150.375939849624,4,1,0,70,1,0
137531,112.781954887218,4,1,0,100,1,0
139335,451.127819548872,4,1,0,50,1,0
212417,-83.3333333333333,4,1,0,50,0,1
226797,-83.3333333333333,4,1,0,50,0,0
226853,-71.4285714285714,4,1,0,50,0,1
241233,-71.4285714285714,4,1,0,50,0,0
241289,-50,4,1,0,50,0,1
241346,-100,4,1,0,50,0,0
249184,90.2255639097744,4,1,0,100,1,0

[HitObjects]
256,192,393,1,0,0:0:0:0:
320,192,618,1,2,0:0:0:0:
224,160,956,1,0,0:0:0:0:
256,160,1069,1,2,0:0:0:0:
320,160,1295,1,0,0:0:0:0:
384,160,1520,1,2,0:0:0:0:
416,192,1633,1,0,0:0:0:0:
416,192,1746,1,0,0:0:0:0:
448,256,1971,1,2,0:0:0:0:
448,192,2197,1,0,0:0:0:0:
416,160,2310,1,0,0:0:0:0:
416,192,2423,1,2,0:0:0:0:
416,224,2535,1,0,0:0:0:0:
352,256,2761,1,0,0:0:0:0:
416,192,2874,1,2,0:0:0:0:
448,192,3099,1,0,0:0:0:0:
480,256,3325,1,2,0:0:0:0:
416,192,3438,1,0,0:0:0:0:
384,224,3550,1,0,0:0:0:0:
384,224,3663,1,0,0:0:0:0:
448,192,3776,1,2,0:0:0:0:
416,128,4002,1,0,0:0:0:0:
416,224,4114,1,0,0:0:0:0:
448,224,4227,1,2,0:0:0:0:
416,192,4340,1,0,0:0:0:0:
416,192,4453,1,2,0:0:0:0:
416,192,4565,1,2,0:0:0:0:
448,192,4678,1,0,0:0:0:0:
416,224,4791,1,2,0:0:0:0:
480,192,5017,1,0,0:0:0:0:
448,224,5129,1,2,0:0:0:0:
416,224,5242,1,0,0:0:0:0:
416,192,5355,1,2,0:0:0:0:
416,192,5468,1,2,0:0:0:0:
448,192,5580,1,0,0:0:0:0:
416,160,5693,1,2,0:0:0:0:
448,160,5806,1,0,0:0:0:0:
416,128,5919,1,0,0:0:0:0:
416,160,6032,1,2,0:0:0:0:
448,224,6144,1,0,0:0:0:0:
448,224,6257,1,2,0:0:0:0:
448,192,6370,1,0,0:0:0:0:
416,160,6483,1,0,0:0:0:0:
448,192,6596,1,2,0:0:0:0:
448,160,6708,1,0,0:0:0:0:
448,160,6821,1,0,0:0:0:0:
448,192,6934,1,2,0:0:0:0:
416,224,7047,1,0,0:0:0:0:
448,192,7159,1,2,0:0:0:0:
416,160,7272,1,2,0:0:0:0:
448,160,7385,1,0,0:0:0:0:
480,192,7498,1,2,0:0:0:0:
448,224,7611,1,4,0:0:0:0:
416,160,7723,1,0,0:0:0:0:
416,192,7780,1,0,0:0:0:0:
448,160,7836,1,2,0:0:0:0:
448,192,7949,1,0,0:0:0:0:
480,160,8062,1,2,0:0:0:0:
416,192,8174,1,2,0:0:0:0:
448,192,8287,1,0,0:0:0:0:
448,192,8400,1,2,0:0:0:0:
480,192,8513,1,4,0:0:0:0:
448,192,8626,1,0,0:0:0:0:
448,192,8682,1,0,0:0:0:0:
448,192,8738,1,2,0:0:0:0:
416,224,8851,1,0,0:0:0:0:
448,192,8964,1,2,0:0:0:0:
416,224,9077,1,2,0:0:0:0:
448,192,9189,1,0,0:0:0:0:
448,160,9302,1,2,0:0:0:0:
416,192,9415,1,4,0:0:0:0:
416,224,9528,1,0,0:0:0:0:
416,224,9584,1,0,0:0:0:0:
416,224,9641,1,2,0:0:0:0:
448,160,9753,1,0,0:0:0:0:
416,224,9866,1,2,0:0:0:0:
416,192,9979,1,2,0:0:0:0:
448,192,10092,1,0,0:0:0:0:
448,192,10148,1,0,0:0:0:0:
448,192,10205,1,2,0:0:0:0:
480,192,10317,1,4,0:0:0:0:
448,192,10430,1,0,0:0:0:0:
416,192,10486,1,0,0:0:0:0:
448,192,10543,1,2,0:0:0:0:
448,192,10656,1,0,0:0:0:0:
416,224,10768,1,2,0:0:0:0:
416,224,10881,1,2,0:0:0:0:
448,192,10994,1,2,0:0:0:0:
448,192,11050,1,0,0:0:0:0:
416,192,11107,1,2,0:0:0:0:
416,160,11220,1,4,0:0:0:0:
480,160,11445,1,2,0:0:0:0:
416,192,11671,1,0,0:0:0:0:
416,192,11783,1,0,0:0:0:0:
448,160,11896,1,2,0:0:0:0:
384,192,12122,1,0,0:0:0:0:
416,224,12235,1,0,0:0:0:0:
416,224,12291,1,0,0:0:0:0:
416,224,12347,1,2,0:0:0:0:
384,224,12460,1,2,0:0:0:0:
416,192,12573,1,0,0:0:0:0:
416,192,12686,1,0,0:0:0:0:
448,224,12799,1,2,0:0:0:0:
416,224,12911,1,2,0:0:0:0:
416,224,12968,1,2,0:0:0:0:
416,224,13024,1,0,0:0:0:0:
416,224,13137,1,0,0:0:0:0:
448,192,13250,1,2,0:0:0:0:
416,224,13362,1,0,0:0:0:0:
416,224,13419,1,0,0:0:0:0:
448,160,13475,1,2,0:0:0:0:
384,224,13588,1,2,0:0:0:0:
448,224,13701,1,0,0:0:0:0:
448,192,13814,1,2,0:0:0:0:
416,160,13926,1,0,0:0:0:0:
416,192,13983,1,0,0:0:0:0:
416,192,14039,1,0,0:0:0:0:
448,192,14152,1,2,0:0:0:0:
448,224,14265,1,0,0:0:0:0:
448,224,14321,1,0,0:0:0:0:
448,192,14377,1,2,0:0:0:0:
416,224,14490,1,2,0:0:0:0:
448,160,14603,1,0,0:0:0:0:
448,192,14716,1,2,0:0:0:0:
416,224,14829,1,4,0:0:0:0:
416,192,14904,1,0,0:0:0:0:
384,192,14979,1,0,0:0:0:0:
416,192,15054,1,2,0:0:0:0:
448,192,15129,1,0,0:0:0:0:
416,192,15205,1,0,0:0:0:0:
416,160,15280,1,0,0:0:0:0:
416,160,15355,1,0,0:0:0:0:
416,160,15430,1,0,0:0:0:0:
448,160,15505,1,2,0:0:0:0:
480,192,15580,1,0,0:0:0:0:
448,160,15656,1,0,0:0:0:0:
416,192,15731,1,0,0:0:0:0:
448,192,15806,1,2,0:0:0:0:
448,192,15881,1,0,0:0:0:0:
448,192,15956,1,2,0:0:0:0:
448,160,16032,1,0,0:0:0:0:
416,160,16107,1,0,0:0:0:0:
384,192,16182,1,0,0:0:0:0:
384,192,16257,1,0,0:0:0:0:
384,192,16332,1,0,0:0:0:0:
448,192,16408,1,2,0:0:0:0:
448,160,16483,1,0,0:0:0:0:
448,160,16558,1,0,0:0:0:0:
448,192,16633,1,2,0:0:0:0:
448,160,16708,1,0,0:0:0:0:
448,192,16783,1,2,0:0:0:0:
480,192,16859,1,0,0:0:0:0:
448,192,16934,1,2,0:0:0:0:
448,160,17009,1,0,0:0:0:0:
448,192,17084,1,2,0:0:0:0:
448,192,17159,1,0,0:0:0:0:
416,192,17235,1,0,0:0:0:0:
448,192,17310,1,2,0:0:0:0:
416,192,17385,1,0,0:0:0:0:
416,192,17460,1,0,0:0:0:0:
448,160,17535,1,2,0:0:0:0:
416,160,17611,1,2,0:0:0:0:
416,192,17686,1,2,0:0:0:0:
384,192,17761,1,0,0:0:0:0:
416,192,17836,1,0,0:0:0:0:
416,192,17911,1,0,0:0:0:0:
416,192,17986,1,2,0:0:0:0:
448,160,18062,1,0,0:0:0:0:
448,160,18137,1,0,0:0:0:0:
448,192,18212,1,2,0:0:0:0:
448,224,18287,1,0,0:0:0:0:
416,192,18362,1,0,0:0:0:0:
448,192,18438,1,2,0:0:0:0:
416,192,18513,1,2,0:0:0:0:
448,192,18588,1,0,0:0:0:0:
416,192,18663,1,2,0:0:0:0:
416,192,18738,1,2,0:0:0:0:
416,224,18814,1,0,0:0:0:0:
448,224,18889,1,2,0:0:0:0:
448,192,18964,1,0,0:0:0:0:
448,192,19039,1,0,0:0:0:0:
480,192,19114,1,2,0:0:0:0:
448,160,19189,1,0,0:0:0:0:
416,160,19265,1,0,0:0:0:0:
416,192,19340,1,0,0:0:0:0:
416,224,19415,1,0,0:0:0:0:
384,224,19490,1,0,0:0:0:0:
416,224,19565,1,2,0:0:0:0:
416,192,19641,1,0,0:0:0:0:
448,192,19716,1,0,0:0:0:0:
448,192,19791,1,2,0:0:0:0:
448,192,19866,1,0,0:0:0:0:
416,192,19941,1,0,0:0:0:0:
448,192,20017,1,2,0:0:0:0:
416,192,20092,1,2,0:0:0:0:
448,192,20167,1,0,0:0:0:0:
448,192,20242,1,2,0:0:0:0:
448,192,20317,1,0,0:0:0:0:
416,192,20392,1,0,0:0:0:0:
448,192,20468,1,2,0:0:0:0:
448,224,20543,1,0,0:0:0:0:
448,192,20618,1,2,0:0:0:0:
416,192,20693,1,2,0:0:0:0:
448,160,20768,1,0,0:0:0:0:
416,192,20844,1,0,0:0:0:0:
448,192,20919,1,2,0:0:0:0:
416,192,20994,1,0,0:0:0:0:
416,224,21069,1,0,0:0:0:0:
416,256,21144,1,2,0:0:0:0:
448,160,21220,1,2,0:0:0:0:
480,160,21295,1,0,0:0:0:0:
480,192,21370,1,2,0:0:0:0:
448,192,21445,1,2,0:0:0:0:
416,224,21520,1,0,0:0:0:0:
448,192,21596,1,2,0:0:0:0:
448,224,21671,1,0,0:0:0:0:
416,192,21746,1,0,0:0:0:0:
448,224,21821,1,2,0:0:0:0:
448,160,21896,1,0,0:0:0:0:
416,160,21971,1,0,0:0:0:0:
416,192,22047,1,0,0:0:0:0:
448,192,22122,1,2,0:0:0:0:
448,192,22197,1,0,0:0:0:0:
448,192,22272,1,0,0:0:0:0:
480,192,22347,1,2,0:0:0:0:
448,192,22423,1,0,0:0:0:0:
416,192,22498,1,2,0:0:0:0:
416,160,22573,1,0,0:0:0:0:
416,160,22648,1,0,0:0:0:0:
480,192,22723,1,2,0:0:0:0:
416,224,22799,1,0,0:0:0:0:
448,224,22874,1,0,0:0:0:0:
448,160,22949,1,2,0:0:0:0:
416,224,23024,1,2,0:0:0:0:
448,192,23099,1,0,0:0:0:0:
416,192,23174,1,2,0:0:0:0:
416,192,23250,1,2,0:0:0:0:
448,192,23325,1,0,0:0:0:0:
416,192,23400,1,0,0:0:0:0:
448,192,23475,1,0,0:0:0:0:
448,192,23550,1,2,0:0:0:0:
416,192,23626,1,0,0:0:0:0:
416,192,23701,1,0,0:0:0:0:
448,224,23776,1,2,0:0:0:0:
416,192,23851,1,0,0:0:0:0:
416,224,23926,1,2,0:0:0:0:
416,224,24002,1,2,0:0:0:0:
480,192,24077,1,0,0:0:0:0:
480,192,24152,1,2,0:0:0:0:
448,192,24227,1,2,0:0:0:0:
448,192,24302,1,2,0:0:0:0:
448,160,24377,1,0,0:0:0:0:
416,192,24453,1,0,0:0:0:0:
448,192,24528,1,2,0:0:0:0:
416,224,24603,1,0,0:0:0:0:
416,224,24678,1,0,0:0:0:0:
448,224,24753,1,0,0:0:0:0:
416,192,24829,1,2,0:0:0:0:
416,192,24904,1,2,0:0:0:0:
448,192,24979,1,0,0:0:0:0:
416,192,25054,1,2,0:0:0:0:
384,192,25129,1,2,0:0:0:0:
448,160,25205,1,0,0:0:0:0:
416,192,25317,1,0,0:0:0:0:
384,224,25430,1,0,0:0:0:0:
384,224,25486,1,0,0:0:0:0:
384,224,25543,1,0,0:0:0:0:
448,192,25656,1,6,0:0:0:0:
448,160,25768,1,0,0:0:0:0:
448,160,25825,1,0,0:0:0:0:
448,160,25881,1,0,0:0:0:0:
480,192,25994,1,2,0:0:0:0:
448,160,26107,1,0,0:0:0:0:
416,192,26163,1,0,0:0:0:0:
384,192,26220,1,0,0:0:0:0:
416,192,26332,1,2,0:0:0:0:
448,160,26445,1,0,0:0:0:0:
416,160,26502,1,0,0:0:0:0:
416,192,26558,1,2,0:0:0:0:
416,160,26633,1,2,0:0:0:0:
416,128,26708,1,2,0:0:0:0:
384,128,26783,1,0,0:0:0:0:
352,128,26859,1,0,0:0:0:0:
320,128,26934,1,0,0:0:0:0:
416,160,27009,1,2,0:0:0:0:
416,160,27084,1,2,0:0:0:0:
416,160,27159,1,2,0:0:0:0:
448,160,27235,1,0,0:0:0:0:
416,160,27310,1,0,0:0:0:0:
416,160,27385,1,0,0:0:0:0:
416,192,27460,1,2,0:0:0:0:
416,224,27573,1,0,0:0:0:0:
384,224,27629,1,0,0:0:0:0:
384,224,27686,1,2,0:0:0:0:
416,224,27799,1,0,0:0:0:0:
416,224,27855,1,0,0:0:0:0:
416,192,27911,1,2,0:0:0:0:
448,160,28024,1,0,0:0:0:0:
448,160,28080,1,0,0:0:0:0:
448,192,28137,1,2,0:0:0:0:
480,192,28212,1,0,0:0:0:0:
448,192,28287,1,0,0:0:0:0:
448,160,28362,1,0,0:0:0:0:
416,160,28475,1,0,0:0:0:0:
416,160,28532,1,0,0:0:0:0:
448,160,28588,1,2,0:0:0:0:
448,192,28701,1,0,0:0:0:0:
448,192,28814,1,2,0:0:0:0:
416,192,28870,1,2,0:0:0:0:
416,192,28926,1,0,0:0:0:0:
416,192,29039,1,0,0:0:0:0:
384,224,29152,1,2,0:0:0:0:
480,128,29265,1,6,0:0:0:0:
448,160,29340,1,0,0:0:0:0:
448,160,29415,1,0,0:0:0:0:
480,192,29490,1,2,0:0:0:0:
448,192,29565,1,0,0:0:0:0:
416,224,29641,1,0,0:0:0:0:
448,192,29716,1,2,0:0:0:0:
448,160,29791,1,0,0:0:0:0:
448,192,29866,1,2,0:0:0:0:
416,224,29941,1,2,0:0:0:0:
448,192,30017,1,0,0:0:0:0:
448,192,30092,1,2,0:0:0:0:
448,160,30167,1,2,0:0:0:0:
448,160,30242,1,0,0:0:0:0:
416,160,30317,1,0,0:0:0:0:
448,192,30392,1,2,0:0:0:0:
480,160,30468,1,0,0:0:0:0:
448,192,30543,1,0,0:0:0:0:
448,192,30618,1,2,0:0:0:0:
448,224,30693,1,0,0:0:0:0:
448,192,30768,1,2,0:0:0:0:
416,192,30844,1,2,0:0:0:0:
448,192,30919,1,0,0:0:0:0:
416,192,30994,1,2,0:0:0:0:
448,160,31069,1,0,0:0:0:0:
448,160,31144,1,0,0:0:0:0:
416,160,31220,1,0,0:0:0:0:
448,160,31295,1,2,0:0:0:0:
448,192,31370,1,2,0:0:0:0:
480,160,31445,1,0,0:0:0:0:
448,160,31520,1,0,0:0:0:0:
448,192,31596,1,0,0:0:0:0:
416,192,31671,1,0,0:0:0:0:
480,160,31746,1,2,0:0:0:0:
448,160,31821,1,2,0:0:0:0:
448,160,31896,1,2,0:0:0:0:
448,192,31971,1,2,0:0:0:0:
480,160,32047,1,0,0:0:0:0:
416,192,32122,1,0,0:0:0:0:
448,192,32197,1,2,0:0:0:0:
448,192,32272,1,0,0:0:0:0:
448,224,32347,1,0,0:0:0:0:
480,160,32423,1,2,0:0:0:0:
448,192,32498,1,0,0:0:0:0:
416,192,32573,1,0,0:0:0:0:
480,160,32648,1,2,0:0:0:0:
448,160,32723,1,0,0:0:0:0:
448,192,32799,1,0,0:0:0:0:
416,160,32874,1,0,0:0:0:0:
480,160,32949,1,2,0:0:0:0:
448,160,33024,1,2,0:0:0:0:
448,192,33099,1,0,0:0:0:0:
448,192,33174,1,2,0:0:0:0:
416,192,33250,1,2,0:0:0:0:
480,160,33325,1,0,0:0:0:0:
448,160,33400,1,2,0:0:0:0:
448,160,33475,1,2,0:0:0:0:
480,160,33550,1,0,0:0:0:0:
448,160,33626,1,2,0:0:0:0:
416,192,33701,1,2,0:0:0:0:
384,192,33776,1,2,0:0:0:0:
384,192,33889,1,2,0:0:0:0:
384,192,33945,1,2,0:0:0:0:
384,192,34002,1,2,0:0:0:0:
384,224,34114,1,2,0:0:0:0:
416,192,34227,1,0,0:0:0:0:
384,192,34340,1,0,0:0:0:0:
384,224,34453,1,0,0:0:0:0:
384,192,34565,1,0,0:0:0:0:
416,192,34622,1,0,0:0:0:0:
448,192,34678,1,2,0:0:0:0:
448,224,34753,1,0,0:0:0:0:
448,224,34829,1,0,0:0:0:0:
480,160,34904,1,2,0:0:0:0:
448,192,34979,1,0,0:0:0:0:
448,192,35054,1,0,0:0:0:0:
448,224,35129,1,2,0:0:0:0:
448,192,35205,1,2,0:0:0:0:
448,192,35280,1,0,0:0:0:0:
448,192,35355,1,2,0:0:0:0:
448,160,35468,1,0,0:0:0:0:
448,192,35580,1,4,0:0:0:0:
480,160,35693,1,0,0:0:0:0:
448,160,35750,1,0,0:0:0:0:
416,192,35806,1,2,0:0:0:0:
448,160,35919,1,0,0:0:0:0:
416,192,36032,1,0,0:0:0:0:
384,224,36144,1,0,0:0:0:0:
384,224,36201,1,0,0:0:0:0:
448,192,36257,1,2,0:0:0:0:
448,192,36370,1,0,0:0:0:0:
448,192,36483,1,2,0:0:0:0:
480,160,36596,1,0,0:0:0:0:
448,160,36652,1,0,0:0:0:0:
448,160,36708,1,2,0:0:0:0:
448,160,36821,1,0,0:0:0:0:
416,160,36934,1,0,0:0:0:0:
384,160,37047,1,0,0:0:0:0:
352,160,37103,1,0,0:0:0:0:
384,160,37159,1,0,0:0:0:0:
416,160,37272,1,2,0:0:0:0:
448,160,37385,1,0,0:0:0:0:
448,160,37441,1,0,0:0:0:0:
416,160,37498,1,0,0:0:0:0:
384,160,37611,1,0,0:0:0:0:
352,160,37667,1,0,0:0:0:0:
320,160,37723,1,0,0:0:0:0:
448,160,37836,1,2,0:0:0:0:
416,160,37892,1,2,0:0:0:0:
416,160,37949,1,2,0:0:0:0:
416,192,38062,1,2,0:0:0:0:
416,192,38118,1,2,0:0:0:0:
416,192,38174,1,2,0:0:0:0:
448,160,38287,1,0,0:0:0:0:
416,160,38362,1,0,0:0:0:0:
416,160,38438,1,0,0:0:0:0:
416,128,38513,1,0,0:0:0:0:
416,160,38588,1,0,0:0:0:0:
384,160,38663,1,0,0:0:0:0:
448,160,38738,1,2,0:0:0:0:
416,160,38814,1,2,0:0:0:0:
416,160,38889,1,2,0:0:0:0:
416,192,38964,1,2,0:0:0:0:
416,192,39039,1,2,0:0:0:0:
416,160,39114,1,2,0:0:0:0:
416,128,39189,1,2,0:0:0:0:
416,128,39246,1,2,0:0:0:0:
416,128,39302,1,2,0:0:0:0:
416,160,39415,1,2,0:0:0:0:
416,160,39471,1,2,0:0:0:0:
416,160,39528,1,2,0:0:0:0:
448,160,39641,1,0,0:0:0:0:
416,160,39697,1,0,0:0:0:0:
416,160,39753,1,0,0:0:0:0:
416,160,39866,1,0,0:0:0:0:
416,160,39923,1,0,0:0:0:0:
416,160,39979,1,0,0:0:0:0:
448,128,40092,1,2,0:0:0:0:
416,160,40205,1,2,0:0:0:0:
416,160,40261,1,2,0:0:0:0:
416,160,40317,1,2,0:0:0:0:
416,192,40430,1,2,0:0:0:0:
384,192,40543,1,0,0:0:0:0:
352,192,40656,1,0,0:0:0:0:
352,192,40768,1,0,0:0:0:0:
352,192,40881,1,0,0:0:0:0:
384,160,40994,1,2,0:0:0:0:
416,160,41050,1,2,0:0:0:0:
416,160,41107,1,2,0:0:0:0:
448,160,41220,1,2,0:0:0:0:
384,192,41332,1,2,0:0:0:0:
384,192,41389,1,2,0:0:0:0:
384,192,41445,1,0,0:0:0:0:
416,160,41558,1,0,0:0:0:0:
448,160,41671,1,0,0:0:0:0:
448,160,41783,1,0,0:0:0:0:
480,192,41896,1,2,0:0:0:0:
448,192,41971,1,0,0:0:0:0:
416,192,42047,1,0,0:0:0:0:
448,192,42122,1,2,0:0:0:0:
448,224,42197,1,0,0:0:0:0:
416,224,42272,1,0,0:0:0:0:
416,224,42347,1,2,0:0:0:0:
448,192,42423,1,0,0:0:0:0:
416,192,42498,1,0,0:0:0:0:
448,192,42573,1,2,0:0:0:0:
448,160,42686,1,2,0:0:0:0:
448,192,42799,1,6,0:0:0:0:
448,160,42911,1,0,0:0:0:0:
416,192,43024,1,0,0:0:0:0:
480,192,43137,1,6,0:0:0:0:
448,160,43250,1,0,0:0:0:0:
480,160,43362,1,2,0:0:0:0:
448,224,43475,1,4,0:0:0:0:
256,192,43701,5,0,0:0:0:0:
256,192,43814,1,0,0:0:0:0:
256,192,43926,1,8,0:0:0:0:
256,192,44039,1,0,0:0:0:0:
256,192,44152,1,0,0:0:0:0:
256,192,44265,1,0,0:0:0:0:
256,192,44377,1,8,0:0:0:0:
256,192,44490,1,8,0:0:0:0:
256,192,44603,1,0,0:0:0:0:
256,192,44716,5,0,0:0:0:0:
256,192,44829,1,8,0:0:0:0:
256,192,44941,1,0,0:0:0:0:
256,192,45054,1,8,0:0:0:0:
256,192,45167,1,0,0:0:0:0:
256,192,45280,1,8,0:0:0:0:
256,192,45392,1,8,0:0:0:0:
256,192,45505,1,0,0:0:0:0:
256,192,45618,1,0,0:0:0:0:
256,192,45731,5,8,0:0:0:0:
256,192,45844,1,0,0:0:0:0:
256,192,45956,1,8,0:0:0:0:
256,192,46069,1,8,0:0:0:0:
256,192,46182,1,0,0:0:0:0:
256,192,46295,1,8,0:0:0:0:
256,192,46407,1,0,0:0:0:0:
256,192,46520,1,8,0:0:0:0:
256,192,46633,1,8,0:0:0:0:
256,192,46746,5,8,0:0:0:0:
256,192,46859,1,0,0:0:0:0:
256,192,46971,1,0,0:0:0:0:
256,192,47084,1,8,0:0:0:0:
256,192,47197,1,8,0:0:0:0:
256,192,47310,1,0,0:0:0:0:
256,192,47422,1,0,0:0:0:0:
256,192,47535,1,8,0:0:0:0:
256,192,47648,1,0,0:0:0:0:
256,192,47761,5,0,0:0:0:0:
256,192,47874,1,0,0:0:0:0:
256,192,47986,1,8,0:0:0:0:
256,192,48099,1,0,0:0:0:0:
256,192,48212,1,8,0:0:0:0:
256,192,48325,1,0,0:0:0:0:
256,192,48437,1,0,0:0:0:0:
256,192,48550,1,8,0:0:0:0:
256,192,48663,1,0,0:0:0:0:
256,192,48776,5,0,0:0:0:0:
256,192,48889,1,8,0:0:0:0:
256,192,49001,1,0,0:0:0:0:
256,192,49114,1,8,0:0:0:0:
256,192,49189,1,0,0:0:0:0:
256,192,49265,1,0,0:0:0:0:
256,192,49340,1,8,0:0:0:0:
256,192,49415,1,0,0:0:0:0:
256,192,49490,1,0,0:0:0:0:
256,192,49565,1,8,0:0:0:0:
256,192,49641,1,0,0:0:0:0:
256,192,49716,1,0,0:0:0:0:
256,192,49791,1,8,0:0:0:0:
256,192,49866,1,0,0:0:0:0:
256,192,49941,1,0,0:0:0:0:
256,192,50017,1,8,0:0:0:0:
256,192,50242,1,0,0:0:0:0:
256,192,50355,1,0,0:0:0:0:
256,192,50468,1,0,0:0:0:0:
256,192,50693,1,0,0:0:0:0:
256,192,50919,1,0,0:0:0:0:
256,192,51144,1,8,0:0:0:0:
256,192,51370,1,0,0:0:0:0:
256,192,51483,1,0,0:0:0:0:
256,192,51596,1,8,0:0:0:0:
256,192,51821,1,0,0:0:0:0:
256,192,52047,1,8,0:0:0:0:
256,192,52159,1,0,0:0:0:0:
256,192,52385,1,0,0:0:0:0:
256,192,52498,1,8,0:0:0:0:
256,192,52611,1,8,0:0:0:0:
256,192,52723,1,0,0:0:0:0:
256,192,52949,1,8,0:0:0:0:
256,192,53174,1,0,0:0:0:0:
256,192,53287,1,0,0:0:0:0:
256,192,53400,1,8,0:0:0:0:
256,192,53626,1,0,0:0:0:0:
256,192,53738,1,8,0:0:0:0:
256,192,53851,1,8,0:0:0:0:
256,192,53964,1,8,0:0:0:0:
256,192,54189,1,0,0:0:0:0:
256,192,54302,1,8,0:0:0:0:
256,192,54528,1,0,0:0:0:0:
256,192,54753,1,8,0:0:0:0:
256,192,54979,1,0,0:0:0:0:
256,192,55092,1,0,0:0:0:0:
256,192,55205,1,8,0:0:0:0:
256,192,55430,1,0,0:0:0:0:
256,192,55543,1,0,0:0:0:0:
256,192,55656,1,8,0:0:0:0:
256,192,55768,1,0,0:0:0:0:
256,192,55994,1,0,0:0:0:0:
256,192,56107,1,8,0:0:0:0:
256,192,56332,1,8,0:0:0:0:
256,192,56408,1,0,0:0:0:0:
256,192,56483,1,8,0:0:0:0:
256,192,56558,1,0,0:0:0:0:
256,192,56633,1,8,0:0:0:0:
256,192,56708,1,0,0:0:0:0:
256,192,56783,1,8,0:0:0:0:
256,192,56859,1,0,0:0:0:0:
256,192,56934,1,8,0:0:0:0:
256,192,57009,1,0,0:0:0:0:
256,192,57235,1,8,0:0:0:0:
256,192,57347,1,8,0:0:0:0:
256,192,57460,1,0,0:0:0:0:
256,192,57573,1,0,0:0:0:0:
256,192,57686,1,0,0:0:0:0:
256,192,57911,1,8,0:0:0:0:
256,192,58137,1,0,0:0:0:0:
256,192,58362,1,8,0:0:0:0:
256,192,58588,1,0,0:0:0:0:
256,192,58701,1,0,0:0:0:0:
256,192,58814,1,8,0:0:0:0:
256,192,59039,1,4,0:0:0:0:
256,192,59265,1,8,0:0:0:0:
256,192,59377,1,0,0:0:0:0:
256,192,59603,1,0,0:0:0:0:
256,192,59716,1,8,0:0:0:0:
256,192,59941,1,4,0:0:0:0:
256,192,60167,1,8,0:0:0:0:
256,192,60280,1,8,0:0:0:0:
256,192,60505,1,0,0:0:0:0:
256,192,60618,1,8,0:0:0:0:
256,192,60844,1,4,0:0:0:0:
256,192,61069,1,8,0:0:0:0:
256,192,61182,1,0,0:0:0:0:
256,192,61408,1,0,0:0:0:0:
256,192,61520,1,8,0:0:0:0:
256,192,61746,1,0,0:0:0:0:
256,192,61971,1,8,0:0:0:0:
256,192,62197,1,0,0:0:0:0:
256,192,62310,1,0,0:0:0:0:
256,192,62423,1,8,0:0:0:0:
256,192,62648,1,4,0:0:0:0:
256,192,62874,1,0,0:0:0:0:
256,192,62986,1,8,0:0:0:0:
256,192,63212,1,0,0:0:0:0:
256,192,63325,1,8,0:0:0:0:
256,192,63550,1,4,0:0:0:0:
256,192,63776,1,0,0:0:0:0:
256,192,63889,1,0,0:0:0:0:
256,192,64114,1,0,0:0:0:0:
256,192,64227,1,8,0:0:0:0:
256,192,64453,1,4,0:0:0:0:
256,192,64678,1,8,0:0:0:0:
256,192,64791,1,8,0:0:0:0:
256,192,65017,1,8,0:0:0:0:
256,192,65129,1,8,0:0:0:0:
256,192,65355,1,0,0:0:0:0:
256,192,65580,1,8,0:0:0:0:
256,192,65806,1,0,0:0:0:0:
256,192,65919,1,0,0:0:0:0:
256,192,66032,1,8,0:0:0:0:
256,192,66257,1,0,0:0:0:0:
256,192,66370,1,0,0:0:0:0:
256,192,66483,1,8,0:0:0:0:
256,192,66596,1,0,0:0:0:0:
256,192,66821,1,0,0:0:0:0:
256,192,66934,1,8,0:0:0:0:
256,192,67159,1,0,0:0:0:0:
256,192,67272,1,0,0:0:0:0:
256,192,67385,1,8,0:0:0:0:
256,192,67498,1,0,0:0:0:0:
256,192,67723,1,8,0:0:0:0:
256,192,67836,1,8,0:0:0:0:
256,192,68062,1,0,0:0:0:0:
256,192,68174,1,8,0:0:0:0:
256,192,68287,1,8,0:0:0:0:
256,192,68400,1,0,0:0:0:0:
256,192,68626,1,0,0:0:0:0:
256,192,68738,1,8,0:0:0:0:
256,192,68964,1,0,0:0:0:0:
256,192,69189,1,8,0:0:0:0:
256,192,69415,1,0,0:0:0:0:
256,192,69528,1,0,0:0:0:0:
256,192,69641,1,8,0:0:0:0:
256,192,69866,1,0,0:0:0:0:
256,192,69979,1,8,0:0:0:0:
256,192,70092,1,8,0:0:0:0:
256,192,70205,1,8,0:0:0:0:
256,192,70317,1,0,0:0:0:0:
256,192,70430,1,0,0:0:0:0:
256,192,70543,1,8,0:0:0:0:
256,192,70768,1,0,0:0:0:0:
256,192,70881,1,8,0:0:0:0:
256,192,70994,1,8,0:0:0:0:
256,192,71107,1,8,0:0:0:0:
256,192,71220,1,0,0:0:0:0:
256,192,71332,1,0,0:0:0:0:
256,192,71445,1,0,0:0:0:0:
256,192,71671,1,8,0:0:0:0:
256,192,71783,1,8,0:0:0:0:
256,192,71896,1,0,0:0:0:0:
256,192,72009,1,0,0:0:0:0:
256,192,72118,1,8,0:0:0:0:
256,192,72174,1,8,0:0:0:0:
256,192,72230,1,8,0:0:0:0:
256,192,72287,1,8,0:0:0:0:
256,192,72343,1,8,0:0:0:0:
256,192,72399,1,8,0:0:0:0:
256,192,72456,1,8,0:0:0:0:
256,192,72512,1,8,0:0:0:0:
288,192,72569,1,4,0:0:0:0:
352,192,72794,1,2,0:0:0:0:
384,256,73020,1,2,0:0:0:0:
448,192,73245,1,0,0:0:0:0:
448,128,73471,1,2,0:0:0:0:
416,160,73584,1,2,0:0:0:0:
480,96,73809,1,2,0:0:0:0:
384,160,74147,1,0,0:0:0:0:
320,256,74486,1,0,0:0:0:0:
352,224,74599,1,2,0:0:0:0:
448,192,74711,1,0,0:0:0:0:
384,192,74768,1,0,0:0:0:0:
416,192,74824,1,0,0:0:0:0:
384,224,74937,1,0,0:0:0:0:
448,192,75050,1,2,0:0:0:0:
448,192,75162,1,0,0:0:0:0:
352,224,75219,1,0,0:0:0:0:
416,224,75275,1,0,0:0:0:0:
384,224,75388,1,0,0:0:0:0:
416,224,75501,1,2,0:0:0:0:
448,192,75614,1,0,0:0:0:0:
448,192,75670,1,0,0:0:0:0:
416,192,75726,1,0,0:0:0:0:
384,192,75839,1,0,0:0:0:0:
416,192,75952,1,2,0:0:0:0:
384,160,76065,1,2,0:0:0:0:
384,192,76121,1,2,0:0:0:0:
448,192,76178,1,0,0:0:0:0:
416,192,76290,1,0,0:0:0:0:
448,192,76403,1,2,0:0:0:0:
480,160,76516,1,0,0:0:0:0:
448,160,76629,1,2,0:0:0:0:
448,160,76741,1,0,0:0:0:0:
448,160,76854,1,2,0:0:0:0:
448,160,76967,1,0,0:0:0:0:
448,160,77193,1,0,0:0:0:0:
416,160,77249,1,0,0:0:0:0:
416,160,77305,1,0,0:0:0:0:
384,192,77418,1,0,0:0:0:0:
448,192,77644,1,2,0:0:0:0:
416,192,77869,1,2,0:0:0:0:
416,224,77982,1,6,0:0:0:0:
448,224,78095,1,2,0:0:0:0:
448,192,78208,1,0,0:0:0:0:
448,192,78320,1,2,0:0:0:0:
384,160,78546,1,2,0:0:0:0:
416,160,78772,1,0,0:0:0:0:
480,192,78997,1,2,0:0:0:0:
448,160,79110,1,0,0:0:0:0:
416,192,79223,1,0,0:0:0:0:
448,160,79335,1,2,0:0:0:0:
416,192,79411,1,0,0:0:0:0:
416,192,79486,1,0,0:0:0:0:
448,192,79561,1,2,0:0:0:0:
416,192,79674,1,0,0:0:0:0:
448,192,79787,1,2,0:0:0:0:
448,160,79862,1,0,0:0:0:0:
448,192,79937,1,2,0:0:0:0:
448,192,80012,1,0,0:0:0:0:
448,192,80087,1,2,0:0:0:0:
448,192,80162,1,0,0:0:0:0:
448,192,80238,1,2,0:0:0:0:
448,192,80313,1,0,0:0:0:0:
416,224,80388,1,2,0:0:0:0:
384,192,80463,1,0,0:0:0:0:
384,192,80520,1,0,0:0:0:0:
384,192,80576,1,0,0:0:0:0:
352,192,80689,1,0,0:0:0:0:
384,256,80858,1,0,0:0:0:0:
416,224,81027,1,2,0:0:0:0:
448,160,81253,1,0,0:0:0:0:
320,192,81309,1,0,0:0:0:0:
320,192,81365,1,0,0:0:0:0:
352,160,81478,1,0,0:0:0:0:
384,160,81591,1,2,0:0:0:0:
448,224,81892,1,0,0:0:0:0:
448,160,82193,1,2,0:0:0:0:
448,192,82343,1,0,0:0:0:0:
448,192,82418,1,0,0:0:0:0:
448,192,82493,1,2,0:0:0:0:
480,192,82569,1,0,0:0:0:0:
448,192,82644,1,2,0:0:0:0:
480,192,82719,1,0,0:0:0:0:
448,192,82794,1,2,0:0:0:0:
448,160,82869,1,0,0:0:0:0:
448,192,82944,1,2,0:0:0:0:
448,160,83020,1,0,0:0:0:0:
480,160,83095,1,2,0:0:0:0:
480,160,83170,1,0,0:0:0:0:
448,192,83245,1,2,0:0:0:0:
448,160,83320,1,0,0:0:0:0:
448,192,83396,1,2,0:0:0:0:
416,160,83508,1,2,0:0:0:0:
416,160,83565,1,2,0:0:0:0:
416,160,83621,1,2,0:0:0:0:
416,160,83734,1,2,0:0:0:0:
416,160,83847,1,2,0:0:0:0:
416,160,83903,1,2,0:0:0:0:
416,160,83959,1,2,0:0:0:0:
416,160,84072,1,2,0:0:0:0:
384,160,84185,1,2,0:0:0:0:
384,160,84241,1,2,0:0:0:0:
384,192,84298,1,2,0:0:0:0:
384,160,84411,1,2,0:0:0:0:
384,160,84523,1,2,0:0:0:0:
384,160,84580,1,2,0:0:0:0:
384,160,84636,1,2,0:0:0:0:
480,160,84749,1,0,0:0:0:0:
448,192,84975,1,0,0:0:0:0:
448,256,85200,1,6,0:0:0:0:
448,224,85313,1,0,0:0:0:0:
448,224,85369,1,0,0:0:0:0:
448,192,85426,1,2,0:0:0:0:
448,224,85538,1,0,0:0:0:0:
448,192,85651,1,2,0:0:0:0:
416,192,85764,1,2,0:0:0:0:
416,224,85820,1,0,0:0:0:0:
416,224,85877,1,2,0:0:0:0:
480,160,85990,1,0,0:0:0:0:
480,192,86102,1,2,0:0:0:0:
448,192,86215,1,0,0:0:0:0:
416,192,86272,1,0,0:0:0:0:
448,192,86328,1,2,0:0:0:0:
448,192,86441,1,2,0:0:0:0:
416,224,86553,1,0,0:0:0:0:
448,192,86666,1,0,0:0:0:0:
416,224,86779,1,2,0:0:0:0:
416,224,86835,1,2,0:0:0:0:
416,224,86892,1,0,0:0:0:0:
448,224,87005,1,6,0:0:0:0:
480,224,87117,1,2,0:0:0:0:
512,192,87230,1,0,0:0:0:0:
448,192,87343,1,2,0:0:0:0:
416,224,87456,1,2,0:0:0:0:
416,224,87512,1,2,0:0:0:0:
480,192,87569,1,0,0:0:0:0:
480,192,87681,1,2,0:0:0:0:
416,224,87794,1,2,0:0:0:0:
448,192,87907,1,0,0:0:0:0:
416,160,88020,1,2,0:0:0:0:
416,160,88132,1,2,0:0:0:0:
448,224,88245,1,0,0:0:0:0:
480,192,88358,1,2,0:0:0:0:
416,160,88414,1,2,0:0:0:0:
448,160,88471,1,0,0:0:0:0:
448,160,88527,1,0,0:0:0:0:
448,160,88584,1,0,0:0:0:0:
448,192,88696,1,2,0:0:0:0:
512,192,88809,1,6,0:0:0:0:
448,192,88922,1,0,0:0:0:0:
416,224,88978,1,0,0:0:0:0:
416,224,89035,1,0,0:0:0:0:
480,192,89147,1,2,0:0:0:0:
448,160,89260,1,2,0:0:0:0:
416,192,89317,1,2,0:0:0:0:
416,192,89373,1,0,0:0:0:0:
448,160,89486,1,2,0:0:0:0:
448,160,89599,1,0,0:0:0:0:
448,160,89824,1,0,0:0:0:0:
448,192,89937,1,2,0:0:0:0:
384,192,90162,1,0,0:0:0:0:
448,192,90238,1,2,0:0:0:0:
416,192,90313,1,2,0:0:0:0:
448,192,90388,1,0,0:0:0:0:
480,192,90614,1,2,0:0:0:0:
480,192,90764,1,0,0:0:0:0:
448,192,90839,1,0,0:0:0:0:
416,192,90914,1,2,0:0:0:0:
416,160,91065,1,2,0:0:0:0:
416,192,91215,1,2,0:0:0:0:
416,192,91365,1,0,0:0:0:0:
416,160,91516,1,0,0:0:0:0:
384,160,91629,1,0,0:0:0:0:
352,160,91685,1,0,0:0:0:0:
352,160,91741,1,2,0:0:0:0:
448,192,91854,1,0,0:0:0:0:
448,160,91967,1,0,0:0:0:0:
448,160,92117,1,2,0:0:0:0:
416,192,92268,1,0,0:0:0:0:
416,192,92418,1,2,0:0:0:0:
448,192,92569,1,0,0:0:0:0:
480,160,92719,1,2,0:0:0:0:
480,160,92869,1,0,0:0:0:0:
448,160,93095,1,0,0:0:0:0:
448,160,93208,1,0,0:0:0:0:
480,128,93320,1,2,0:0:0:0:
480,160,93471,1,2,0:0:0:0:
448,192,93621,1,0,0:0:0:0:
416,224,93772,1,0,0:0:0:0:
416,192,93828,1,0,0:0:0:0:
416,192,93884,1,0,0:0:0:0:
480,160,93997,1,2,0:0:0:0:
448,192,94110,1,0,0:0:0:0:
480,192,94223,1,6,0:0:0:0:
448,224,94335,1,2,0:0:0:0:
448,192,94448,1,0,0:0:0:0:
480,160,94561,1,2,0:0:0:0:
448,192,94674,1,2,0:0:0:0:
480,224,94787,1,0,0:0:0:0:
480,160,94899,1,2,0:0:0:0:
448,160,95012,1,2,0:0:0:0:
416,160,95069,1,2,0:0:0:0:
448,160,95125,1,0,0:0:0:0:
448,192,95238,1,0,0:0:0:0:
416,192,95350,1,2,0:0:0:0:
448,160,95463,1,2,0:0:0:0:
448,160,95576,1,0,0:0:0:0:
416,160,95726,1,0,0:0:0:0:
384,192,95877,1,0,0:0:0:0:
416,192,96027,1,0,0:0:0:0:
448,160,96140,1,2,0:0:0:0:
416,160,96253,1,2,0:0:0:0:
448,192,96365,1,0,0:0:0:0:
416,192,96478,1,0,0:0:0:0:
416,192,96553,1,2,0:0:0:0:
448,192,96629,1,0,0:0:0:0:
416,160,96779,1,0,0:0:0:0:
448,192,96929,1,0,0:0:0:0:
384,192,97155,1,2,0:0:0:0:
448,192,97493,1,2,0:0:0:0:
480,160,97606,1,0,0:0:0:0:
448,160,97719,1,0,0:0:0:0:
448,160,97832,1,2,0:0:0:0:
416,160,97944,1,2,0:0:0:0:
448,160,98057,1,0,0:0:0:0:
416,192,98170,1,2,0:0:0:0:
384,192,98283,1,0,0:0:0:0:
448,192,98358,1,2,0:0:0:0:
416,160,98433,1,2,0:0:0:0:
416,192,98508,1,2,0:0:0:0:
416,160,98621,1,0,0:0:0:0:
416,160,98734,1,0,0:0:0:0:
480,160,98847,1,2,0:0:0:0:
448,192,98959,1,2,0:0:0:0:
448,160,99072,1,0,0:0:0:0:
416,192,99185,1,0,0:0:0:0:
448,224,99298,1,0,0:0:0:0:
448,224,99354,1,0,0:0:0:0:
448,192,99411,1,2,0:0:0:0:
448,192,99523,1,0,0:0:0:0:
448,224,99636,1,6,0:0:0:0:
416,192,99749,1,0,0:0:0:0:
384,192,99862,1,0,0:0:0:0:
384,224,99975,1,6,0:0:0:0:
416,192,100087,1,0,0:0:0:0:
384,224,100200,1,0,0:0:0:0:
384,224,100313,1,0,0:0:0:0:
480,128,100426,1,2,0:0:0:0:
480,192,100538,1,6,0:0:0:0:
384,224,100651,1,0,0:0:0:0:
384,224,100708,1,0,0:0:0:0:
448,224,100764,1,2,0:0:0:0:
416,192,100877,1,6,0:0:0:0:
448,160,100990,1,0,0:0:0:0:
416,160,101046,1,0,0:0:0:0:
384,192,101102,1,0,0:0:0:0:
480,192,101215,1,6,0:0:0:0:
448,192,101328,1,0,0:0:0:0:
448,224,101441,1,4,0:0:0:0:
448,192,101553,1,0,0:0:0:0:
448,160,101610,1,0,0:0:0:0:
448,192,101666,1,2,0:0:0:0:
480,160,101779,1,0,0:0:0:0:
448,160,101892,1,2,0:0:0:0:
448,160,101948,1,2,0:0:0:0:
384,192,102005,1,2,0:0:0:0:
480,192,102117,1,0,0:0:0:0:
480,160,102230,1,2,0:0:0:0:
480,160,102287,1,2,0:0:0:0:
448,192,102343,1,0,0:0:0:0:
416,224,102456,1,0,0:0:0:0:
416,224,102512,1,0,0:0:0:0:
416,224,102568,1,2,0:0:0:0:
448,192,102681,1,0,0:0:0:0:
448,160,102794,1,2,0:0:0:0:
416,224,102907,1,2,0:0:0:0:
416,224,102963,1,2,0:0:0:0:
448,192,103020,1,0,0:0:0:0:
448,192,103132,1,2,0:0:0:0:
416,224,103245,1,0,0:0:0:0:
416,224,103302,1,0,0:0:0:0:
416,256,103358,1,0,0:0:0:0:
480,160,103471,1,2,0:0:0:0:
480,192,103584,1,0,0:0:0:0:
448,192,103640,1,0,0:0:0:0:
448,192,103696,1,2,0:0:0:0:
448,192,103809,1,2,0:0:0:0:
448,224,103865,1,2,0:0:0:0:
448,192,103922,1,0,0:0:0:0:
448,192,104035,1,2,0:0:0:0:
448,160,104147,1,0,0:0:0:0:
448,160,104204,1,0,0:0:0:0:
448,160,104260,1,0,0:0:0:0:
448,160,104317,1,0,0:0:0:0:
448,192,104373,1,2,0:0:0:0:
448,160,104486,1,0,0:0:0:0:
416,160,104542,1,0,0:0:0:0:
416,160,104599,1,2,0:0:0:0:
416,192,104711,1,2,0:0:0:0:
448,160,104824,1,0,0:0:0:0:
416,192,104881,1,0,0:0:0:0:
448,160,104937,1,2,0:0:0:0:
448,224,105050,1,4,0:0:0:0:
416,192,105162,1,0,0:0:0:0:
448,192,105275,1,2,0:0:0:0:
416,160,105388,1,0,0:0:0:0:
416,160,105444,1,0,0:0:0:0:
448,160,105501,1,2,0:0:0:0:
416,192,105614,1,2,0:0:0:0:
448,192,105726,1,0,0:0:0:0:
448,192,105783,1,0,0:0:0:0:
512,128,105839,1,2,0:0:0:0:
480,160,105952,1,0,0:0:0:0:
480,160,106008,1,0,0:0:0:0:
480,160,106065,1,0,0:0:0:0:
448,192,106178,1,2,0:0:0:0:
480,160,106290,1,0,0:0:0:0:
448,160,106347,1,0,0:0:0:0:
480,160,106403,1,2,0:0:0:0:
416,192,106516,1,2,0:0:0:0:
384,192,106572,1,2,0:0:0:0:
448,192,106629,1,0,0:0:0:0:
448,192,106685,1,0,0:0:0:0:
480,160,106741,1,2,0:0:0:0:
480,192,106854,1,0,0:0:0:0:
416,160,106967,1,0,0:0:0:0:
416,160,107023,1,0,0:0:0:0:
416,192,107080,1,2,0:0:0:0:
480,160,107193,1,0,0:0:0:0:
448,192,107305,1,2,0:0:0:0:
448,192,107362,1,2,0:0:0:0:
416,192,107418,1,2,0:0:0:0:
416,224,107531,1,0,0:0:0:0:
480,160,107644,1,2,0:0:0:0:
448,192,107700,1,2,0:0:0:0:
480,192,107756,1,0,0:0:0:0:
448,192,107869,1,0,0:0:0:0:
512,128,107982,1,2,0:0:0:0:
480,160,108095,1,0,0:0:0:0:
416,192,108151,1,0,0:0:0:0:
416,192,108208,1,6,0:0:0:0:
416,224,108320,1,6,0:0:0:0:
448,192,108433,1,4,0:0:0:0:
416,224,108546,1,6,0:0:0:0:
448,224,108659,1,2,0:0:0:0:
448,192,108772,1,0,0:0:0:0:
448,160,108828,1,0,0:0:0:0:
448,192,108884,1,2,0:0:0:0:
480,160,108997,1,0,0:0:0:0:
480,192,109110,1,2,0:0:0:0:
448,192,109166,1,0,0:0:0:0:
448,192,109223,1,0,0:0:0:0:
416,224,109335,1,0,0:0:0:0:
448,192,109448,1,2,0:0:0:0:
448,160,109505,1,2,0:0:0:0:
256,189,109561,5,8,0:0:0:0:
256,189,109674,1,0,0:0:0:0:
256,189,109787,1,8,0:0:0:0:
256,189,109899,1,0,0:0:0:0:
256,189,110012,1,8,0:0:0:0:
256,189,110125,1,0,0:0:0:0:
256,189,110238,1,8,0:0:0:0:
256,189,110350,1,0,0:0:0:0:
256,189,110463,1,8,0:0:0:0:
256,189,110576,1,8,0:0:0:0:
256,189,110689,1,0,0:0:0:0:
256,189,110802,1,8,0:0:0:0:
256,189,110914,1,8,0:0:0:0:
256,189,111027,1,8,0:0:0:0:
256,189,111140,1,0,0:0:0:0:
256,189,111253,1,8,0:0:0:0:
256,189,111365,1,8,0:0:0:0:
256,189,111478,1,0,0:0:0:0:
256,189,111591,1,0,0:0:0:0:
256,189,111704,1,0,0:0:0:0:
256,189,111817,1,8,0:0:0:0:
256,189,111929,1,8,0:0:0:0:
256,189,112042,1,0,0:0:0:0:
256,189,112155,1,0,0:0:0:0:
256,189,112268,1,8,0:0:0:0:
256,189,112381,1,0,0:0:0:0:
256,189,112493,1,8,0:0:0:0:
256,189,112606,1,0,0:0:0:0:
256,189,112719,1,8,0:0:0:0:
256,189,112832,1,0,0:0:0:0:
256,189,112944,1,0,0:0:0:0:
256,189,113057,1,0,0:0:0:0:
256,189,113170,1,8,0:0:0:0:
256,189,113283,1,0,0:0:0:0:
256,189,113396,1,8,0:0:0:0:
256,189,113508,1,0,0:0:0:0:
256,189,113621,1,0,0:0:0:0:
256,189,113734,1,0,0:0:0:0:
256,189,113847,1,8,0:0:0:0:
256,189,113959,1,8,0:0:0:0:
256,189,114072,1,0,0:0:0:0:
256,189,114185,1,8,0:0:0:0:
256,189,114298,1,8,0:0:0:0:
256,189,114411,1,8,0:0:0:0:
256,189,114523,1,0,0:0:0:0:
256,189,114636,1,8,0:0:0:0:
256,189,114749,1,0,0:0:0:0:
256,189,114862,1,8,0:0:0:0:
256,189,114975,1,8,0:0:0:0:
256,189,115087,1,8,0:0:0:0:
256,189,115200,1,0,0:0:0:0:
256,189,115313,1,0,0:0:0:0:
256,189,115426,1,8,0:0:0:0:
256,189,115538,1,8,0:0:0:0:
256,189,115651,1,0,0:0:0:0:
256,189,115764,1,8,0:0:0:0:
256,189,115877,1,0,0:0:0:0:
256,189,115990,1,0,0:0:0:0:
256,189,116102,1,8,0:0:0:0:
256,189,116215,1,8,0:0:0:0:
256,189,116328,1,0,0:0:0:0:
256,189,116441,1,0,0:0:0:0:
256,189,116553,1,0,0:0:0:0:
256,189,116666,1,0,0:0:0:0:
256,189,116779,1,0,0:0:0:0:
256,189,116892,1,8,0:0:0:0:
256,189,117005,1,8,0:0:0:0:
256,189,117117,1,8,0:0:0:0:
256,189,117230,1,0,0:0:0:0:
256,189,117343,1,0,0:0:0:0:
256,189,117456,1,0,0:0:0:0:
256,189,117568,1,8,0:0:0:0:
256,189,117681,1,0,0:0:0:0:
256,189,117794,1,0,0:0:0:0:
256,189,117907,1,8,0:0:0:0:
256,189,118020,1,8,0:0:0:0:
256,189,118132,1,0,0:0:0:0:
256,189,118245,1,0,0:0:0:0:
256,189,118358,1,0,0:0:0:0:
256,189,118471,1,0,0:0:0:0:
256,189,118584,1,8,0:0:0:0:
256,189,118696,1,0,0:0:0:0:
256,189,118809,1,8,0:0:0:0:
256,189,118922,1,0,0:0:0:0:
256,189,119035,1,8,0:0:0:0:
256,189,119147,1,0,0:0:0:0:
256,189,119260,1,0,0:0:0:0:
256,189,119373,1,0,0:0:0:0:
256,189,119486,1,8,0:0:0:0:
256,189,119599,1,0,0:0:0:0:
256,189,119711,1,0,0:0:0:0:
256,189,119824,1,8,0:0:0:0:
256,189,119937,1,0,0:0:0:0:
256,189,120050,1,0,0:0:0:0:
256,189,120162,1,0,0:0:0:0:
256,189,120275,1,0,0:0:0:0:
256,189,120388,1,8,0:0:0:0:
256,189,120501,1,8,0:0:0:0:
256,189,120614,1,0,0:0:0:0:
256,189,120726,1,0,0:0:0:0:
256,189,120839,1,8,0:0:0:0:
256,189,120952,1,8,0:0:0:0:
256,189,121065,1,8,0:0:0:0:
256,189,121178,1,8,0:0:0:0:
256,189,121290,1,0,0:0:0:0:
256,189,121403,1,8,0:0:0:0:
256,189,121516,1,8,0:0:0:0:
256,189,121629,1,8,0:0:0:0:
256,189,121741,1,0,0:0:0:0:
256,189,121854,1,8,0:0:0:0:
256,189,121967,1,0,0:0:0:0:
256,189,122080,1,8,0:0:0:0:
256,189,122193,1,8,0:0:0:0:
256,189,122305,1,8,0:0:0:0:
256,189,122418,1,0,0:0:0:0:
256,189,122531,1,0,0:0:0:0:
256,189,122644,1,8,0:0:0:0:
256,189,122756,1,8,0:0:0:0:
256,189,122869,1,0,0:0:0:0:
256,189,122982,1,0,0:0:0:0:
256,189,123095,1,8,0:0:0:0:
256,189,123208,1,8,0:0:0:0:
256,189,123320,1,8,0:0:0:0:
256,189,123433,1,8,0:0:0:0:
256,189,123546,1,0,0:0:0:0:
256,189,123659,1,0,0:0:0:0:
256,189,123772,1,0,0:0:0:0:
256,189,123884,1,0,0:0:0:0:
256,192,123997,1,0,0:0:0:0:
256,192,124110,1,8,0:0:0:0:
256,192,124223,1,0,0:0:0:0:
256,192,124335,1,8,0:0:0:0:
256,192,124448,1,0,0:0:0:0:
256,192,124561,1,0,0:0:0:0:
256,192,124674,1,8,0:0:0:0:
256,192,124787,1,8,0:0:0:0:
256,192,124899,1,0,0:0:0:0:
256,192,125012,1,8,0:0:0:0:
256,192,125125,1,0,0:0:0:0:
256,192,125238,1,8,0:0:0:0:
256,189,125350,1,0,0:0:0:0:
256,189,125463,1,8,0:0:0:0:
256,192,125576,1,8,0:0:0:0:
256,192,125689,1,8,0:0:0:0:
256,192,125802,1,0,0:0:0:0:
256,192,125914,1,8,0:0:0:0:
256,192,126027,1,0,0:0:0:0:
256,192,126140,1,8,0:0:0:0:
256,192,126253,1,0,0:0:0:0:
256,192,126365,1,0,0:0:0:0:
256,192,126478,1,0,0:0:0:0:
256,192,126591,1,8,0:0:0:0:
256,192,126704,1,0,0:0:0:0:
256,192,126817,1,8,0:0:0:0:
256,192,126929,1,0,0:0:0:0:
256,192,127042,1,8,0:0:0:0:
256,192,127155,1,0,0:0:0:0:
256,192,127268,1,0,0:0:0:0:
256,192,127381,1,0,0:0:0:0:
256,192,127493,1,0,0:0:0:0:
256,192,127606,1,0,0:0:0:0:
256,192,127719,1,8,0:0:0:0:
256,192,127832,1,0,0:0:0:0:
256,192,127944,1,8,0:0:0:0:
256,192,128057,1,0,0:0:0:0:
256,192,128170,1,0,0:0:0:0:
256,192,128283,1,8,0:0:0:0:
256,192,128396,1,8,0:0:0:0:
256,192,128508,1,0,0:0:0:0:
256,192,128621,1,8,0:0:0:0:
256,192,128734,1,0,0:0:0:0:
256,192,128847,1,8,0:0:0:0:
256,192,128959,1,0,0:0:0:0:
256,192,129072,1,0,0:0:0:0:
256,192,129185,1,0,0:0:0:0:
256,192,129298,1,8,0:0:0:0:
256,192,129411,1,0,0:0:0:0:
256,192,129523,1,8,0:0:0:0:
256,192,129636,1,0,0:0:0:0:
256,192,129749,1,8,0:0:0:0:
256,192,129862,1,0,0:0:0:0:
256,192,129975,1,0,0:0:0:0:
256,192,130087,1,0,0:0:0:0:
256,192,130200,1,8,0:0:0:0:
256,192,130313,1,0,0:0:0:0:
256,192,130426,1,8,0:0:0:0:
256,192,130538,1,0,0:0:0:0:
256,192,130651,1,8,0:0:0:0:
256,192,130764,1,8,0:0:0:0:
256,192,130877,1,8,0:0:0:0:
256,192,130990,1,8,0:0:0:0:
256,192,131102,1,8,0:0:0:0:
256,192,131215,1,0,0:0:0:0:
256,192,131328,1,8,0:0:0:0:
256,192,131441,1,0,0:0:0:0:
256,192,131553,1,8,0:0:0:0:
256,192,131666,1,0,0:0:0:0:
256,192,131779,1,8,0:0:0:0:
256,192,131892,1,0,0:0:0:0:
256,192,132005,1,8,0:0:0:0:
256,192,132117,1,0,0:0:0:0:
256,192,132230,1,0,0:0:0:0:
256,192,132343,1,0,0:0:0:0:
256,192,132456,1,8,0:0:0:0:
256,192,132568,1,0,0:0:0:0:
256,192,132681,1,8,0:0:0:0:
256,192,132794,1,0,0:0:0:0:
256,192,132907,1,8,0:0:0:0:
256,192,133020,1,0,0:0:0:0:
256,192,133132,1,0,0:0:0:0:
256,192,133245,1,8,0:0:0:0:
256,192,133358,1,8,0:0:0:0:
256,192,133471,1,0,0:0:0:0:
256,192,133583,1,8,0:0:0:0:
256,192,133696,1,0,0:0:0:0:
256,192,133809,1,8,0:0:0:0:
256,192,133922,1,0,0:0:0:0:
256,192,134035,1,8,0:0:0:0:
256,192,134147,1,8,0:0:0:0:
256,192,134260,1,8,0:0:0:0:
256,192,134373,1,0,0:0:0:0:
256,192,134486,1,0,0:0:0:0:
256,192,134599,1,0,0:0:0:0:
256,192,134711,1,0,0:0:0:0:
256,192,134824,1,0,0:0:0:0:
256,192,134937,1,8,0:0:0:0:
256,192,135050,1,0,0:0:0:0:
256,192,135162,1,8,0:0:0:0:
256,192,135275,1,0,0:0:0:0:
256,192,135388,1,8,0:0:0:0:
256,192,135501,1,0,0:0:0:0:
256,192,135614,1,8,0:0:0:0:
256,192,135726,1,0,0:0:0:0:
256,192,135839,1,0,0:0:0:0:
256,192,135952,1,8,0:0:0:0:
256,192,136065,1,8,0:0:0:0:
256,192,136178,1,0,0:0:0:0:
256,192,136290,1,8,0:0:0:0:
256,192,136403,1,0,0:0:0:0:
256,192,136516,1,8,0:0:0:0:
257,170,136629,5,8,0:0:0:0:
257,170,136704,1,0,0:0:0:0:
257,170,136779,1,0,0:0:0:0:
257,170,136854,1,0,0:0:0:0:
257,170,136929,1,0,0:0:0:0:
257,170,137005,1,0,0:0:0:0:
257,170,137080,1,0,0:0:0:0:
257,170,137155,1,0,0:0:0:0:
257,170,137230,1,0,0:0:0:0:
257,170,137305,1,0,0:0:0:0:
257,170,137381,1,0,0:0:0:0:
257,170,137456,1,0,0:0:0:0:
257,170,137531,5,6,0:0:0:0:
257,170,137869,1,6,0:0:0:0:
257,170,138208,1,6,0:0:0:0:
416,224,139335,1,2,0:0:0:0:
416,192,139410,1,2,0:0:0:0:
448,192,139485,1,0,0:0:0:0:
448,192,139560,1,2,0:0:0:0:
448,160,139635,1,0,0:0:0:0:
416,160,139710,1,2,0:0:0:0:
416,192,139786,1,0,0:0:0:0:
448,160,139898,1,0,0:0:0:0:
448,160,139955,1,0,0:0:0:0:
480,192,140011,1,2,0:0:0:0:
448,224,140124,1,0,0:0:0:0:
448,192,140237,1,0,0:0:0:0:
416,96,140575,1,2,0:0:0:0:
416,192,140913,1,0,0:0:0:0:
448,192,141026,1,0,0:0:0:0:
448,192,141083,1,0,0:0:0:0:
448,192,141139,1,2,0:0:0:0:
416,192,141365,1,2,0:0:0:0:
480,160,141590,1,0,0:0:0:0:
480,160,141703,1,2,0:0:0:0:
448,192,141816,1,0,0:0:0:0:
416,224,141928,1,0,0:0:0:0:
416,224,141985,1,0,0:0:0:0:
416,256,142041,1,2,0:0:0:0:
448,224,142154,1,0,0:0:0:0:
416,224,142267,1,0,0:0:0:0:
448,192,142380,1,2,0:0:0:0:
384,192,142605,1,2,0:0:0:0:
416,192,142718,1,2,0:0:0:0:
416,160,142774,1,2,0:0:0:0:
448,192,142831,1,0,0:0:0:0:
448,192,143056,1,2,0:0:0:0:
448,160,143169,1,0,0:0:0:0:
448,192,143395,1,0,0:0:0:0:
480,128,143620,1,0,0:0:0:0:
384,192,143733,1,0,0:0:0:0:
384,192,143789,1,0,0:0:0:0:
416,192,143846,1,2,0:0:0:0:
416,192,144184,1,2,0:0:0:0:
448,192,144522,1,0,0:0:0:0:
448,192,144748,1,2,0:0:0:0:
448,224,144823,1,0,0:0:0:0:
448,192,144898,1,2,0:0:0:0:
448,192,144974,1,0,0:0:0:0:
448,192,145049,1,2,0:0:0:0:
448,224,145124,1,0,0:0:0:0:
448,192,145199,1,2,0:0:0:0:
448,192,145274,1,0,0:0:0:0:
480,192,145350,1,2,0:0:0:0:
448,192,145425,1,0,0:0:0:0:
448,160,145500,1,2,0:0:0:0:
480,160,145575,1,0,0:0:0:0:
448,160,145650,1,2,0:0:0:0:
416,160,145763,1,0,0:0:0:0:
416,160,145876,1,0,0:0:0:0:
416,160,145989,1,2,0:0:0:0:
480,160,146101,1,0,0:0:0:0:
416,160,146214,1,0,0:0:0:0:
448,192,146327,1,2,0:0:0:0:
448,192,146440,1,0,0:0:0:0:
384,96,146778,1,2,0:0:0:0:
416,128,146891,1,0,0:0:0:0:
416,160,146947,1,0,0:0:0:0:
416,160,147004,1,0,0:0:0:0:
480,160,147116,1,2,0:0:0:0:
320,384,147229,1,0,0:0:0:0:
480,128,147455,1,2,0:0:0:0:
448,192,147568,1,0,0:0:0:0:
448,224,147680,1,0,0:0:0:0:
416,192,147793,1,2,0:0:0:0:
384,256,148019,1,2,0:0:0:0:
480,128,148131,1,0,0:0:0:0:
416,160,148357,1,2,0:0:0:0:
352,192,148583,1,2,0:0:0:0:
416,192,148808,1,0,0:0:0:0:
416,160,149034,1,0,0:0:0:0:
416,192,149147,1,0,0:0:0:0:
416,224,149203,1,0,0:0:0:0:
416,224,149259,1,0,0:0:0:0:
448,160,149598,1,2,0:0:0:0:
448,160,149823,1,0,0:0:0:0:
480,160,149936,1,2,0:0:0:0:
448,192,150049,1,0,0:0:0:0:
448,160,150274,1,0,0:0:0:0:
480,128,150387,1,2,0:0:0:0:
416,224,150500,1,0,0:0:0:0:
416,224,150556,1,0,0:0:0:0:
448,160,150613,1,2,0:0:0:0:
480,160,150725,1,0,0:0:0:0:
416,224,150838,1,0,0:0:0:0:
480,160,150951,1,2,0:0:0:0:
448,192,151064,1,6,0:0:0:0:
448,160,151177,1,2,0:0:0:0:
480,160,151289,1,0,0:0:0:0:
448,192,151402,1,2,0:0:0:0:
416,160,151515,1,2,0:0:0:0:
448,192,151628,1,0,0:0:0:0:
480,192,151741,1,2,0:0:0:0:
448,224,151853,1,0,0:0:0:0:
480,160,151966,1,2,0:0:0:0:
480,192,152041,1,0,0:0:0:0:
480,192,152116,1,2,0:0:0:0:
480,160,152192,1,0,0:0:0:0:
448,160,152267,1,2,0:0:0:0:
480,160,152342,1,0,0:0:0:0:
448,192,152417,1,2,0:0:0:0:
480,192,152492,1,0,0:0:0:0:
448,192,152568,1,2,0:0:0:0:
416,160,152643,1,0,0:0:0:0:
480,160,153094,1,2,0:0:0:0:
448,160,153207,1,2,0:0:0:0:
480,160,153319,1,0,0:0:0:0:
480,192,153432,1,2,0:0:0:0:
416,192,153658,1,0,0:0:0:0:
416,160,153771,1,4,0:0:0:0:
480,160,153996,1,0,0:0:0:0:
416,192,154222,1,0,0:0:0:0:
416,256,154447,1,0,0:0:0:0:
448,192,154673,1,2,0:0:0:0:
480,160,154786,1,0,0:0:0:0:
448,192,154842,1,0,0:0:0:0:
512,128,154898,1,2,0:0:0:0:
416,192,155011,1,2,0:0:0:0:
448,192,155124,1,0,0:0:0:0:
512,128,155237,1,2,0:0:0:0:
512,128,155462,1,0,0:0:0:0:
416,192,155575,1,2,0:0:0:0:
448,192,155688,1,0,0:0:0:0:
416,192,155744,1,0,0:0:0:0:
480,160,155801,1,2,0:0:0:0:
448,192,155913,1,2,0:0:0:0:
480,192,156026,1,0,0:0:0:0:
480,160,156139,1,2,0:0:0:0:
448,160,156252,1,2,0:0:0:0:
416,192,156308,1,2,0:0:0:0:
480,160,156365,1,0,0:0:0:0:
448,192,156477,1,2,0:0:0:0:
480,160,156590,1,0,0:0:0:0:
480,160,156647,1,0,0:0:0:0:
480,160,156703,1,2,0:0:0:0:
416,192,156816,1,2,0:0:0:0:
480,160,156928,1,0,0:0:0:0:
448,160,157041,1,0,0:0:0:0:
448,192,157154,1,2,0:0:0:0:
416,192,157210,1,2,0:0:0:0:
416,224,157267,1,0,0:0:0:0:
448,224,157380,1,4,0:0:0:0:
416,224,157605,1,0,0:0:0:0:
416,224,157831,1,0,0:0:0:0:
416,192,158056,1,0,0:0:0:0:
448,160,158169,1,0,0:0:0:0:
448,160,158225,1,0,0:0:0:0:
448,160,158282,1,2,0:0:0:0:
480,192,158395,1,0,0:0:0:0:
448,192,158507,1,2,0:0:0:0:
416,192,158620,1,2,0:0:0:0:
416,192,158677,1,2,0:0:0:0:
448,192,158733,1,0,0:0:0:0:
480,192,158846,1,2,0:0:0:0:
448,160,158959,1,0,0:0:0:0:
416,160,159015,1,0,0:0:0:0:
416,160,159071,1,0,0:0:0:0:
480,160,159184,1,2,0:0:0:0:
480,192,159297,1,0,0:0:0:0:
448,192,159353,1,0,0:0:0:0:
480,192,159410,1,2,0:0:0:0:
448,192,159522,1,2,0:0:0:0:
480,160,159635,1,0,0:0:0:0:
448,160,159748,1,0,0:0:0:0:
448,160,159861,1,2,0:0:0:0:
448,160,159917,1,2,0:0:0:0:
448,160,159974,1,2,0:0:0:0:
448,160,160086,1,2,0:0:0:0:
448,192,160199,1,0,0:0:0:0:
448,192,160312,1,2,0:0:0:0:
416,192,160425,1,2,0:0:0:0:
384,192,160481,1,2,0:0:0:0:
480,160,160538,1,0,0:0:0:0:
448,160,160650,1,2,0:0:0:0:
480,160,160763,1,0,0:0:0:0:
448,192,160819,1,0,0:0:0:0:
448,192,160876,1,2,0:0:0:0:
448,224,160989,1,4,0:0:0:0:
384,192,161214,1,0,0:0:0:0:
416,192,161440,1,0,0:0:0:0:
416,192,161665,1,0,0:0:0:0:
416,256,161891,1,2,0:0:0:0:
480,160,162004,1,0,0:0:0:0:
416,192,162060,1,0,0:0:0:0:
416,192,162116,1,0,0:0:0:0:
448,192,162229,1,2,0:0:0:0:
448,160,162342,1,0,0:0:0:0:
448,160,162398,1,0,0:0:0:0:
448,160,162455,1,2,0:0:0:0:
416,160,162568,1,0,0:0:0:0:
480,160,162643,1,2,0:0:0:0:
448,192,162718,1,0,0:0:0:0:
448,192,162793,1,2,0:0:0:0:
448,192,162868,1,0,0:0:0:0:
480,160,162944,1,2,0:0:0:0:
448,192,163019,1,0,0:0:0:0:
480,192,163094,1,2,0:0:0:0:
480,160,163169,1,0,0:0:0:0:
480,192,163244,1,2,0:0:0:0:
480,160,163319,1,0,0:0:0:0:
480,160,163395,1,2,0:0:0:0:
480,160,163470,1,0,0:0:0:0:
480,160,163545,1,2,0:0:0:0:
448,192,163620,1,0,0:0:0:0:
448,160,163695,1,6,0:0:0:0:
448,192,163808,1,0,0:0:0:0:
448,192,163921,1,0,0:0:0:0:
480,160,164034,1,2,0:0:0:0:
448,128,164147,1,0,0:0:0:0:
448,128,164203,1,0,0:0:0:0:
448,128,164259,1,0,0:0:0:0:
448,160,164372,1,2,0:0:0:0:
480,128,164485,1,0,0:0:0:0:
448,160,164598,1,4,0:0:0:0:
384,192,164823,1,0,0:0:0:0:
352,160,165049,1,0,0:0:0:0:
288,128,165274,1,0,0:0:0:0:
320,128,165387,1,0,0:0:0:0:
384,192,165444,1,0,0:0:0:0:
416,192,165500,1,6,0:0:0:0:
416,192,165613,1,0,0:0:0:0:
384,192,165725,1,0,0:0:0:0:
416,192,165838,1,2,0:0:0:0:
448,160,165951,1,0,0:0:0:0:
416,192,166064,1,0,0:0:0:0:
448,160,166120,1,0,0:0:0:0:
448,192,166177,1,2,0:0:0:0:
448,192,166289,1,0,0:0:0:0:
448,160,166402,1,2,0:0:0:0:
416,192,166515,1,0,0:0:0:0:
416,192,166571,1,0,0:0:0:0:
416,192,166628,1,0,0:0:0:0:
448,160,166741,1,2,0:0:0:0:
448,160,166853,1,0,0:0:0:0:
416,160,166966,1,0,0:0:0:0:
448,160,167079,1,2,0:0:0:0:
480,160,167192,1,0,0:0:0:0:
448,160,167304,1,0,0:0:0:0:
416,160,167361,1,0,0:0:0:0:
384,160,167417,1,0,0:0:0:0:
384,160,167530,1,0,0:0:0:0:
352,160,167643,1,0,0:0:0:0:
352,128,167699,1,0,0:0:0:0:
416,192,167756,1,2,0:0:0:0:
448,192,167812,1,2,0:0:0:0:
448,192,167868,1,2,0:0:0:0:
416,192,167925,1,2,0:0:0:0:
416,192,167981,1,2,0:0:0:0:
416,192,168038,1,0,0:0:0:0:
448,160,168094,1,0,0:0:0:0:
448,160,168150,1,0,0:0:0:0:
256,192,168207,5,0,0:0:0:0:
256,192,168319,1,0,0:0:0:0:
256,192,168432,1,8,0:0:0:0:
256,192,168545,1,0,0:0:0:0:
256,192,168658,1,8,0:0:0:0:
256,192,168771,1,8,0:0:0:0:
256,192,168883,1,0,0:0:0:0:
256,192,168996,1,8,0:0:0:0:
256,192,169109,5,0,0:0:0:0:
256,192,169221,1,0,0:0:0:0:
256,192,169334,1,8,0:0:0:0:
256,192,169447,1,0,0:0:0:0:
256,192,169560,1,8,0:0:0:0:
256,192,169673,1,8,0:0:0:0:
256,192,169785,1,0,0:0:0:0:
256,192,169898,1,8,0:0:0:0:
256,192,170011,5,0,0:0:0:0:
256,192,170123,1,8,0:0:0:0:
256,192,170236,1,8,0:0:0:0:
256,192,170349,1,0,0:0:0:0:
256,192,170462,1,8,0:0:0:0:
256,192,170575,1,8,0:0:0:0:
256,192,170687,1,0,0:0:0:0:
256,192,170800,1,8,0:0:0:0:
256,192,170913,5,0,0:0:0:0:
256,192,171025,1,0,0:0:0:0:
256,192,171138,1,8,0:0:0:0:
256,192,171251,1,0,0:0:0:0:
256,192,171364,1,8,0:0:0:0:
256,192,171477,1,8,0:0:0:0:
256,192,171589,1,0,0:0:0:0:
256,192,171702,1,8,0:0:0:0:
256,192,171816,1,0,0:0:0:0:
256,192,171928,1,8,0:0:0:0:
256,192,172041,1,8,0:0:0:0:
256,192,172154,1,0,0:0:0:0:
256,192,172267,1,8,0:0:0:0:
256,192,172380,1,0,0:0:0:0:
256,192,172492,1,0,0:0:0:0:
256,192,172605,1,8,0:0:0:0:
256,192,172718,1,0,0:0:0:0:
256,192,172830,1,8,0:0:0:0:
256,192,172943,1,8,0:0:0:0:
256,192,173056,1,0,0:0:0:0:
256,192,173169,1,8,0:0:0:0:
256,192,173282,1,0,0:0:0:0:
256,192,173394,1,0,0:0:0:0:
256,192,173507,1,8,0:0:0:0:
256,192,173620,1,0,0:0:0:0:
256,192,173733,1,0,0:0:0:0:
256,192,173846,1,8,0:0:0:0:
256,192,173959,1,0,0:0:0:0:
256,192,174071,1,8,0:0:0:0:
256,192,174184,1,0,0:0:0:0:
256,192,174297,1,8,0:0:0:0:
256,192,174410,1,8,0:0:0:0:
256,192,174522,1,0,0:0:0:0:
256,192,174635,1,0,0:0:0:0:
256,192,174748,1,8,0:0:0:0:
256,192,174861,1,0,0:0:0:0:
256,192,174974,1,8,0:0:0:0:
256,192,175086,1,8,0:0:0:0:
256,192,175199,1,0,0:0:0:0:
256,192,175312,1,8,0:0:0:0:
256,192,175425,1,0,0:0:0:0:
256,192,175538,1,8,0:0:0:0:
256,192,175650,1,8,0:0:0:0:
256,192,175763,1,0,0:0:0:0:
256,192,175876,1,8,0:0:0:0:
256,192,175989,1,0,0:0:0:0:
256,192,176101,1,0,0:0:0:0:
256,192,176214,1,8,0:0:0:0:
256,192,176327,1,0,0:0:0:0:
256,192,176440,1,8,0:0:0:0:
256,192,176552,1,8,0:0:0:0:
256,192,176665,1,0,0:0:0:0:
256,192,176778,1,8,0:0:0:0:
256,192,176891,1,0,0:0:0:0:
256,192,177003,1,0,0:0:0:0:
256,192,177116,1,8,0:0:0:0:
256,192,177229,1,0,0:0:0:0:
256,192,177342,1,8,0:0:0:0:
256,192,177454,1,8,0:0:0:0:
256,192,177567,1,0,0:0:0:0:
256,192,177680,1,8,0:0:0:0:
256,192,177793,1,0,0:0:0:0:
256,192,177905,1,0,0:0:0:0:
256,192,178018,1,8,0:0:0:0:
256,192,178131,1,0,0:0:0:0:
256,192,178244,1,8,0:0:0:0:
256,192,178356,1,8,0:0:0:0:
256,192,178469,1,0,0:0:0:0:
256,192,178582,1,8,0:0:0:0:
256,192,178695,1,0,0:0:0:0:
256,192,178807,1,0,0:0:0:0:
256,192,178920,1,8,0:0:0:0:
256,192,179034,1,0,0:0:0:0:
256,192,179147,1,0,0:0:0:0:
256,192,179259,1,8,0:0:0:0:
256,192,179372,1,0,0:0:0:0:
256,192,179485,1,8,0:0:0:0:
256,192,179598,1,8,0:0:0:0:
256,192,179710,1,0,0:0:0:0:
256,192,179823,1,8,0:0:0:0:
256,192,179936,1,0,0:0:0:0:
256,192,180049,1,0,0:0:0:0:
256,192,180161,1,8,0:0:0:0:
256,192,180274,1,0,0:0:0:0:
256,192,180387,1,8,0:0:0:0:
256,192,180500,1,8,0:0:0:0:
256,192,180612,1,0,0:0:0:0:
256,192,180725,1,8,0:0:0:0:
256,192,180838,1,0,0:0:0:0:
256,192,180951,1,0,0:0:0:0:
256,192,181063,1,8,0:0:0:0:
256,192,181176,1,0,0:0:0:0:
256,192,181289,1,8,0:0:0:0:
256,192,181402,1,8,0:0:0:0:
256,192,181514,1,0,0:0:0:0:
256,192,181627,1,8,0:0:0:0:
256,192,181741,1,0,0:0:0:0:
256,192,181854,1,0,0:0:0:0:
256,192,181966,1,8,0:0:0:0:
256,192,182079,1,0,0:0:0:0:
256,192,182192,1,8,0:0:0:0:
256,192,182305,1,8,0:0:0:0:
256,192,182417,1,0,0:0:0:0:
256,192,182530,1,8,0:0:0:0:
256,192,183545,1,0,0:0:0:0:
256,192,183771,1,8,0:0:0:0:
256,192,183883,1,0,0:0:0:0:
256,192,183996,1,0,0:0:0:0:
256,192,184109,1,0,0:0:0:0:
256,192,184222,1,8,0:0:0:0:
256,192,184447,1,0,0:0:0:0:
256,192,184560,1,8,0:0:0:0:
256,192,184673,1,0,0:0:0:0:
256,192,184786,1,0,0:0:0:0:
256,192,185011,1,0,0:0:0:0:
256,192,185124,1,8,0:0:0:0:
256,192,185350,1,0,0:0:0:0:
256,192,185575,1,0,0:0:0:0:
256,192,185688,1,0,0:0:0:0:
256,192,185913,1,0,0:0:0:0:
256,192,186026,1,8,0:0:0:0:
256,192,186252,1,0,0:0:0:0:
256,192,186365,1,0,0:0:0:0:
256,192,186477,1,8,0:0:0:0:
256,192,186703,1,0,0:0:0:0:
256,192,186778,1,0,0:0:0:0:
256,192,186853,1,0,0:0:0:0:
256,192,186928,1,0,0:0:0:0:
256,192,187154,1,8,0:0:0:0:
256,192,187267,1,0,0:0:0:0:
256,192,187380,1,0,0:0:0:0:
256,192,187492,1,8,0:0:0:0:
256,192,187718,1,0,0:0:0:0:
256,192,187831,1,8,0:0:0:0:
256,192,188169,1,0,0:0:0:0:
256,192,188507,1,8,0:0:0:0:
256,192,188733,1,8,0:0:0:0:
256,192,188959,1,0,0:0:0:0:
256,192,189184,1,8,0:0:0:0:
256,192,189297,1,0,0:0:0:0:
256,192,189522,1,0,0:0:0:0:
256,192,189635,1,8,0:0:0:0:
256,192,189861,1,0,0:0:0:0:
256,192,189974,1,8,0:0:0:0:
256,192,190312,1,8,0:0:0:0:
256,192,190538,1,8,0:0:0:0:
256,192,191214,1,8,0:0:0:0:
256,192,191327,1,0,0:0:0:0:
256,192,191440,1,0,0:0:0:0:
256,192,191553,1,8,0:0:0:0:
256,192,191778,1,8,0:0:0:0:
256,192,192004,1,0,0:0:0:0:
256,192,192229,1,0,0:0:0:0:
256,192,192342,1,8,0:0:0:0:
256,192,192455,1,0,0:0:0:0:
256,192,192568,1,4,0:0:0:0:
256,192,192793,1,8,0:0:0:0:
256,192,192906,1,0,0:0:0:0:
256,192,193131,1,0,0:0:0:0:
256,192,193244,1,8,0:0:0:0:
256,192,193470,1,12,0:0:0:0:
256,192,193695,1,0,0:0:0:0:
256,192,193808,1,0,0:0:0:0:
256,192,194034,1,0,0:0:0:0:
256,192,194147,1,8,0:0:0:0:
256,192,194372,1,8,0:0:0:0:
256,192,194598,1,0,0:0:0:0:
256,192,194710,1,0,0:0:0:0:
256,192,195049,1,0,0:0:0:0:
256,192,195500,1,0,0:0:0:0:
256,192,195725,1,0,0:0:0:0:
256,192,195838,1,0,0:0:0:0:
256,192,195951,1,8,0:0:0:0:
256,192,196064,1,0,0:0:0:0:
256,192,196177,1,4,0:0:0:0:
256,192,196289,1,8,0:0:0:0:
256,192,196402,1,8,0:0:0:0:
256,192,196515,1,8,0:0:0:0:
256,192,196628,1,4,0:0:0:0:
256,192,196741,1,8,0:0:0:0:
256,192,196853,1,8,0:0:0:0:
256,192,196966,1,8,0:0:0:0:
256,192,197079,1,4,0:0:0:0:
256,192,197192,1,8,0:0:0:0:
256,192,197304,1,8,0:0:0:0:
256,192,197417,1,8,0:0:0:0:
256,192,197530,1,4,0:0:0:0:
384,192,197981,1,4,0:0:0:0:
480,160,198207,1,2,0:0:0:0:
480,160,198432,1,0,0:0:0:0:
448,192,198545,1,2,0:0:0:0:
384,192,198771,1,0,0:0:0:0:
416,256,198996,1,0,0:0:0:0:
416,224,199109,1,2,0:0:0:0:
448,192,199222,1,0,0:0:0:0:
416,128,199447,1,2,0:0:0:0:
416,160,199560,1,2,0:0:0:0:
416,160,199673,1,2,0:0:0:0:
448,192,199786,1,0,0:0:0:0:
480,128,200011,1,2,0:0:0:0:
480,160,200124,1,0,0:0:0:0:
448,192,200237,1,0,0:0:0:0:
448,160,200350,1,2,0:0:0:0:
448,192,200462,1,0,0:0:0:0:
416,224,200575,1,0,0:0:0:0:
448,192,200688,1,2,0:0:0:0:
384,192,200913,1,0,0:0:0:0:
352,192,201026,1,0,0:0:0:0:
352,192,201083,1,0,0:0:0:0:
480,160,201139,1,2,0:0:0:0:
448,192,201252,1,0,0:0:0:0:
448,160,201365,1,2,0:0:0:0:
416,160,201477,1,2,0:0:0:0:
480,128,201590,1,0,0:0:0:0:
416,192,201928,1,2,0:0:0:0:
416,192,202154,1,0,0:0:0:0:
448,192,202267,1,2,0:0:0:0:
480,160,202380,1,0,0:0:0:0:
480,160,202436,1,0,0:0:0:0:
480,160,202492,1,2,0:0:0:0:
448,192,202605,1,0,0:0:0:0:
480,128,202718,1,2,0:0:0:0:
448,160,202831,1,2,0:0:0:0:
416,192,203056,1,2,0:0:0:0:
384,192,203169,1,0,0:0:0:0:
512,128,203282,1,2,0:0:0:0:
480,160,203395,1,0,0:0:0:0:
480,160,203620,1,2,0:0:0:0:
480,160,203733,1,0,0:0:0:0:
448,224,203959,1,0,0:0:0:0:
480,160,204071,1,2,0:0:0:0:
448,192,204184,1,0,0:0:0:0:
416,192,204297,1,2,0:0:0:0:
384,288,204522,1,0,0:0:0:0:
416,224,204635,1,2,0:0:0:0:
480,192,204861,1,0,0:0:0:0:
448,224,204974,1,2,0:0:0:0:
448,224,205086,1,0,0:0:0:0:
480,160,205199,1,2,0:0:0:0:
512,128,205274,1,0,0:0:0:0:
480,160,205350,1,2,0:0:0:0:
480,160,205425,1,0,0:0:0:0:
448,224,205500,1,2,0:0:0:0:
448,192,205575,1,0,0:0:0:0:
480,160,205650,1,2,0:0:0:0:
480,128,205725,1,0,0:0:0:0:
512,160,205801,1,2,0:0:0:0:
480,160,205876,1,0,0:0:0:0:
480,160,205951,1,2,0:0:0:0:
448,160,206026,1,0,0:0:0:0:
448,160,206101,1,0,0:0:0:0:
384,224,206327,1,0,0:0:0:0:
416,192,206440,1,0,0:0:0:0:
448,160,206553,1,0,0:0:0:0:
512,160,206703,1,2,0:0:0:0:
480,192,206853,1,0,0:0:0:0:
448,160,207004,1,2,0:0:0:0:
480,160,207079,1,0,0:0:0:0:
448,160,207154,1,2,0:0:0:0:
448,192,207229,1,0,0:0:0:0:
448,224,207304,1,2,0:0:0:0:
448,192,207380,1,0,0:0:0:0:
416,192,207455,1,2,0:0:0:0:
448,192,207530,1,0,0:0:0:0:
480,192,207605,1,2,0:0:0:0:
448,192,207680,1,0,0:0:0:0:
480,160,207756,1,2,0:0:0:0:
448,192,207831,1,0,0:0:0:0:
448,192,207906,1,2,0:0:0:0:
480,160,208019,1,2,0:0:0:0:
448,160,208131,1,0,0:0:0:0:
384,160,208357,1,0,0:0:0:0:
384,192,208470,1,0,0:0:0:0:
384,192,208526,1,0,0:0:0:0:
384,192,208583,1,0,0:0:0:0:
480,160,208695,1,2,0:0:0:0:
416,192,208808,1,2,0:0:0:0:
480,192,209147,1,0,0:0:0:0:
448,192,209485,1,2,0:0:0:0:
480,160,209823,1,0,0:0:0:0:
448,192,209936,1,6,0:0:0:0:
384,160,210162,1,0,0:0:0:0:
384,192,210274,1,0,0:0:0:0:
480,192,210387,1,6,0:0:0:0:
448,192,210500,1,0,0:0:0:0:
480,192,210613,1,6,0:0:0:0:
480,160,210725,1,0,0:0:0:0:
448,192,210838,1,0,0:0:0:0:
448,160,210951,1,2,0:0:0:0:
480,192,211064,1,6,0:0:0:0:
480,224,211177,1,2,0:0:0:0:
448,224,211289,1,0,0:0:0:0:
448,160,211402,1,2,0:0:0:0:
480,160,211515,1,6,0:0:0:0:
480,160,211628,1,0,0:0:0:0:
448,160,211684,1,0,0:0:0:0:
416,192,211741,1,0,0:0:0:0:
384,192,211853,1,0,0:0:0:0:
448,224,211966,1,6,0:0:0:0:
480,160,212079,1,2,0:0:0:0:
448,192,212192,1,0,0:0:0:0:
416,192,212304,1,0,0:0:0:0:
416,192,212417,1,6,0:0:0:0:
448,224,212530,1,2,0:0:0:0:
480,160,212643,1,0,0:0:0:0:
448,192,212756,1,2,0:0:0:0:
416,192,212868,1,2,0:0:0:0:
448,160,212981,1,0,0:0:0:0:
480,160,213094,1,2,0:0:0:0:
448,160,213207,1,2,0:0:0:0:
448,160,213319,1,0,0:0:0:0:
448,160,213432,1,2,0:0:0:0:
416,160,213545,1,2,0:0:0:0:
384,160,213601,1,2,0:0:0:0:
480,160,213658,1,0,0:0:0:0:
480,192,213771,1,2,0:0:0:0:
480,192,213827,1,0,0:0:0:0:
448,192,213883,1,2,0:0:0:0:
448,192,213940,1,0,0:0:0:0:
448,192,213996,1,0,0:0:0:0:
448,224,214109,1,2,0:0:0:0:
480,192,214222,1,6,0:0:0:0:
480,192,214334,1,2,0:0:0:0:
448,192,214391,1,2,0:0:0:0:
448,224,214447,1,0,0:0:0:0:
416,224,214560,1,2,0:0:0:0:
416,192,214673,1,2,0:0:0:0:
416,192,214729,1,2,0:0:0:0:
416,192,214786,1,0,0:0:0:0:
480,160,214898,1,2,0:0:0:0:
448,160,214955,1,2,0:0:0:0:
416,160,215011,1,2,0:0:0:0:
448,192,215124,1,0,0:0:0:0:
416,192,215237,1,2,0:0:0:0:
384,192,215350,1,2,0:0:0:0:
352,192,215406,1,2,0:0:0:0:
352,192,215462,1,0,0:0:0:0:
384,192,215575,1,2,0:0:0:0:
448,192,215688,1,2,0:0:0:0:
416,192,215744,1,2,0:0:0:0:
448,192,215801,1,0,0:0:0:0:
480,160,215913,1,2,0:0:0:0:
448,160,216026,1,2,0:0:0:0:
448,192,216083,1,0,0:0:0:0:
448,192,216139,1,2,0:0:0:0:
448,224,216195,1,0,0:0:0:0:
448,192,216252,1,2,0:0:0:0:
448,192,216308,1,0,0:0:0:0:
448,192,216365,1,2,0:0:0:0:
448,192,216421,1,0,0:0:0:0:
448,192,216477,1,2,0:0:0:0:
480,160,216534,1,0,0:0:0:0:
480,160,216590,1,2,0:0:0:0:
480,160,216647,1,0,0:0:0:0:
448,160,216703,1,2,0:0:0:0:
480,160,216759,1,0,0:0:0:0:
480,160,216816,1,2,0:0:0:0:
480,160,216872,1,0,0:0:0:0:
448,192,216928,1,6,0:0:0:0:
416,192,217041,1,0,0:0:0:0:
448,192,217098,1,2,0:0:0:0:
416,192,217154,1,0,0:0:0:0:
448,192,217267,1,2,0:0:0:0:
416,224,217380,1,2,0:0:0:0:
448,192,217492,1,0,0:0:0:0:
480,160,217605,1,0,0:0:0:0:
448,192,217662,1,0,0:0:0:0:
448,192,217718,1,2,0:0:0:0:
448,192,217831,1,6,0:0:0:0:
480,224,217944,1,2,0:0:0:0:
448,224,218000,1,2,0:0:0:0:
416,224,218056,1,0,0:0:0:0:
480,160,218169,1,2,0:0:0:0:
448,192,218282,1,2,0:0:0:0:
448,192,218338,1,2,0:0:0:0:
448,192,218395,1,0,0:0:0:0:
480,160,218507,1,2,0:0:0:0:
448,160,218564,1,0,0:0:0:0:
448,160,218620,1,0,0:0:0:0:
480,192,218733,1,4,0:0:0:0:
448,192,218846,1,2,0:0:0:0:
416,224,218959,1,2,0:0:0:0:
448,192,219071,1,0,0:0:0:0:
416,192,219128,1,0,0:0:0:0:
448,192,219184,1,2,0:0:0:0:
416,192,219297,1,0,0:0:0:0:
512,128,219410,1,2,0:0:0:0:
448,192,219522,1,0,0:0:0:0:
416,224,219635,1,6,0:0:0:0:
416,192,219748,5,0,0:0:0:0:
416,160,219804,1,0,0:0:0:0:
416,160,219861,1,0,0:0:0:0:
512,128,219974,1,2,0:0:0:0:
416,192,220086,1,2,0:0:0:0:
416,192,220143,1,2,0:0:0:0:
416,192,220199,1,0,0:0:0:0:
384,160,220312,1,0,0:0:0:0:
448,192,220425,1,2,0:0:0:0:
384,160,220538,1,2,0:0:0:0:
384,192,220650,1,2,0:0:0:0:
384,224,220707,1,2,0:0:0:0:
384,224,220763,1,2,0:0:0:0:
448,192,220876,1,0,0:0:0:0:
416,224,220989,1,0,0:0:0:0:
416,224,221045,1,0,0:0:0:0:
416,224,221101,1,2,0:0:0:0:
448,192,221214,1,0,0:0:0:0:
480,160,221327,1,2,0:0:0:0:
448,192,221440,1,4,0:0:0:0:
448,192,221553,1,0,0:0:0:0:
416,224,221609,1,0,0:0:0:0:
416,224,221665,1,2,0:0:0:0:
480,160,221778,1,0,0:0:0:0:
448,192,221891,1,0,0:0:0:0:
480,160,222004,1,2,0:0:0:0:
448,192,222116,1,0,0:0:0:0:
448,160,222173,1,0,0:0:0:0:
448,192,222229,1,0,0:0:0:0:
416,224,222342,1,2,0:0:0:0:
448,192,222455,1,2,0:0:0:0:
480,160,222568,1,0,0:0:0:0:
448,160,222624,1,0,0:0:0:0:
480,160,222680,1,2,0:0:0:0:
480,192,222793,1,0,0:0:0:0:
448,192,222906,1,0,0:0:0:0:
448,192,222962,1,0,0:0:0:0:
448,192,223019,1,2,0:0:0:0:
448,256,223244,1,6,0:0:0:0:
480,160,223357,1,2,0:0:0:0:
448,160,223413,1,2,0:0:0:0:
480,160,223470,1,0,0:0:0:0:
480,160,223583,1,2,0:0:0:0:
448,192,223695,1,2,0:0:0:0:
416,192,223752,1,2,0:0:0:0:
448,192,223808,1,0,0:0:0:0:
480,160,223921,1,2,0:0:0:0:
448,192,224034,1,2,0:0:0:0:
448,192,224090,1,2,0:0:0:0:
448,224,224147,1,0,0:0:0:0:
480,160,224203,1,2,0:0:0:0:
448,224,224259,1,2,0:0:0:0:
448,192,224316,1,2,0:0:0:0:
480,192,224372,1,0,0:0:0:0:
480,192,224428,1,2,0:0:0:0:
480,192,224485,1,2,0:0:0:0:
448,192,224541,1,2,0:0:0:0:
448,192,224598,1,0,0:0:0:0:
448,160,224673,1,2,0:0:0:0:
448,160,224748,1,2,0:0:0:0:
480,160,224823,1,0,0:0:0:0:
448,160,224936,1,0,0:0:0:0:
448,192,225049,1,6,0:0:0:0:
416,192,225162,1,0,0:0:0:0:
384,224,225274,1,0,0:0:0:0:
480,160,225387,1,2,0:0:0:0:
480,192,225500,1,6,0:0:0:0:
448,192,225613,1,0,0:0:0:0:
416,192,225725,1,0,0:0:0:0:
448,192,225838,1,2,0:0:0:0:
480,192,225951,1,6,0:0:0:0:
448,224,226064,1,0,0:0:0:0:
416,192,226177,1,2,0:0:0:0:
416,224,226289,1,6,0:0:0:0:
448,192,226402,1,0,0:0:0:0:
416,224,226515,1,0,0:0:0:0:
416,224,226571,1,0,0:0:0:0:
416,224,226628,1,6,0:0:0:0:
416,224,226741,1,0,0:0:0:0:
258,189,226853,5,8,0:0:0:0:
258,189,226966,1,0,0:0:0:0:
258,189,227079,1,0,0:0:0:0:
258,189,227192,1,8,0:0:0:0:
258,189,227304,1,0,0:0:0:0:
258,189,227417,1,0,0:0:0:0:
258,189,227530,1,8,0:0:0:0:
258,189,227643,1,0,0:0:0:0:
258,189,227756,1,0,0:0:0:0:
258,189,227869,1,8,0:0:0:0:
258,189,227981,1,0,0:0:0:0:
258,189,228094,1,0,0:0:0:0:
258,189,228207,1,8,0:0:0:0:
258,189,228319,1,0,0:0:0:0:
258,189,228432,1,8,0:0:0:0:
258,189,228545,1,0,0:0:0:0:
258,189,228658,1,8,0:0:0:0:
258,189,228771,1,8,0:0:0:0:
258,189,228883,1,0,0:0:0:0:
258,189,228996,1,8,0:0:0:0:
258,189,229109,1,8,0:0:0:0:
258,189,229222,1,0,0:0:0:0:
258,189,229334,1,8,0:0:0:0:
258,189,229447,1,8,0:0:0:0:
258,189,229560,1,0,0:0:0:0:
258,189,229673,1,8,0:0:0:0:
258,189,229786,1,8,0:0:0:0:
258,189,229898,1,0,0:0:0:0:
258,189,230011,1,8,0:0:0:0:
258,189,230124,1,0,0:0:0:0:
258,189,230237,1,0,0:0:0:0:
258,189,230350,1,0,0:0:0:0:
258,189,230462,1,0,0:0:0:0:
258,189,230538,1,8,0:0:0:0:
258,189,230613,1,0,0:0:0:0:
258,189,230688,1,8,0:0:0:0:
258,189,230763,1,0,0:0:0:0:
258,189,230913,1,0,0:0:0:0:
258,189,231064,1,0,0:0:0:0:
258,189,231214,1,0,0:0:0:0:
258,189,231365,1,0,0:0:0:0:
258,189,231477,1,0,0:0:0:0:
258,189,231590,1,8,0:0:0:0:
258,189,231703,1,8,0:0:0:0:
258,189,231816,1,0,0:0:0:0:
258,189,231928,1,0,0:0:0:0:
258,189,232041,1,0,0:0:0:0:
258,189,232267,1,0,0:0:0:0:
258,189,232492,1,8,0:0:0:0:
258,189,232605,1,0,0:0:0:0:
258,189,232831,1,0,0:0:0:0:
258,189,232944,1,8,0:0:0:0:
258,189,233169,1,0,0:0:0:0:
258,189,233244,1,0,0:0:0:0:
258,189,233319,1,0,0:0:0:0:
258,189,233395,1,0,0:0:0:0:
258,189,233507,1,0,0:0:0:0:
258,189,233620,1,8,0:0:0:0:
258,189,233846,1,0,0:0:0:0:
258,189,233959,1,0,0:0:0:0:
258,189,234635,1,8,0:0:0:0:
258,189,234748,1,8,0:0:0:0:
258,189,234861,1,8,0:0:0:0:
258,189,234974,1,0,0:0:0:0:
258,189,235086,1,0,0:0:0:0:
258,189,235199,1,8,0:0:0:0:
258,189,235312,1,0,0:0:0:0:
258,189,235425,1,0,0:0:0:0:
258,189,235538,1,0,0:0:0:0:
258,189,235650,1,8,0:0:0:0:
258,189,235763,1,8,0:0:0:0:
258,189,235876,1,8,0:0:0:0:
258,189,236026,1,0,0:0:0:0:
258,189,236177,1,0,0:0:0:0:
258,189,236327,1,0,0:0:0:0:
258,189,236477,1,8,0:0:0:0:
258,189,236628,1,8,0:0:0:0:
258,189,236778,1,0,0:0:0:0:
258,189,237004,1,8,0:0:0:0:
258,189,237680,1,0,0:0:0:0:
258,189,238131,1,8,0:0:0:0:
258,189,238207,1,8,0:0:0:0:
258,189,238282,1,8,0:0:0:0:
258,189,238357,1,0,0:0:0:0:
258,189,238583,1,8,0:0:0:0:
258,189,238808,1,0,0:0:0:0:
258,189,239034,1,0,0:0:0:0:
258,189,239485,1,0,0:0:0:0:
258,189,239560,1,0,0:0:0:0:
258,189,239635,1,0,0:0:0:0:
258,189,239710,1,8,0:0:0:0:
258,189,239936,1,0,0:0:0:0:
258,189,240011,1,0,0:0:0:0:
258,189,240086,1,0,0:0:0:0:
258,189,240162,1,8,0:0:0:0:
258,189,240387,1,0,0:0:0:0:
258,189,240462,1,0,0:0:0:0:
258,189,240538,1,0,0:0:0:0:
258,189,240613,1,8,0:0:0:0:
258,189,240838,1,0,0:0:0:0:
258,189,240913,1,0,0:0:0:0:
258,189,240989,1,0,0:0:0:0:
258,189,241064,1,0,0:0:0:0:
257,188,241289,5,0,0:0:0:0:
257,188,241402,1,0,0:0:0:0:
257,188,241515,1,8,0:0:0:0:
257,188,241628,1,0,0:0:0:0:
257,188,241741,1,8,0:0:0:0:
257,188,241853,1,8,0:0:0:0:
257,188,241966,1,0,0:0:0:0:
257,188,242079,1,8,0:0:0:0:
257,188,242192,5,0,0:0:0:0:
257,188,242305,1,0,0:0:0:0:
257,188,242418,1,8,0:0:0:0:
257,188,242531,1,0,0:0:0:0:
257,188,242644,1,8,0:0:0:0:
257,188,242756,1,8,0:0:0:0:
257,188,242869,1,0,0:0:0:0:
257,188,242982,1,8,0:0:0:0:
257,188,243094,5,0,0:0:0:0:
257,188,243207,1,0,0:0:0:0:
257,188,243320,1,8,0:0:0:0:
257,188,243433,1,0,0:0:0:0:
257,188,243546,1,8,0:0:0:0:
257,188,243658,1,8,0:0:0:0:
257,188,243771,1,0,0:0:0:0:
257,188,243884,1,8,0:0:0:0:
257,188,243996,5,0,0:0:0:0:
257,188,244109,1,0,0:0:0:0:
257,188,244222,1,8,0:0:0:0:
257,188,244335,1,0,0:0:0:0:
257,188,244448,1,8,0:0:0:0:
257,188,244560,1,8,0:0:0:0:
257,188,244673,1,0,0:0:0:0:
257,188,244786,1,8,0:0:0:0:
257,188,244898,1,0,0:0:0:0:
257,188,245011,1,8,0:0:0:0:
257,188,245124,1,8,0:0:0:0:
257,188,245237,1,0,0:0:0:0:
257,188,245350,1,8,0:0:0:0:
257,188,245462,1,0,0:0:0:0:
257,188,245575,1,0,0:0:0:0:
257,188,245688,1,8,0:0:0:0:
257,188,245801,1,0,0:0:0:0:
257,188,245914,1,8,0:0:0:0:
257,188,246027,1,8,0:0:0:0:
257,188,246140,1,0,0:0:0:0:
257,188,246253,1,8,0:0:0:0:
257,188,246365,1,0,0:0:0:0:
257,188,246478,1,0,0:0:0:0:
257,188,246591,1,8,0:0:0:0:
257,188,246703,1,0,0:0:0:0:
257,188,246778,1,0,0:0:0:0:
257,188,246853,1,0,0:0:0:0:
257,188,246928,1,8,0:0:0:0:
257,188,247041,1,0,0:0:0:0:
257,188,247154,1,8,0:0:0:0:
257,188,247267,1,8,0:0:0:0:
257,188,247380,1,0,0:0:0:0:
257,188,247492,1,8,0:0:0:0:
257,188,247605,1,0,0:0:0:0:
257,188,247680,1,0,0:0:0:0:
257,188,247755,1,0,0:0:0:0:
257,188,247830,1,8,0:0:0:0:
257,188,247943,1,0,0:0:0:0:
257,188,248056,5,8,0:0:0:0:
257,188,248169,1,8,0:0:0:0:
257,188,248282,1,0,0:0:0:0:
257,188,248394,1,8,0:0:0:0:
257,190,249184,5,12,0:0:0:0:
