osu file format v14

[General]
AudioFilename: audio.mp3
AudioLeadIn: 0
PreviewTime: 35096
Countdown: 1
SampleSet: None
StackLeniency: 0.7
Mode: 2
LetterboxInBreaks: 0
WidescreenStoryboard: 0

[Editor]
DistanceSpacing: 0.7
BeatDivisor: 2
GridSize: 16
TimelineZoom: 1.3

[Metadata]
Title:f f f f f
TitleUnicode:ƒƒƒƒƒ
Artist:Five Hammer
ArtistUnicode:Five Hammer
Creator:Vincs
Version:Zero
Source:
Tags:
BeatmapID:940092
BeatmapSetID:436455

[Difficulty]
HPDrainRate:5
CircleSize:0
OverallDifficulty:8
ApproachRate:9.4
SliderMultiplier:2
SliderTickRate:1

[Events]
//Background and Video events
0,0,"Konachan.com - 216961 armor bloodborne dark hat mask snatti sword the_hunter weapon white_hair.jpg",0,0
//Break Periods
//Storyboard Layer 0 (Background)
//Storyboard Layer 1 (Fail)
//Storyboard Layer 2 (Pass)
//Storyboard Layer 3 (Foreground)
//Storyboard Sound Samples

[TimingPoints]
1185,217.381818181818,4,2,0,100,1,0
36726,-100,4,2,0,5,0,0
36835,-100,4,2,0,100,0,0
37052,-100,4,2,0,5,0,0
37161,-100,4,2,0,100,0,0
37379,-100,4,2,0,5,0,0
37487,-100,4,2,0,100,0,0
37596,-100,4,2,0,5,0,0
37705,-100,4,2,0,100,0,0
38900,-100,4,2,0,50,0,0
39552,-100,4,2,0,100,0,0
40313,-100,4,2,0,50,0,0
40531,-100,4,2,0,100,0,0
47269,-100,4,2,0,50,0,0
47487,-100,4,2,0,100,0,0
53139,-83.3333333333333,4,2,0,100,0,0
54443,-50,4,2,0,100,0,0
57921,-50,4,2,0,100,0,0
60312,-50,4,2,0,100,0,0
63356,-100,4,2,0,100,0,0
69334,-66.6666666666667,4,2,0,100,0,0
70095,-133.333333333333,4,2,0,100,0,0
70747,-100,4,2,0,100,0,0

[HitObjects]
208,320,1184,5,0,0:0:0:0:
147,276,1293,1,0,0:0:0:0:
98,219,1402,1,0,0:0:0:0:
64,153,1511,1,0,0:0:0:0:
416,160,1619,2,0,L|280:160,3,100
80,192,2054,6,0,L|80:296,1,100
432,192,2271,2,0,L|432:312,1,100
80,88,2489,2,0,L|224:88,2,100
432,88,2815,1,0,0:0:0:0:
192,264,2924,2,0,L|80:264,1,100
448,256,3141,2,0,L|448:144,1,100
56,176,3358,2,0,L|160:176,2,100
432,168,3684,1,0,0:0:0:0:
224,320,3793,5,0,0:0:0:0:
162,270,3902,1,0,0:0:0:0:
251,233,4010,1,0,0:0:0:0:
331,195,4119,1,0,0:0:0:0:
32,160,4228,2,0,L|152:160,1,100
416,176,4445,1,0,0:0:0:0:
132,160,4554,1,0,0:0:0:0:
240,112,4663,1,0,0:0:0:0:
240,112,4717,1,0,0:0:0:0:
240,112,4771,1,0,0:0:0:0:
480,304,4880,6,0,L|480:176,1,100
96,208,5097,2,0,L|96:112,2,50
304,176,5315,1,0,0:0:0:0:
104,112,5423,1,0,0:0:0:0:
408,112,5532,1,0,0:0:0:0:
408,112,5586,1,0,0:0:0:0:
408,112,5641,1,0,0:0:0:0:
408,112,5750,1,0,0:0:0:0:
104,224,5858,1,0,0:0:0:0:
424,272,5967,2,0,L|424:192,2,50
224,272,6184,1,0,0:0:0:0:
424,272,6293,1,0,0:0:0:0:
176,112,6402,2,0,L|304:112,2,100
400,96,6728,2,0,L|288:96,2,100
176,240,7054,5,0,0:0:0:0:
384,240,7162,1,0,0:0:0:0:
160,152,7271,2,0,L|48:104,1,100
384,144,7489,1,0,0:0:0:0:
160,152,7597,2,0,L|264:104,1,100
48,160,7815,1,0,0:0:0:0:
368,80,7923,2,0,L|232:80,1,100
480,80,8141,2,0,L|480:224,1,100
32,176,8358,2,0,L|192:176,1,100
368,176,8575,5,0,0:0:0:0:
368,176,8684,1,0,0:0:0:0:
496,176,8793,2,0,L|496:304,1,100
160,192,9010,1,0,0:0:0:0:
160,192,9119,1,0,0:0:0:0:
16,192,9228,2,0,L|16:64,1,100
432,240,9445,2,0,L|288:240,2,100
112,112,9771,5,0,0:0:0:0:
320,112,9880,2,0,L|464:112,2,100
64,256,10206,1,0,0:0:0:0:
192,256,10315,1,0,0:0:0:0:
64,256,10423,1,0,0:0:0:0:
192,256,10532,1,0,0:0:0:0:
64,256,10641,1,0,0:0:0:0:
336,144,10749,1,0,0:0:0:0:
208,144,10858,1,0,0:0:0:0:
464,256,10967,5,0,0:0:0:0:
352,256,11075,1,0,0:0:0:0:
464,192,11184,1,0,0:0:0:0:
464,192,11293,1,0,0:0:0:0:
256,176,11401,1,0,0:0:0:0:
256,176,11510,1,0,0:0:0:0:
464,112,11619,6,0,L|320:112,2,100
464,112,11945,1,0,0:0:0:0:
176,272,12054,1,0,0:0:0:0:
176,272,12162,1,0,0:0:0:0:
320,272,12271,1,0,0:0:0:0:
320,272,12380,1,0,0:0:0:0:
80,176,12488,2,0,L|208:176,2,100
80,176,12814,1,0,0:0:0:0:
384,176,12923,5,0,0:0:0:0:
384,176,13032,1,0,0:0:0:0:
160,160,13140,1,0,0:0:0:0:
160,160,13249,1,0,0:0:0:0:
432,112,13358,1,0,0:0:0:0:
432,112,13467,1,0,0:0:0:0:
80,96,13575,1,0,0:0:0:0:
80,96,13684,1,0,0:0:0:0:
304,112,13793,1,0,0:0:0:0:
304,112,13901,1,0,0:0:0:0:
192,208,14010,1,0,0:0:0:0:
192,208,14119,1,0,0:0:0:0:
464,160,14227,6,0,L|320:160,1,100
48,160,14445,2,0,L|192:160,1,100
384,272,14662,1,0,0:0:0:0:
256,272,14771,1,0,0:0:0:0:
384,208,14880,1,0,0:0:0:0:
256,192,14988,1,0,0:0:0:0:
464,160,15097,5,0,0:0:0:0:
464,160,15206,1,0,0:0:0:0:
256,112,15314,1,0,0:0:0:0:
256,112,15423,1,0,0:0:0:0:
48,160,15532,2,0,L|160:160,3,100
400,176,15966,1,0,0:0:0:0:
400,176,16075,1,0,0:0:0:0:
192,160,16184,1,0,0:0:0:0:
192,160,16293,1,0,0:0:0:0:
448,176,16401,6,0,L|304:176,3,100
64,128,16836,2,0,L|192:128,2,100
164,128,17162,1,0,0:0:0:0:
384,64,17271,2,0,L|192:64,2,100
80,64,17597,1,0,0:0:0:0:
336,208,17706,2,0,L|208:208,2,100
448,208,18032,1,0,0:0:0:0:
160,160,18140,2,0,L|288:160,2,100
48,160,18466,1,0,0:0:0:0:
336,160,18575,6,0,L|336:48,1,100
80,48,18792,2,0,L|80:176,1,100
432,272,19010,2,0,L|432:144,1,100
192,112,19227,2,0,L|192:256,1,100
464,160,19445,2,0,L|336:160,1,100
32,80,19662,2,0,L|192:80,1,100
432,304,19879,2,0,L|320:304,1,100
224,224,20097,2,0,L|336:224,1,100
112,144,20314,2,0,L|-32:144,1,100
304,144,20531,2,0,L|448:144,1,100
144,192,20749,2,0,L|144:80,1,100
352,208,20966,2,0,L|352:80,1,100
128,96,21184,5,0,0:0:0:0:
336,96,21292,1,0,0:0:0:0:
128,96,21401,1,0,0:0:0:0:
336,96,21510,1,0,0:0:0:0:
64,208,21618,2,0,L|64:80,1,100
416,224,21836,2,0,L|416:112,1,100
176,192,22053,2,0,L|176:304,1,100
48,192,22271,1,0,0:0:0:0:
352,96,22379,2,0,L|352:208,1,100
464,96,22597,2,0,L|320:96,2,100
144,144,22923,6,0,L|144:272,1,100
16,144,23140,1,0,0:0:0:0:
320,96,23249,2,0,L|464:96,1,100
208,80,23466,2,0,L|80:80,1,100
496,192,23684,2,0,L|396:192,1,100
32,208,23901,2,0,L|192:208,1,100
384,144,24118,2,0,L|256:144,2,100
128,96,24444,2,0,L|240:96,2,100
464,80,24770,6,0,L|464:208,1,100
256,80,24988,2,0,L|256:208,1,100
48,80,25205,6,0,L|48:208,1,100
256,192,25423,2,0,L|368:192,1,100
32,304,25640,2,0,L|160:304,2,100
256,192,25966,1,0,0:0:0:0:
480,304,26075,2,0,L|352:304,2,100
96,192,26401,2,0,L|96:64,1,100
416,80,26618,2,0,L|416:224,1,100
32,80,26836,2,0,L|160:80,1,100
464,96,27053,2,0,L|304:96,1,100
144,224,27270,1,0,0:0:0:0:
144,224,27379,1,0,0:0:0:0:
368,224,27488,1,0,0:0:0:0:
368,224,27596,1,0,0:0:0:0:
80,160,27705,6,0,L|208:160,3,100
432,160,28140,6,0,L|304:160,3,100
128,96,28575,2,0,L|0:96,1,100
384,64,28792,2,0,L|512:64,1,100
192,272,29009,2,0,L|192:112,1,100
32,224,29227,1,0,0:0:0:0:
320,272,29335,2,0,L|320:112,1,100
480,224,29553,1,0,0:0:0:0:
144,160,29662,2,0,L|144:48,1,100
416,112,29879,6,0,L|304:112,2,100
96,112,30205,1,0,0:0:0:0:
368,240,30314,2,0,L|224:240,1,100
64,176,30531,2,0,L|208:176,1,100
432,128,30748,2,0,L|256:128,1,100
32,80,30966,2,0,L|224:80,1,100
480,48,31183,2,0,L|304:48,1,100
16,272,31401,2,0,L|144:272,1,100
448,272,31618,6,0,L|448:144,1,100
116,272,31835,2,0,L|116:160,1,100
384,272,32053,2,0,L|384:144,1,100
160,272,32270,2,0,L|160:160,1,100
384,96,32487,2,0,L|496:96,1,100
144,112,32705,2,0,L|32:112,1,100
320,64,32922,2,0,L|176:64,3,100
512,80,33357,2,0,L|384:80,2,100
256,80,33683,1,0,0:0:0:0:
0,80,33792,2,0,L|128:80,2,100
256,80,34118,1,0,0:0:0:0:
496,80,34227,2,0,L|368:80,3,100
16,80,34661,2,0,L|144:80,3,100
480,96,35096,6,0,L|480:48,1,25
32,96,35422,2,0,L|32:128,1,25
480,208,35748,2,0,L|480:160,1,25
128,272,35966,1,0,0:0:0:0:
93,235,36020,1,0,0:0:0:0:
93,188,36074,1,0,0:0:0:0:
131,156,36129,1,0,0:0:0:0:
176,136,36183,1,0,0:0:0:0:
225,121,36237,1,0,0:0:0:0:
273,110,36292,1,0,0:0:0:0:
64,320,36400,6,0,P|176:240|64:64,1,333.333333333333
464,192,36835,2,0,L|160:192,1,266.666666666667
368,320,37197,2,0,P|432:160|432:80,1,200
192,224,37487,2,0,L|48:160,1,133.333333333333
432,192,37705,6,0,L|432:144,1,25
112,192,37922,2,0,L|112:160,1,25
48,80,38139,2,0,L|48:48,1,25
464,112,38357,2,0,L|464:80,1,25
144,96,38574,1,0,0:0:0:0:
368,96,38683,5,0,0:0:0:0:
80,32,38792,1,0,0:0:0:0:
449,346,38900,5,0,0:0:0:0:
427,333,38936,5,0,0:0:0:0:
407,318,38954,5,0,0:0:0:0:
388,301,38981,5,0,0:0:0:0:
372,282,39008,5,0,0:0:0:0:
359,261,39035,5,0,0:0:0:0:
348,239,39063,5,0,0:0:0:0:
339,215,39090,5,0,0:0:0:0:
334,191,39117,5,0,0:0:0:0:
331,166,39144,5,0,0:0:0:0:
332,141,39171,5,0,0:0:0:0:
335,116,39198,5,0,0:0:0:0:
341,92,39226,5,0,0:0:0:0:
350,69,39253,5,0,0:0:0:0:
362,47,39280,5,0,0:0:0:0:
376,26,39307,5,0,0:0:0:0:
393,8,39334,5,0,0:0:0:0:
412,0,39361,5,0,0:0:0:0:
432,0,39389,5,0,0:0:0:0:
454,0,39416,5,0,0:0:0:0:
480,32,39444,6,0,L|288:32,1,133.333333333333
32,128,39661,2,0,L|32:96,1,25
448,192,39878,2,0,L|448:160,1,25
112,272,40096,2,0,L|112:224,1,25
400,320,40313,5,0,0:0:0:0:
411,297,40340,5,0,0:0:0:0:
421,274,40367,5,0,0:0:0:0:
429,251,40394,5,0,0:0:0:0:
434,226,40421,5,0,0:0:0:0:
438,202,40448,5,0,0:0:0:0:
439,177,40476,5,0,0:0:0:0:
438,152,40503,5,0,0:0:0:0:
435,127,40530,5,0,0:0:0:0:
128,160,40639,2,0,L|16:160,1,100
368,128,40857,1,0,0:0:0:0:
16,64,40965,2,0,L|144:64,1,100
416,272,41183,2,0,L|480:272,1,50
320,240,41291,2,0,L|256:240,1,50
416,208,41400,2,0,L|480:208,1,50
288,160,41509,2,0,L|224:160,1,50
384,128,41618,2,0,L|448:128,1,50
240,80,41726,2,0,L|176:80,1,50
336,48,41835,2,0,L|400:48,1,50
192,144,41944,2,0,L|128:144,1,50
288,112,42052,6,0,P|336:224|288:288,1,200
48,224,42342,2,0,L|320:192,1,266.666666666667
128,336,42704,2,0,P|64:224|32:112,1,200
352,272,43139,2,0,L|240:272,1,100
464,144,43357,2,0,L|336:144,2,100
252,272,43683,2,0,L|396:272,1,100
128,160,43900,6,0,L|272:160,1,100
32,64,44117,2,0,L|160:64,2,100
260,272,44444,2,0,L|116:272,1,100
384,160,44661,2,0,L|240:160,1,100
480,64,44878,2,0,L|352:64,2,100
252,272,45204,2,0,L|396:272,1,100
128,160,45421,2,0,L|272:160,1,100
32,64,45638,6,0,L|160:64,2,100
260,272,45965,2,0,L|116:272,1,100
384,160,46182,2,0,L|240:160,1,100
512,64,46400,2,0,L|272:64,1,200
312,64,46644,1,0,0:0:0:0:
496,256,46835,2,0,L|496:224,1,25
64,256,47052,2,0,L|64:224,1,25
384,320,47269,5,0,0:0:0:0:
397,299,47296,1,0,0:0:0:0:
409,277,47323,1,0,0:0:0:0:
419,254,47350,1,0,0:0:0:0:
426,230,47377,1,0,0:0:0:0:
432,205,47404,1,0,0:0:0:0:
435,181,47432,1,0,0:0:0:0:
436,156,47459,1,0,0:0:0:0:
434,131,47486,1,0,0:0:0:0:
176,256,47596,6,0,P|96:208|48:96,1,200
384,208,47922,2,0,P|320:144|256:112,1,150
224,96,48139,2,0,L|144:96,1,50
320,96,48248,2,0,L|384:96,1,50
208,160,48356,2,0,L|144:160,1,50
336,160,48465,2,0,L|400:160,1,50
224,240,48574,2,0,L|160:240,1,50
320,240,48682,2,0,L|384:240,1,50
144,320,48791,2,0,P|80:240|160:16,1,333.333333333333
464,192,49226,6,0,L|208:192,1,200
32,112,49516,2,0,L|304:112,1,266.666666666667
80,288,49878,2,0,P|48:208|48:144,1,133.333333333333
352,176,50095,2,0,L|496:176,1,133.333333333333
144,176,50313,2,0,L|-32:176,1,133.333333333333
384,288,50530,2,0,P|416:192|400:144,1,133.333333333333
128,128,50748,5,0,0:0:0:0:
336,128,50856,2,0,L|448:128,1,100
80,224,51074,2,0,L|80:192,1,25
416,224,51291,2,0,L|416:176,1,25
176,144,51400,6,0,L|176:32,3,100
384,80,51834,2,0,L|496:80,1,100
144,80,52052,1,0,0:0:0:0:
384,80,52161,6,0,L|496:80,1,100
192,176,52379,1,0,0:0:0:0:
416,224,52487,2,0,L|464:128,1,100
240,272,52705,1,0,0:0:0:0:
496,336,52813,2,0,L|496:208,1,100
144,176,53031,1,0,0:0:0:0:
368,320,53139,6,0,P|427:264|484:187,1,159.999995117188
128,240,53356,6,0,L|-16:128,1,159.999995117188
384,240,53574,6,0,L|528:128,1,159.999995117188
128,240,53791,6,0,L|-16:128,1,159.999995117188
384,240,54008,6,0,L|528:128,1,159.999995117188
128,240,54226,6,0,L|-16:128,1,159.999995117188
352,144,54443,2,0,L|80:144,1,200
352,48,54769,2,0,L|144:48,1,200
352,176,55095,1,0,0:0:0:0:
160,272,55313,2,0,L|368:272,1,200
160,272,55639,2,0,L|368:272,1,200
160,160,55965,5,0,0:0:0:0:
368,64,56182,2,0,L|144:64,1,200
368,64,56508,2,0,L|144:64,1,200
512,256,56834,2,0,L|208:256,1,266.666666666667
0,160,57052,2,0,L|288:160,1,266.666666666667
480,80,57269,2,0,L|208:80,1,266.666666666667
0,272,57486,2,0,L|304:272,1,266.666666666667
512,208,57704,2,0,L|240:208,1,266.666666666667
0,144,57921,1,0,0:0:0:0:
272,144,58030,1,0,0:0:0:0:
272,32,58247,5,0,0:0:0:0:
0,32,58356,1,0,0:0:0:0:
512,32,58573,1,0,0:0:0:0:
512,352,58791,1,0,0:0:0:0:
240,352,58900,1,0,0:0:0:0:
240,240,59117,5,0,0:0:0:0:
512,240,59226,1,0,0:0:0:0:
0,320,59443,5,0,0:0:0:0:
0,144,59660,1,0,0:0:0:0:
272,144,59769,1,0,0:0:0:0:
272,32,59986,5,0,0:0:0:0:
0,32,60095,1,0,0:0:0:0:
512,240,60312,6,0,L|208:240,1,266.666666666667
0,304,60530,2,0,L|288:304,1,266.666666666667
512,128,60747,2,0,L|240:128,1,266.666666666667
0,64,60964,2,0,L|288:64,1,266.666666666667
512,256,61182,2,0,L|192:256,1,266.666666666667
0,144,61399,5,0,0:0:0:0:
512,144,61508,1,0,0:0:0:0:
512,48,61725,1,0,0:0:0:0:
0,256,61833,1,0,0:0:0:0:
0,144,62051,1,0,0:0:0:0:
0,32,62269,1,0,0:0:0:0:
512,48,62377,1,0,0:0:0:0:
512,176,62595,1,0,0:0:0:0:
0,176,62704,1,0,0:0:0:0:
0,304,62921,5,0,0:0:0:0:
0,48,63138,1,0,0:0:0:0:
512,48,63247,1,0,0:0:0:0:
240,96,63356,2,0,L|208:160,1,50
384,96,63464,2,0,L|448:96,1,50
160,208,63573,2,0,L|144:256,1,50
352,224,63682,2,0,L|432:224,1,50
448,224,63790,2,0,P|480:160|496:96,1,100
192,256,64008,6,0,L|192:128,1,100
432,256,64225,2,0,L|432:128,1,100
80,192,64443,2,0,L|80:64,1,100
400,160,64660,2,0,L|240:160,2,100
144,288,64986,2,0,P|96:192|112:96,1,200
400,112,65312,2,0,L|400:80,1,25
64,144,65530,2,0,L|64:112,1,25
464,192,65747,2,0,L|464:144,1,25
160,192,65856,6,0,L|304:192,2,100
496,96,66182,2,0,L|352:96,2,100
160,256,66508,2,0,L|160:144,1,100
416,272,66725,2,0,L|416:160,1,100
80,256,66942,2,0,L|368:208,1,200
32,176,67269,2,0,L|32:64,1,100
320,176,67486,6,0,L|144:176,3,100
480,96,67921,2,0,L|320:96,2,100
64,96,68247,2,0,L|208:96,2,100
400,304,68573,2,0,L|400:160,1,100
96,192,68790,1,0,0:0:0:0:
320,112,68899,2,0,L|160:112,3,100
448,176,69334,2,0,L|448:128,1,37.5000014305115
112,160,69551,2,0,L|112:112,1,37.5000014305115
400,304,69768,1,0,0:0:0:0:
400,304,69805,2,0,P|428:163|336:32,1,300.000011444092
80,320,70095,2,0,B|38:239|48:107|331:115,1,400.00001525879
96,320,70747,5,0,0:0:0:0:
58,265,70819,1,0,0:0:0:0:
47,200,70891,1,0,0:0:0:0:
63,136,70964,1,0,0:0:0:0:
104,84,71036,1,0,0:0:0:0:
162,53,71109,1,0,0:0:0:0:
224,48,71181,2,0,L|304:48,1,66.6666666666667,8|0,0:0|0:0,0:0:0:0:
112,64,71326,2,0,L|48:48,1,66.6666666666667,8|0,0:0|0:0,0:0:0:0:
256,160,71471,2,0,L|352:144,1,66.6666666666667,8|0,0:0|0:0,0:0:0:0:
144,192,71616,6,0,L|64:208,1,66.6666666666667,8|0,0:0|0:0,0:0:0:0:
320,256,71761,2,0,L|416:224,1,66.6666666666667,8|0,0:0|0:0,0:0:0:0:
192,304,71906,2,0,L|80:320,1,66.6666666666667,8|0,0:0|0:0,0:0:0:0:
336,208,72051,2,0,L|464:192,1,66.6666666666667,8|0,0:0|0:0,0:0:0:0:
176,176,72196,2,0,L|80:160,1,66.6666666666667,8|0,0:0|0:0,0:0:0:0:
336,96,72341,2,0,L|432:64,1,66.6666666666667,8|0,0:0|0:0,0:0:0:0:
176,96,72486,1,0,0:0:0:0:
115,68,72558,1,0,0:0:0:0:
57,35,72630,1,0,0:0:0:0:
24,49,72703,5,0,0:0:0:0:
32,115,72775,1,0,0:0:0:0:
65,172,72848,1,0,0:0:0:0:
128,208,72920,2,0,L|240:208,1,66.6666666666667,8|0,0:0|0:0,0:0:0:0:
368,208,73065,2,0,L|256:192,1,66.6666666666667,8|0,0:0|0:0,0:0:0:0:
80,128,73210,2,0,L|176:112,1,66.6666666666667,8|0,0:0|0:0,0:0:0:0:
384,112,73355,2,0,L|256:80,1,66.6666666666667,8|0,0:0|0:0,0:0:0:0:
32,48,73500,2,0,L|144:64,1,66.6666666666667,8|0,0:0|0:0,0:0:0:0:
320,112,73645,2,0,L|416:128,1,66.6666666666667,8|0,0:0|0:0,0:0:0:0:
192,160,73790,2,0,L|112:192,1,66.6666666666667,8|0,0:0|0:0,0:0:0:0:
352,240,73935,2,0,L|448:240,1,66.6666666666667,8|0,0:0|0:0,0:0:0:0:
208,272,74080,2,0,L|112:288,1,66.6666666666667,8|0,0:0|0:0,0:0:0:0:
384,272,74225,5,0,0:0:0:0:
423,218,74297,1,0,0:0:0:0:
452,158,74369,1,0,0:0:0:0:
461,96,74442,1,0,0:0:0:0:
397,114,74514,1,0,0:0:0:0:
331,124,74587,1,0,0:0:0:0:
265,116,74660,2,0,L|144:80,1,66.6666666666667,8|0,0:0|0:0,0:0:0:0:
384,80,74804,2,0,L|464:32,1,66.6666666666667,8|0,0:0|0:0,0:0:0:0:
144,160,74949,2,0,L|48:128,1,66.6666666666667,8|0,0:0|0:0,0:0:0:0:
384,208,75094,2,0,L|480:192,1,66.6666666666667,8|0,0:0|0:0,0:0:0:0:
64,256,75239,2,0,L|-32:256,1,66.6666666666667,8|0,0:0|0:0,0:0:0:0:
400,320,75384,2,0,L|480:320,1,66.6666666666667,8|0,0:0|0:0,0:0:0:0:
128,288,75529,6,0,L|128:256,1,25
272,224,75746,2,0,L|272:192,1,25
80,176,75964,2,0,L|80:128,1,25
400,192,76399,2,0,L|400:144,1,25
96,160,76833,2,0,L|96:128,1,25
448,160,77268,2,0,L|448:112,1,25
176,256,77703,6,0,L|76:256,2,100
76,256,78029,2,0,L|204:256,2,100
176,256,78355,2,0,L|48:256,2,100
64,128,78681,2,0,L|208:128,1,100
64,128,78898,2,0,L|164:128,1,100
64,128,79116,2,0,L|176:128,2,100
336,128,79442,6,0,L|448:128,2,100
436,128,79768,2,0,L|320:128,2,100
336,128,80094,2,0,L|464:128,2,100
436,128,80420,2,0,L|316:128,1,100
436,128,80637,2,0,L|300:128,1,100
436,128,80855,2,0,L|316:128,2,100
208,160,81181,2,0,L|336:160,1,100
48,64,81398,6,0,L|192:64,2,100
308,160,81724,2,0,L|204:160,1,100
424,256,81941,2,0,L|320:256,2,100
208,160,82268,2,0,L|320:160,1,100
48,64,82485,2,0,L|176:64,2,100
384,64,82811,6,0,L|496:64,1,100
112,240,83029,2,0,L|-32:240,1,100
384,224,83246,2,0,L|512:224,1,100
112,128,83464,2,0,L|-16:128,1,100
512,112,83681,2,0,L|368:112,1,100
0,64,83898,2,0,L|128:64,1,100
512,48,84116,2,0,L|384:48,1,100
80,160,84333,2,0,L|192:160,2,100
512,176,84659,6,0,L|400:176,1,100
112,80,84876,2,0,L|-16:80,1,100
512,304,85094,2,0,L|384:304,1,100
112,288,85311,2,0,L|0:288,1,100
400,96,85529,2,0,L|512:96,1,100
0,80,85746,2,0,L|112:80,1,100
412,304,85963,6,0,L|528:304,1,100
0,288,86181,2,0,L|112:288,1,100
512,240,86398,2,0,L|384:240,1,100
0,208,86616,2,0,L|128:208,1,100
400,128,86833,2,0,L|512:128,1,100
112,112,87050,2,0,L|0:112,1,100
496,64,87268,2,0,L|496:192,1,100
16,48,87485,2,0,L|16:208,1,100
512,272,87702,2,0,L|368:272,1,100
0,272,87920,2,0,L|112:272,1,100
400,160,88137,6,0,L|512:160,1,100
96,160,88355,2,0,L|-48:160,1,100
416,96,88572,2,0,L|288:96,2,100
96,64,88898,2,0,L|208:64,2,100
368,240,89224,2,0,L|368:128,1,100
128,240,89442,2,0,L|128:112,1,100
400,96,89659,2,0,L|512:96,1,100
16,192,89876,2,0,L|16:160,1,25
512,192,90311,2,0,L|512:160,1,25
0,192,90746,2,0,L|0:160,1,25
496,192,91181,2,0,L|496:160,1,25
176,288,91615,6,0,L|336:288,3,100
48,192,92050,2,0,L|208:192,7,100,4|0|0|0|0|0|0|0,1:0|0:0|0:0|0:0|0:0|0:0|0:0|0:0,0:0:0:0:
400,176,92920,2,0,L|288:176,7,100,4|0|0|0|0|0|0|0,1:0|0:0|0:0|0:0|0:0|0:0|0:0|0:0,0:0:0:0:
96,176,93789,2,0,L|224:176,7,100,4|0|0|0|0|0|0|0,1:0|0:0|0:0|0:0|0:0|0:0|0:0|0:0,0:0:0:0:
400,176,94659,2,0,L|300:176,2,100,4|0|0,1:0|0:0|0:0,0:0:0:0:
448,160,94930,1,0,0:0:0:0:
485,129,94984,1,0,0:0:0:0:
489,81,95038,1,0,0:0:0:0:
256,64,95093,6,0,L|384:64,2,100
496,320,95420,2,0,L|496:208,1,100
256,256,95637,2,0,L|144:256,1,100
464,176,95854,2,0,L|352:176,3,100
144,176,96289,2,0,L|256:176,2,100
480,96,96615,2,0,L|352:96,1,100
32,80,96832,2,0,L|176:80,2,100
496,192,97159,2,0,L|384:192,4,100
144,256,97702,2,0,L|256:256,2,100
464,272,98028,2,0,L|352:272,2,100
32,176,98354,1,0,0:0:0:0:
464,144,98463,1,0,0:0:0:0:
256,192,99224,12,0,99985,0:0:0:0:
