osu file format v7

[General]
AudioFilename: Fito Paez-Mariposa Tecknicolor.mp3
AudioLeadIn: 1000
PreviewTime: 45845
Countdown: 0
SampleSet: Soft
StackLeniency: 0.5
Mode: 1
LetterboxInBreaks: 1

[Editor]
DistanceSpacing: 0.990000009536743
BeatDivisor: 4
GridSize: 8

[Metadata]
Title:Mariposa Tecknicolor
Artist:Fito Paez
Creator:Krisom
Version:lepidon! - Taiko Oni
Source:
Tags:lepidopodus

[Difficulty]
HPDrainRate:5
CircleSize:5
OverallDifficulty:5
SliderMultiplier:1.4
SliderTickRate:1

[Events]
//Background and Video events
0,0,"BGTaiko.jpg"
//Break Periods
//Storyboard Layer 0 (Background)
//Storyboard Layer 1 (Fail)
//Storyboard Layer 2 (Pass)
//Storyboard Layer 3 (Foreground)
//Storyboard Sound Samples
//Background Colour Transformations
3,100,163,162,255

[TimingPoints]
1180,413.564929693962,4,2,1,70,1,0
45845,-100,4,2,1,70,0,1
72313,-100,4,2,1,70,0,0
98781,-100,4,2,1,70,0,1
125249,-100,4,2,1,70,0,0

[Colours]
Combo1 : 255,255,255
Combo2 : 44,220,24
Combo3 : 6,131,255
Combo4 : 244,31,0
Combo5 : 255,204,0

[HitObjects]
256,184,1179,1,4
384,160,1593,1,8
464,64,2007,1,0
384,160,2420,1,8
480,72,2834,1,0
408,176,3247,1,8
488,80,3661,1,0
408,176,4074,1,8
272,168,4488,1,4
368,72,4902,1,8
240,128,5315,1,0
376,168,5729,1,8
480,80,6142,1,0
400,192,6556,1,8
288,272,6969,1,0
232,312,7176,1,0
288,264,7383,1,8
184,168,7797,5,4
304,184,8003,1,0
376,192,8210,1,8
448,72,8624,1,0
408,128,8830,1,0
416,200,9037,1,8
280,176,9451,2,0,L|88:168|104:96|272:80,1,420
384,128,11105,1,0
320,104,11312,1,0
344,168,11519,1,8
416,248,11829,1,0
416,248,11932,1,0
416,248,12139,1,0
432,184,12346,1,8
344,80,12759,1,4
296,208,13173,1,8
408,128,13586,1,0
408,128,13793,1,0
408,128,13897,1,0
408,128,14103,1,0
408,128,14207,1,0
400,200,14414,5,4
296,288,14827,1,8
304,152,15241,1,0
304,80,15447,1,0
368,104,15654,1,8
344,240,16068,1,4
408,120,16481,1,8
400,224,16792,1,0
400,224,16895,1,0
400,224,17102,1,0
440,168,17309,1,8
312,112,17722,1,4
200,192,18136,1,0
320,280,18549,1,0
320,280,18756,1,0
320,280,18963,1,0
320,280,19066,1,0
320,280,19170,1,0
288,288,19273,1,0
256,296,19376,5,0
328,176,19790,1,8
416,72,20203,1,0
376,128,20410,1,0
408,192,20617,1,8
352,320,21031,1,0
296,192,21444,1,8
320,88,21754,1,0
320,88,21858,1,0
320,88,22065,1,0
384,112,22271,1,8
248,152,22685,1,0
184,168,22892,1,0
232,216,23098,1,8
352,280,23512,1,0
352,280,23615,1,0
352,280,23719,1,0
376,216,23926,1,8
488,128,24339,1,0
352,112,24753,1,8
264,168,25063,1,0
232,184,25166,1,0
168,216,25373,1,0
232,240,25580,1,8
120,160,25993,5,0
64,120,26200,1,0
136,112,26407,1,8
280,112,26821,1,0
352,112,27027,1,0
368,176,27234,1,8
232,208,27648,1,0
168,232,27854,1,0
232,248,28061,1,8
304,256,28268,1,0
376,272,28475,1,0
408,272,28682,1,0
408,200,28888,1,8
272,168,29302,1,0
208,152,29509,1,0
272,136,29715,1,8
216,176,29922,1,0
152,208,30129,1,0
184,192,30232,1,0
96,248,30336,1,0
384,152,30543,1,8
280,240,30956,2,0,L|128:192|136:120,1,210
232,96,31990,1,12
368,128,32404,1,12
304,160,32610,5,0
208,192,32921,1,0
240,216,33024,1,8
112,160,33438,1,0
48,144,33644,1,0
120,136,33851,1,8
256,96,34265,1,0
368,184,34678,1,8
304,264,34988,1,0
280,288,35092,1,0
240,344,35299,1,0
304,312,35505,1,8
272,176,35919,1,0
312,144,36333,1,8
176,144,36746,1,0
104,144,36953,1,0
176,136,37160,1,8
240,160,37366,1,0
288,208,37573,1,0
312,232,37677,1,0
336,256,37780,1,0
392,216,37987,1,8
312,104,38400,1,0
344,168,38607,1,0
328,136,38711,1,0
360,144,38814,1,8
224,136,39227,5,0
152,136,39434,1,0
208,176,39641,1,8
264,208,39848,1,0
328,240,40055,1,0
384,280,40261,1,0
392,208,40468,1,8
392,72,40882,1,0
392,144,41089,1,0
456,160,41295,1,8
416,216,41502,1,0
368,272,41709,1,0
344,296,41812,1,0
344,296,41916,1,0
328,232,42122,1,8
216,152,42536,1,0
160,112,42743,1,0
232,112,42950,1,8
304,128,43156,1,0
376,136,43363,1,0
376,136,43570,1,0
376,136,43673,1,0
384,168,43777,1,8
320,288,44190,1,0
296,328,44604,1,0
208,224,45017,1,0
184,200,45121,1,0
160,176,45224,1,0
136,152,45328,1,0
96,96,45431,1,0
88,128,45534,1,0
80,160,45638,1,0
168,88,45845,5,4
288,160,46258,1,8
392,144,46568,1,0
392,144,46672,1,0
392,144,46878,1,0
408,208,47085,1,8
272,240,47499,1,0
264,104,47912,1,8
368,128,48223,1,0
400,136,48326,1,0
464,152,48533,1,0
424,208,48739,1,8
384,264,48946,1,8
368,296,49050,1,8
336,280,49153,1,0
264,160,49567,1,8
400,136,49877,1,0
400,136,49980,1,0
400,136,50187,1,0
376,200,50394,1,8
304,320,50807,1,0
312,184,51221,1,8
328,80,51531,1,8
344,112,51634,1,0
376,176,51841,1,0
416,232,52048,1,8
280,200,52462,5,0
264,64,52875,1,8
224,160,53185,1,0
216,192,53289,1,0
192,256,53495,1,0
248,216,53702,1,8
336,112,54116,1,0
400,128,54323,1,0
408,200,54529,1,8
352,240,54736,1,0
320,256,54840,1,0
288,272,54943,1,0
232,312,55150,1,0
248,248,55357,1,8
288,112,55770,1,4
400,192,56184,1,12
264,192,56597,1,4
192,200,56804,1,4
256,168,57011,1,12
120,128,57424,1,0
184,112,57631,1,8
256,128,57838,1,0
384,64,58251,1,8
360,112,58458,1,0
416,152,58665,1,8
448,168,58768,1,8
440,200,58872,1,0
368,192,59079,5,4
248,136,59492,1,8
320,56,59802,1,0
344,32,59906,1,0
400,72,60113,1,0
424,136,60319,1,8
360,152,60526,1,0
296,168,60733,1,0
416,240,61146,1,8
320,280,61457,1,0
320,280,61560,1,0
320,280,61767,1,0
336,216,61974,1,8
352,152,62180,1,8
360,120,62284,1,8
392,136,62387,1,0
456,160,62594,1,0
496,192,62801,1,8
424,264,63111,1,0
400,288,63214,1,0
336,272,63421,1,0
312,208,63628,1,8
312,136,63835,1,0
368,176,64041,1,0
408,40,64455,1,8
376,136,64765,1,8
384,168,64868,1,0
408,232,65075,1,0
344,200,65282,1,8
216,152,65696,5,0
344,88,66109,1,8
416,168,66419,1,0
392,144,66523,1,0
440,192,66730,1,0
448,120,66936,1,8
416,184,67143,1,0
400,216,67246,1,0
384,248,67350,1,0
288,152,67763,1,8
288,152,68074,1,8
288,120,68177,1,0
288,120,68384,1,0
352,144,68591,1,8
304,272,69004,1,4
408,176,69418,1,12
488,64,69831,1,4
448,120,70038,1,4
424,184,70245,1,12
288,176,70658,1,4
408,112,71072,1,0
464,72,71279,1,0
400,104,71486,1,0
336,136,71692,1,0
272,168,71899,1,0
240,184,72002,1,0
208,200,72106,1,0
176,216,72209,1,0
144,232,72313,5,0
200,120,72726,1,8
176,224,73036,1,0
168,256,73140,1,0
224,288,73347,1,0
256,304,73450,1,0
440,216,73553,1,8
144,232,73760,1,0
216,240,73967,2,0,L|104:128,1,140
256,152,74794,1,0
256,152,74897,1,0
256,152,75001,1,0
328,160,75208,1,8
200,104,75621,1,0
168,168,75828,1,0
224,208,76035,1,8
320,240,76345,1,0
352,248,76448,1,0
416,216,76655,1,0
416,144,76862,1,8
304,224,77275,2,0,L|32:112|168:72,1,420
248,120,78826,1,0
280,128,78930,5,0
328,176,79136,1,0
384,144,79343,1,8
312,152,79550,1,0
448,264,79757,1,0
392,304,79964,1,0
320,312,80170,1,8
240,248,80481,1,0
216,224,80584,1,0
248,160,80791,1,0
312,136,80998,1,8
384,136,81204,1,0
400,200,81411,1,0
384,232,81514,1,0
416,264,81618,1,0
432,192,81825,1,8
336,232,82135,1,0
304,240,82238,1,0
232,248,82445,1,0
272,192,82652,1,8
296,128,82859,1,0
368,112,83065,1,0
400,112,83272,1,0
368,112,83376,1,0
448,160,83479,1,8
352,264,83892,1,0
408,224,84099,1,8
280,176,84513,1,0
320,120,84720,1,8
248,136,84926,1,0
216,144,85030,1,0
184,152,85133,1,0
152,168,85237,1,0
136,200,85340,1,0
120,232,85443,1,0
152,240,85547,5,0
256,240,85857,1,0
288,240,85960,1,8
376,160,86374,1,0
416,104,86581,1,0
416,176,86787,1,8
292,113,87201,1,0
362,232,87615,1,8
376,160,87925,1,8
403,139,88028,1,0
452,187,88235,1,0
473,213,88338,1,0
467,178,88442,1,8
328,200,88855,1,0
256,208,89062,1,0
296,152,89269,1,8
400,136,89579,1,0
432,136,89682,1,0
467,178,89889,1,0
472,248,90096,1,8
376,280,90406,1,0
344,296,90510,1,0
280,272,90716,1,0
280,200,90923,1,8
208,200,91130,1,0
384,112,91337,1,0
440,152,91543,1,8
440,224,91750,1,8
312,168,92164,5,0
248,136,92371,1,0
304,96,92577,1,8
376,96,92784,1,0
448,104,92991,1,0
456,176,93198,1,0
432,240,93404,1,8
296,280,93818,1,0
296,280,93921,1,0
264,280,94025,1,0
304,224,94232,1,8
344,168,94438,1,0
408,144,94645,1,0
440,208,94852,1,0
408,272,95059,1,8
360,144,95472,1,0
424,112,95679,1,0
456,104,95782,1,0
472,136,95886,1,8
464,208,96093,1,0
408,272,96299,1,0
336,264,96506,1,0
296,208,96713,1,8
280,144,96920,1,0
336,104,97127,1,4
424,216,97540,1,4
288,176,97954,1,12
424,216,98367,1,12
168,88,98781,5,4
288,160,99194,1,8
392,144,99505,1,0
392,144,99608,1,0
392,144,99815,1,0
408,208,100022,1,8
336,216,100228,1,0
272,240,100435,1,0
264,104,100849,1,8
368,128,101159,1,0
400,136,101262,1,0
464,152,101469,1,0
424,208,101676,1,8
384,264,101883,1,8
368,296,101986,1,8
336,280,102089,1,0
264,160,102503,1,8
400,136,102813,1,0
400,136,102916,1,0
400,136,103123,1,0
376,200,103330,1,8
400,264,103537,1,0
416,296,103640,1,0
304,320,103744,1,0
312,184,104157,1,8
328,80,104467,1,8
344,112,104571,1,0
376,176,104778,1,0
416,232,104984,1,8
280,200,105398,5,0
264,64,105811,1,8
224,160,106122,1,0
216,192,106225,1,0
192,256,106432,1,0
248,216,106639,1,8
304,256,106845,1,0
336,112,107052,1,0
408,200,107466,1,8
352,240,107672,1,0
320,256,107776,1,0
288,272,107879,1,0
232,312,108086,1,0
248,248,108293,1,8
288,112,108706,1,4
400,192,109120,1,12
264,192,109534,1,4
192,200,109740,1,4
256,168,109947,1,12
120,128,110361,1,0
184,112,110567,1,8
216,128,110671,1,8
256,128,110774,1,0
304,176,110981,1,0
384,64,111188,1,8
360,112,111395,1,0
416,152,111601,1,8
448,168,111705,1,8
440,200,111808,1,0
368,192,112015,5,4
248,136,112428,1,8
320,56,112739,1,0
344,32,112842,1,0
400,72,113049,1,0
424,136,113256,1,8
360,152,113462,1,0
328,160,113566,1,0
296,168,113669,1,0
416,240,114083,1,8
320,280,114393,1,0
320,280,114496,1,0
320,280,114703,1,0
336,216,114910,1,8
352,152,115117,1,8
360,120,115220,1,8
392,136,115323,1,0
456,160,115530,1,0
496,192,115737,1,8
424,264,116047,1,0
400,288,116151,1,0
336,272,116357,1,0
312,208,116564,1,8
312,136,116771,1,0
312,168,116874,1,0
368,176,116978,1,0
360,280,117288,1,0
408,40,117391,1,8
376,136,117701,1,8
384,168,117805,1,0
408,232,118012,1,0
344,200,118218,1,8
216,152,118632,5,0
344,88,119046,1,8
416,168,119356,1,0
392,144,119459,1,0
440,192,119666,1,0
448,120,119873,1,8
416,184,120079,1,0
400,216,120183,1,0
384,248,120286,1,0
320,272,120493,1,0
288,152,120700,1,8
288,152,121010,1,8
288,120,121113,1,0
288,120,121320,1,0
352,144,121527,1,8
392,200,121734,1,0
304,272,121940,1,4
408,176,122354,1,12
488,64,122768,1,4
448,120,122974,1,4
424,184,123181,1,12
288,176,123595,1,4
320,240,124008,1,0
256,264,124215,1,0
360,296,124422,1,0
360,296,124629,1,0
272,168,124835,1,0
240,184,124939,1,0
208,200,125042,1,0
176,216,125146,1,0
144,232,125249,5,0
272,184,125663,1,4
400,240,126076,1,4
272,296,126490,1,4
400,240,126903,1,4
264,232,127317,2,4,L|64:120|112:72,1,280
368,152,128971,1,4
376,288,129385,1,4
272,200,129798,1,4
136,232,130212,2,4,L|56:96|328:88,1,420
448,336,132280,5,4
392,208,132693,1,4
264,152,133107,1,4
376,232,133520,1,12
256,168,133934,1,4
376,104,134347,1,0
400,168,134554,1,0
368,152,134658,1,0
376,184,134761,1,8
376,320,135175,1,0
296,256,135485,1,0
328,248,135588,1,8
400,248,135795,1,0
368,152,136002,1,0
432,168,136208,1,0
376,208,136415,2,0,L|40:216|64:112,1,420
472,104,138897,5,4
384,208,139310,1,4
288,312,139724,1,4
280,176,140137,1,4
160,240,140551,2,4,L|112:80|232:64,1,280
392,288,142205,1,4
296,192,142619,1,4
192,96,143032,1,4
328,72,143446,1,0
376,120,143653,1,8
416,176,143859,1,0
416,208,143963,1,0
368,256,144170,1,0
336,272,144273,1,0
296,216,144480,1,8
264,200,144583,1,0
288,96,144893,1,8
488,152,145514,5,4
376,232,145927,1,4
256,304,146341,1,4
328,184,146754,1,4
392,64,147168,1,12
264,120,147581,1,0
280,184,147788,1,0
288,152,147892,1,0
320,160,147995,1,8
376,192,148202,1,0
416,184,148615,1,8
376,240,148822,1,0
240,240,149236,1,0
240,240,149339,1,0
240,240,149443,1,0
304,208,149649,1,8
328,144,149856,1,0
400,136,150063,1,8
392,272,150476,1,0
256,304,150890,1,0
320,288,151097,1,0
344,264,151200,1,0
320,288,151304,1,0
320,288,151510,1,0
328,152,151717,5,0
392,136,152131,1,8
408,200,152337,1,0
496,304,152751,1,8
432,288,152958,1,0
360,280,153165,2,0,L|32:104,1,350
168,184,154612,1,0
224,224,154819,1,0
296,232,155026,1,0
384,120,155439,1,8
408,184,155646,1,0
456,312,156060,1,8
440,280,156163,1,8
408,272,156266,1,0
360,224,156473,1,0
272,112,156680,1,0
344,112,157093,1,8
416,120,157300,1,0
472,248,157714,1,8
456,216,157817,1,8
424,208,157921,1,0
352,208,158127,1,0
328,232,158231,1,0
280,208,158334,5,0
400,144,158748,1,8
448,192,158955,1,0
256,192,159161,12,0,164538
