osu file format v7

[General]
AudioFilename: Fito Paez-Mariposa Tecknicolor.mp3
AudioLeadIn: 0
PreviewTime: 45845
Countdown: 0
SampleSet: Soft
StackLeniency: 0.5
Mode: 0
LetterboxInBreaks: 1

[Editor]
DistanceSpacing: 0.990000009536743
BeatDivisor: 4
GridSize: 8

[Metadata]
Title:Mariposa Tecknicolor
Artist:Fito Paez
Creator:Krisom
Version:Normal
Source:
Tags:lepidopodus

[Difficulty]
HPDrainRate:3
CircleSize:4
OverallDifficulty:5
SliderMultiplier:1.3
SliderTickRate:1

[Events]
//Background and Video events
0,0,"BG.jpg"
//Break Periods
2,125449,137490
//Storyboard Layer 0 (Background)
//Storyboard Layer 1 (Fail)
//Storyboard Layer 2 (Pass)
//Storyboard Layer 3 (Foreground)
//Storyboard Sound Samples
//Background Colour Transformations
3,100,163,162,255

[TimingPoints]
1180,413.564929693962,4,2,1,60,1,0
45845,-100,4,2,1,60,0,1
72313,-100,4,2,1,70,0,0
98781,-100,4,2,1,70,0,1
125249,-100,4,2,1,70,0,0
164538,-100,4,2,1,0,0,0

[Colours]
Combo1 : 255,255,255
Combo2 : 44,220,24
Combo3 : 6,131,255
Combo4 : 244,31,0
Combo5 : 255,204,0

[HitObjects]
256,360,19376,1,4
192,248,19790,2,0,B|120:248,2,65,8|8|0
320,248,20617,1,8
384,136,21031,6,0,B|256:104|256:168|125:136,2,260,0|2|4
320,248,23098,1,8
192,248,23512,2,0,B|112:248,2,65,0|0|8
126,137,24339,2,0,B|398:137,1,260,0|2
256,360,25993,5,4
144,296,26407,1,8
93,335,26614,1,8
84,271,26821,1,2
48,144,27234,1,8
160,80,27648,5,4
256,160,28061,2,0,B|256:240,2,65,8|8|2
352,80,28888,1,8
464,144,29302,5,4
428,271,29715,1,8
419,335,29922,1,8
368,296,30129,1,2
256,360,30543,1,8
168,264,30956,6,0,B|156:112|356:112|344:264|344:264|344:272,1,325,4|8
256,360,32404,1,8
256,360,32610,6,0,B|256:240|256:232|256:88,1,260,4|2
346,190,33851,1,8
360,64,34265,2,0,B|360:16|255:-31|152:16|152:64|152:64|152:72,1,260,0|2
166,190,35505,1,8
64,272,35919,6,0,B|104:328|224:328|256:195|256:195|288:328|408:328|448:272|448:272|448:264,2,520,4|2|4
112,152,39641,2,0,B|56:96,2,65,8|8|2
200,56,40468,1,8
256,168,40882,5,4
288,296,41295,1,8
256,240,41502,1,8
224,296,41709,1,2
256,168,42122,1,8
312,56,42536,5,4
400,152,42950,2,0,B|445:106,2,65,8|8|2
447,272,43777,1,8
328,328,44190,2,0,B|320:248|256:229|256:229|192:248|184:328|184:328|184:336,1,260,4|8
64,272,45431,1,8
168,192,45845,5,4
64,120,46258,1,8
176,56,46672,2,0,B|197:176|316:176|336:56,1,260,2|0
448,120,47912,1,8
344,192,48326,1,0
256,288,48739,1,8
200,168,49153,6,0,B|256:133|256:56,1,130,0|8
312,168,49980,2,0,B|256:133|256:56,1,130,0|8
344,240,51014,2,0,B|356:392|156:392|168:240|168:240|168:232,1,325,2|8
256,144,52462,6,0,B|208:120|176:152|112:128,1,130,4|8
256,144,53289,2,0,B|304:120|336:152|400:128,1,130,0|8
410,192,53909,1,2
358,230,54116,2,0,B|334:298|254:291,1,130,0|8
154,230,54943,2,0,B|178:298|258:291,1,130,0|8
208,168,55770,6,0,B|208:123|304:123|304:168|304:168|304:176,1,130,4|8
224,272,56597,1,0
256,328,56804,1,0
288,272,57011,1,8
256,144,57424,1,0
360,72,57838,2,0,B|360:24|255:-23|152:24|152:72|152:72|152:80,1,260,8|8
104,192,59079,5,4
192,288,59492,1,8
320,288,59906,1,0
408,192,60319,2,0,B|464:144,2,65,8|0|0
344,192,60940,2,0,B|357:40|155:40|168:192|168:192|168:200,1,325,2|8
192,320,62387,5,0
320,320,62801,1,8
256,208,63214,1,2
256,80,63628,1,8
136,232,64248,2,0,B|204:256|256:338|256:338|308:256|376:232|376:232|384:232,1,325,2|8
256,192,65696,6,0,B|208:128|128:120,1,130,4|8
256,192,66523,2,0,B|304:128|384:120,1,130,0|8
362,187,67143,1,2
362,251,67350,2,0,B|304:256|255:320,1,130,0|8
150,251,68177,2,0,B|208:256|257:320,1,130,0|8
304,200,69004,6,0,B|304:155|208:155|208:200|208:200|208:208,1,130,4|8
288,304,69831,1,0
256,360,70038,1,0
224,304,70245,1,8
256,176,70658,1,0
152,104,71072,2,0,B|152:56|257:9|360:56|360:104|360:104|360:112,1,260,8|8
360,232,72313,5,4
256,304,72726,1,8
256,304,72933,1,8
256,304,73140,1,0
152,232,73553,1,8
126,105,73967,2,0,B|406:105,1,260,0|2
480,192,75208,1,8
376,264,75621,6,0,B|288:256|272:328,1,130,4|8
256,192,76448,1,0
256,192,76655,1,0
256,192,76862,1,8
136,120,77275,2,0,B|224:128|240:56,1,130,0|8
256,192,78103,2,0,B|256:336,1,130,0|8
384,344,78930,6,0,B|384:264|480:272,1,130,4|8
376,176,79757,2,0,B|440:112,2,65,2|0|8
256,120,80584,2,0,B|256:256,1,130,4|8
256,376,81411,1,2
256,376,81618,1,0
256,376,81825,1,8
128,344,82238,2,0,B|128:264|32:272,1,130,4|8
136,176,83065,2,0,B|72:112,2,65,2|0|8
152,48,83892,6,0,L|200:160|200:160|256:34|256:34|312:160|312:160|360:48|360:48|360:40,1,520,4|4
328,296,86374,2,0,B|329:376|256:390|256:390|183:376|184:296|184:296|184:288,1,260,2|0
191,46,88028,2,0,L|335:46,1,130,2|8
408,144,88855,6,0,B|453:144|453:240|408:240|408:240|400:240,1,130,4|8
288,192,89682,1,0
256,248,89889,1,0
224,192,90096,1,8
136,285,90510,1,0
136,285,90716,2,0,B|204:309|256:391|256:391|308:309|376:285|376:285|384:285,1,325,2|8
344,160,92164,6,0,B|344:88|256:88,1,130,4|8
256,216,92991,2,0,B|256:288,2,65,2|0|8
255,87,93818,2,0,B|168:88|168:160,1,130,4|8
256,256,94645,2,0,B|256:352,2,65,2|0|8
368,192,95472,2,0,B|312:224|256:155|256:155|200:224|141:190,1,260,4|2
128,320,96713,1,8
256,344,97127,2,0,B|256:80,1,260,4|8
256,84,98367,1,8
376,40,98781,5,4
488,104,99194,1,8
368,144,99608,2,0,B|336:104|288:104|256:144|256:144|256:152,1,130,0|8
312,184,100228,1,2
368,224,100435,2,0,B|336:264|288:264|256:224|256:224|256:216,1,130,0|8
256,352,101262,1,0
256,352,101676,1,8
128,352,102089,5,0
192,240,102503,1,8
320,240,102916,1,0
384,352,103330,1,8
416,160,103950,2,0,B|256:136|256:208|88:192,1,325,2|8
168,88,105398,6,0,B|256:88|256:8,1,130,4|8
344,112,106225,2,0,B|256:112|256:192,1,130,0|8
256,248,106845,1,2
312,288,107052,2,0,B|280:328|232:328|200:288|200:288|200:280,1,130,0|8
256,176,107879,1,0
256,176,108293,1,8
192,64,108706,6,0,B|232:72|256:56|256:56|280:72|320:64|320:64|328:64,1,130,4|8
256,176,109534,2,0,B|256:248,2,65,2|0|8
256,48,110361,1,0
336,152,110774,2,0,B|338:264|174:264|176:152|176:152|176:144,1,260,8|8
136,40,112015,5,4
24,104,112428,1,8
144,144,112842,2,0,B|176:104|224:104|256:144|256:144|256:152,1,130,0|8
200,184,113462,1,2
144,224,113669,2,0,B|176:264|224:264|256:224|256:224|256:216,1,130,0|8
320,112,114496,1,0
192,112,114910,1,8
152,232,115323,6,0,B|152:280|257:327|360:280|360:232|360:232|360:224,1,260,0|2
256,160,116564,1,8
152,320,117184,2,0,B|152:368|257:415|360:368|360:320|360:320|360:312,1,260,2|8
256,248,118425,1,8
256,248,118632,6,0,B|208:208|184:232|128:192,1,130,4|8
256,248,119459,2,0,B|304:208|328:232|384:192,1,130,0|8
376,136,120079,1,2
376,136,120286,2,0,B|392:-28|120:-28|136:136|136:136|136:144,1,390,0|8
208,248,121940,6,0,B|208:203|304:203|304:248|304:248|304:256,1,130,4|8
320,120,122768,1,2
320,120,122974,1,0
320,120,123181,1,8
192,120,123595,1,0
184,248,124008,2,0,B|183:328|256:342|256:342|329:328|328:248|328:248|328:240,1,260,8|8
256,144,125249,5,4
160,56,138690,5,2
224,56,138897,1,2
288,56,139103,1,2
256,112,139310,1,4
192,224,139724,1,8
320,224,140137,1,8
256,336,140551,1,8
352,56,141998,5,2
288,56,142205,1,2
224,56,142412,1,2
256,112,142619,2,0,B|96:256|400:240|248:384,2,325,4|2|8
256,112,145307,6,0,B|256:24,3,65,2|2|2|4
344,136,146341,1,8
256,232,146754,1,8
168,136,147168,1,8
256,40,147581,6,0,B|256:248,1,195,4|2
256,360,148615,1,2
208,176,149236,2,0,B|208:131|304:131|304:176|304:176|304:184,1,130,2|8
344,224,149856,2,0,B|357:376|155:376|168:224|168:224|168:216,1,325,2|0
128,32,151510,5,4
256,64,151924,1,2
256,64,152131,1,2
256,64,152337,1,2
256,64,152544,2,0,B|256:280,1,195,8|2
440,192,153785,5,0
320,144,154199,1,0
384,32,154612,1,0
384,32,154819,5,4
256,64,155232,1,2
256,64,155439,1,2
256,64,155646,1,2
256,64,155853,2,0,B|256:280,1,195,8|2
72,192,157093,5,0
192,144,157507,1,0
128,32,157921,1,0
128,32,158127,6,0,B|400:32,1,260,4|2
256,192,159161,12,0,164538
