osu file format v7

[General]
AudioFilename: Fito Paez-Mariposa Tecknicolor.mp3
AudioLeadIn: 0
PreviewTime: 45845
Countdown: 0
SampleSet: Soft
StackLeniency: 0.5
Mode: 0
LetterboxInBreaks: 1

[Editor]
DistanceSpacing: 0.800000011920929
BeatDivisor: 4
GridSize: 8

[Metadata]
Title:Mariposa Tecknicolor
Artist:Fito Paez
Creator:Krisom
Version:Hard
Source:
Tags:lepidopodus

[Difficulty]
HPDrainRate:6
CircleSize:5
OverallDifficulty:7
SliderMultiplier:1.7
SliderTickRate:1

[Events]
//Background and Video events
0,0,"BG.jpg"
//Break Periods
2,125449,137583
//Storyboard Layer 0 (Background)
//Storyboard Layer 1 (Fail)
//Storyboard Layer 2 (Pass)
//Storyboard Layer 3 (Foreground)
//Storyboard Sound Samples
//Background Colour Transformations
3,100,163,162,255

[TimingPoints]
1180,413.564929693962,4,2,1,60,1,0
45845,-100,4,2,1,60,0,1
72313,-100,4,2,1,70,0,0
98781,-100,4,2,1,70,0,1
123949,-100,4,2,1,40,0,1
124466,-100,4,2,1,50,0,1
124931,-100,4,2,1,60,0,1
125249,-100,4,2,1,70,0,0
164538,-100,4,2,1,0,0,0

[Colours]
Combo1 : 255,255,255
Combo2 : 44,220,24
Combo3 : 6,131,255
Combo4 : 244,31,0
Combo5 : 255,204,0

[HitObjects]
224,336,19376,1,4
155,336,19583,2,0,B|157:288|205:269,1,85,0|8
152,222,19997,1,8
128,160,20203,2,0,B|176:144|176:176|216:168,1,85
210,100,20617,1,8
161,51,20824,1,0
108,93,21031,6,0,B|48:114|40:182|75:220|115:227,2,170,0|8|0
128,160,22065,1,0
171,212,22271,2,0,B|343:212,2,170,8|0|8
288,288,23512,1,0
336,336,23719,1,0
352,272,23926,2,0,B|408:272|416:216,1,85,8|0
352,208,24339,2,0,B|336:104|256:80,1,170,0|8
192,80,24959,1,8
192,8,25166,2,0,B|192:191,1,170,0|8
256,296,25993,5,4
289,237,26200,1,0
343,277,26407,2,0,B|371:226|327:177,1,85,8|8
288,160,26821,1,0
349,130,27027,1,0
299,83,27234,2,0,B|211:83,1,85,8|0
145,83,27648,5,4
101,135,27854,1,0
34,148,28061,2,0,B|47:202|117:207,1,85,8|8
54,259,28475,1,0
29,322,28682,2,0,B|77:338|77:306|117:314,1,85,0|8
140,251,29095,1,0
200,280,29302,5,4
256,240,29509,1,0
288,184,29715,2,0,B|288:88,1,85,8|8
224,72,30129,2,0,B|224:168,1,85
163,188,30543,2,0,B|188:234|245:221,1,85,8|0
224,288,30956,2,0,B|164:296|96:236|96:186,1,170,0|8
93,131,31577,1,8
144,88,31783,2,0,B|224:32,1,85,0|8
144,88,32197,2,0,B|240:88,1,85,0|8
200,152,32610,6,0,B|200:200|256:227|312:200|312:152|312:152|312:144,1,170,4|8
256,272,33438,1,0
296,328,33644,1,0
363,332,33851,2,0,B|361:280|313:263,1,85,8|0
312,200,34265,2,0,B|312:161|256:144|256:144|200:161|200:200|200:200|200:208,1,170,0|8
64,192,35092,1,0
91,129,35299,1,0
129,184,35505,1,8
256,240,35919,6,0,B|256:152|368:112,2,170,4|8|0
256,344,37056,1,2
256,240,37366,2,0,B|256:152|144:112,1,170,0|2
184,56,37987,2,0,B|232:80|256:101|256:101|280:80|328:56|328:56|336:56,1,170,8|0
328,128,38607,1,0
272,160,38814,1,8
328,192,39021,1,8
271,228,39227,5,4
213,192,39434,2,0,B|208:141|164:125,1,85,0|8
145,192,39848,1,8
112,251,40055,2,0,B|67:226|80:161,1,85
102,115,40468,1,8
146,63,40675,1,0
168,127,40882,5,4
222,167,41089,1,0
246,103,41295,2,0,B|289:127|289:174,1,85,8|8
256,232,41709,1,0
221,290,41916,2,0,B|273:311|311:271,1,85,0|8
335,221,42329,1,0
400,192,42536,5,4
343,154,42743,2,0,B|289:158|269:116,1,85,0|8
329,86,43156,2,0,B|304:47|252:56,1,85,8|0
207,104,43570,1,0
250,155,43777,1,8
183,168,43983,1,0
117,151,44190,2,0,B|105:213|154:249|212:248|240:208,1,170,0|8
256,352,45017,5,8
256,336,45121,1,8
256,320,45224,1,8
256,304,45328,1,8
256,288,45431,1,8
256,272,45534,1,8
256,256,45638,1,8
256,240,45741,1,8
256,224,45845,5,4
336,112,46258,1,8
281,71,46465,1,8
256,136,46672,2,0,B|220:170|160:156|131:107|160:50,1,170,0|8
215,89,47292,1,0
256,136,47499,2,0,B|292:102|352:116|381:165|352:222,1,170,0|8
298,184,48119,1,8
312,248,48326,2,0,B|312:296|256:323|200:296|200:248|200:248|200:240,1,170,0|8
256,376,49153,6,0,B|256:200,1,170,0|8
319,179,49773,1,8
256,144,49980,2,0,B|261:94|214:55|157:61|129:119,1,170,0|8
193,139,50601,1,0
256,144,50807,2,0,B|250:193|297:232|354:226|382:168,1,170,0|8
319,148,51428,1,8
312,80,51634,2,0,B|312:41|256:24|256:24|200:41|200:80|200:80|200:88,1,170,0|8
224,216,52462,6,0,B|224:288|288:296|288:376,2,170,4|8|0
256,88,53702,1,8
256,156,53909,1,8
288,216,54116,2,0,B|288:288|224:296|224:376,1,170,0|8
224,369,54736,1,8
287,369,54943,2,0,B|288:299|224:288|224:212,1,170,0|8
328,56,55770,6,0,B|280:80|256:101|256:101|232:80|184:56|184:56|176:56,2,170,4|8|0
328,124,56804,1,0
312,192,57011,2,0,B|312:231|256:248|256:248|200:231|200:192|200:192|200:184,1,170,8|0
168,56,57838,2,0,B|296:48|344:104|256:208|168:104|216:48|346:56,1,340,8|8
256,184,59079,5,4
224,344,59492,1,8
288,344,59699,1,8
328,288,59906,2,0,B|280:264|256:243|256:243|232:264|184:288|184:288|176:288,1,170,0|8
183,219,60526,1,0
200,152,60733,2,0,B|200:113|256:96|256:96|312:113|312:152|312:152|312:160,1,170,0|8
379,142,61353,2,0,B|370:75|311:35|252:28|252:28|244:28,1,170,2|2
199,47,61974,2,0,B|157:63|137:104,1,85,8|8
192,144,62387,6,0,B|280:168|304:272,1,170,0|8
320,144,63214,2,0,B|232:168|208:272,1,170,0|8
256,64,64248,2,0,B|256:336,1,255,2|8
224,384,65075,1,8
224,384,65179,1,8
224,384,65282,1,8
288,384,65489,1,8
256,320,65696,6,0,B|232:256|160:272|128:192,1,170,4|8
256,320,66523,2,0,B|280:256|352:272|384:192,1,170,0|8
408,144,67143,1,8
368,88,67350,1,0
344,152,67557,2,0,B|216:160|168:104|256:0|344:104|296:160|166:152,1,340,2|0
115,195,68591,1,8
142,256,68797,1,0
200,296,69004,6,0,B|200:232|304:232|304:160,2,170,4|8|0
256,336,70038,1,0
312,296,70245,2,0,B|312:232|208:232|208:160,1,170,8|0
256,40,71072,1,8
256,176,71486,1,8
256,244,71692,1,8
256,312,71899,1,8
256,328,72002,1,8
256,344,72106,1,8
256,360,72209,1,8
256,376,72313,5,4
321,358,72519,1,0
319,289,72726,2,0,B|375:296|391:352,1,85,8|8
435,289,73140,1,0
389,238,73347,2,0,B|335:235|315:188,1,85,0|8
380,168,73760,1,0
336,120,73967,6,0,B|256:96|256:160|160:128,2,170,0|8|0
302,178,75001,1,0
256,224,75208,1,8
200,342,75621,2,0,B|200:390|256:417|312:390|312:342|312:342|312:334,2,170,0|8|0
160,288,76655,1,0
98,259,76862,2,0,B|114:219|168:216,1,85,8|0
232,216,77275,2,0,B|261:176|261:88|232:48,1,170,0|8
167,53,77896,1,8
167,53,78103,2,0,B|363:53,1,170,0|8
352,192,78930,5,4
292,158,79136,1,0
350,124,79343,1,8
291,89,79550,2,0,B|238:97|226:144,1,85,8|0
160,150,79964,1,0
151,82,80170,2,0,B|204:85|223:26,1,85,8|0
153,17,80584,5,4
92,48,80791,2,0,B|69:94|102:130,1,85,0|8
160,150,81204,1,8
108,194,81411,1,0
172,216,81618,2,0,B|224:223|231:279,1,85,0|8
162,284,82031,1,0
208,336,82238,5,4
274,322,82445,2,0,B|315:278|283:234,1,85,0|8
227,271,82859,2,0,B|209:218|255:190,1,85,8|0
291,142,83272,1,0
347,103,83479,1,8
350,170,83686,1,0
408,135,83892,2,0,B|429:184|407:231|352:255|307:221,1,170,0|8
256,256,84513,1,8
256,184,84720,2,0,B|224:96,1,85,0|8
256,184,85133,2,0,B|288:96,1,85,0|8
256,40,85547,5,4
173,148,85960,2,0,B|256:128|256:176|365:148,1,170,8|0
409,147,86581,1,0
381,208,86787,1,8
448,203,86994,1,0
418,264,87201,2,0,B|419:324|356:365|284:365,1,170,0|8
176,307,88028,5,0
120,346,88235,1,0
114,278,88442,1,8
172,155,88855,2,0,B|256:137|256:179|357:160,2,170,0|8|0
205,214,89889,1,0
172,273,90096,2,0,B|256:291|256:249|357:268,1,170,8|0
352,200,90716,2,0,B|352:88|256:30|160:88|160:200|160:200|160:208,1,340,2|0
288,360,92164,5,4
355,351,92371,2,0,B|347:300|282:287,1,85,0|8
346,241,92784,1,8
326,175,92991,2,0,B|374:159|374:191|414:183,1,85
407,115,93404,1,8
360,64,93611,1,0
310,111,93818,5,4
260,64,94025,2,0,B|228:106|255:145,1,85,0|8
202,188,94438,1,8
256,232,94645,1,0
307,276,94852,2,0,B|264:314|218:285,1,85,0|8
172,251,95266,1,0
132,195,95472,6,4,B|92:234|113:292,1,85,4|0
172,251,95886,2,0,B|205:216|196:172,1,85,8|8
256,136,96299,1,0
224,80,96506,1,0
288,80,96713,1,8
256,136,96920,1,0
256,204,97127,2,0,B|256:380,1,170,0|8
424,360,97954,5,8
88,360,98367,1,8
200,288,98781,6,0,B|200:336|256:363|312:336|312:288|312:288|312:280,1,170,4|8
256,248,99401,1,8
256,176,99608,2,0,B|207:165|185:107|210:56|273:48,1,170,0|8
272,115,100228,1,0
256,176,100435,2,0,B|304:186|326:244|301:295|238:303,1,170,0|8
239,237,101055,1,8
186,193,101262,1,0
56,192,101676,1,8
200,96,102089,6,0,B|200:48|256:21|312:48|312:96|312:96|312:104,1,170,0|8
256,136,102710,1,8
256,208,102916,2,0,B|305:219|327:277|302:328|239:336,1,170,0|8
240,269,103537,1,0
256,208,103744,2,0,B|208:198|186:140|211:89|274:81,1,170,0|8
273,147,104364,1,8
326,193,104571,1,0
456,192,104984,1,8
341,264,105398,6,0,B|169:264,2,170,4|8|0
224,192,106639,1,8
288,192,106845,1,8
312,128,107052,2,0,B|312:89|256:72|256:72|200:89|200:128|200:128|200:136,1,170,0|8
256,160,107672,1,8
312,192,107879,2,0,B|312:231|256:248|256:248|200:231|200:192|200:192|200:184,1,170,0|8
208,328,108706,6,0,B|280:320|288:368|256:387|224:368|232:320|312:328,1,170,4|8
256,208,109534,1,0
256,139,109740,1,0
304,88,109947,2,0,B|232:96|224:48|256:29|288:48|280:96|200:88,1,170,8|0
112,192,110774,2,0,B|112:248|256:293|400:248|400:192|400:192|400:176,1,340,8|8
336,72,112015,6,0,B|256:48|256:112|160:80,2,170,4|8|0
224,152,113256,1,8
288,152,113462,1,0
256,208,113669,1,0
184,208,113876,2,0,B|168:272|256:351|344:272|328:208|328:208|328:200,1,255,2|0
256,96,114910,1,8
136,160,115323,5,0
256,224,115737,1,8
376,160,116151,1,0
256,96,116564,2,0,B|264:200|240:200|256:368,2,255,8|2|8
224,32,118012,1,8
224,32,118115,1,8
224,32,118218,1,8
288,32,118425,1,8
256,96,118632,6,0,B|200:128|144:56|88:96,1,170,4|8
256,96,119459,2,0,B|312:128|368:56|424:96,1,170,0|8
448,152,120079,1,0
384,152,120286,1,0
400,216,120493,2,0,B|400:272|256:317|112:272|112:216|112:216|112:200,1,340,2|0
128,152,121527,1,8
160,88,121734,1,0
184,24,121940,5,4
328,24,122354,1,8
256,136,122768,1,0
224,80,122974,1,0
288,80,123181,1,8
256,216,123595,1,0
256,352,124008,5,8
256,336,124112,1,8
256,320,124215,1,8
256,304,124318,1,8
256,288,124422,1,8
256,272,124525,1,8
256,256,124629,1,8
256,240,124732,1,8
256,224,124835,1,8
256,87,125249,5,4
256,56,138483,5,4
256,120,138690,2,0,B|240:160|184:168,1,85,0|8
256,120,139103,2,0,B|272:160|328:168,1,85,0|8
328,304,139724,2,0,B|280:328|256:349|256:349|232:328|184:304|184:304|176:304,2,170,8|8|8
256,192,140964,1,2
208,144,141171,1,2
256,96,141378,1,2
304,144,141585,1,2
304,216,141792,5,4
296,280,141998,2,0,B|256:307|216:280,1,85,0|8
208,216,142412,1,0
144,216,142619,2,0,B|112:88|256:-2|400:88|368:216|368:216|368:224,1,425,8|2
200,336,144273,2,0,B|200:384|256:411|312:384|312:336|312:336|312:328,1,170,8|8
256,208,145100,5,4
256,144,145307,2,0,B|240:104|176:104,1,85,0|8
256,144,145720,2,0,B|272:104|336:104,1,85,0|8
312,240,146341,2,0,B|312:279|256:296|256:296|200:279|200:240|200:240|200:232,2,170,8|8|8
224,136,147581,1,2
256,80,147788,1,2
288,136,147995,1,2
328,184,148202,2,0,B|312:224|256:226|200:224|184:184|184:184|184:176,1,170,2|2
328,328,149236,2,0,B|312:368|256:370|200:368|184:328|184:328|184:320,1,170,2|2
144,280,149856,2,0,B|112:152|256:62|400:152|368:280|368:280|368:288,1,425,2|0
480,120,151510,6,0,B|513:86|493:27|434:6|400:40|400:40|395:46,1,170,4|2
408,112,152131,1,8
343,149,152337,1,8
328,80,152544,2,0,B|312:40|256:38|200:40|184:80|184:80|184:88,1,170,0|8
176,144,153165,2,0,B|168:208|256:274|344:208|336:144|336:144|336:136,1,255,2|2
32,120,154819,6,0,B|-1:86|18:27|77:6|111:40|111:40|116:46,1,170,4|2
104,112,155439,1,8
169,149,155646,1,8
176,216,155853,2,0,B|168:280|256:346|344:280|336:216|336:216|336:208,2,255,0|2|8
256,384,158127,6,0,B|256:208,1,170,4|2
224,152,158748,1,8
288,152,158955,1,8
256,88,159161,2,0,B|176:0|72:0|24:16|24:48|72:136|160:224|160:224|48:288|88:360|176:344|256:280|256:280|336:344|424:360|464:288|352:224|352:224|440:136|488:48|488:16|440:0|336:0|248:96,1,1445,2|0
256,192,162780,12,0,164538
