osu file format v7

[General]
AudioFilename: Fito Paez-Mariposa Tecknicolor.mp3
AudioLeadIn: 0
PreviewTime: 45845
Countdown: 0
SampleSet: Soft
StackLeniency: 0.5
Mode: 0
LetterboxInBreaks: 1

[Editor]
DistanceSpacing: 0.899999976158142
BeatDivisor: 4
GridSize: 8

[Metadata]
Title:Mariposa Tecknicolor
Artist:Fito Paez
Creator:Krisom
Version:Easy
Source:
Tags:lepidopodus

[Difficulty]
HPDrainRate:2
CircleSize:3
OverallDifficulty:2
SliderMultiplier:0.899999999999999
SliderTickRate:1

[Events]
//Background and Video events
0,0,"BG.jpg"
//Break Periods
2,125449,136923
//Storyboard Layer 0 (Background)
//Storyboard Layer 1 (Fail)
//Storyboard Layer 2 (Pass)
//Storyboard Layer 3 (Foreground)
//Storyboard Sound Samples
//Background Colour Transformations
3,100,163,162,255

[TimingPoints]
1180,413.564929693962,4,2,1,60,1,0
45845,-100,4,2,1,60,0,1
72313,-100,4,2,1,70,0,0
98781,-100,4,2,1,70,0,1
123949,-100,4,2,1,40,0,1
124466,-100,4,2,1,50,0,1
124931,-100,4,2,1,60,0,1
125249,-100,4,2,1,70,0,0
164538,-100,4,2,1,0,0,0

[Colours]
Combo1 : 255,255,255
Combo2 : 44,220,24
Combo3 : 6,131,255
Combo4 : 244,31,0
Combo5 : 255,204,0

[HitObjects]
472,56,19376,5,4
472,136,19790,2,0,B|392:136|384:192|288:192,1,180,8|8
256,256,21031,2,0,B|256:312|192:320,1,89.9999999999999,0|8
120,328,21858,1,0
40,328,22271,1,8
40,328,22685,5,4
40,248,23098,2,0,B|120:248|128:192|224:192,1,180,8|8
256,128,24339,2,0,B|256:72|320:64,1,89.9999999999999,0|8
392,56,25166,1,0
472,56,25580,1,8
436,128,25993,6,0,B|69:128,2,360,4|4|4
432,208,29715,2,0,B|432:264|368:264,1,89.9999999999999,8|0
296,296,30543,2,0,B|256:335|216:296,1,89.9999999999999,8|0
256,224,31370,1,8
296,152,31783,1,8
216,152,32197,1,8
256,80,32610,5,4
192,24,33024,2,0,B|136:24|136:160|80:160,1,180,8|8
9,185,34265,2,0,B|20:240|84:236,1,89.9999999999999,0|8
120,304,35092,1,0
188,259,35505,1,8
256,304,35919,5,4
324,259,36333,1,8
368,192,36746,2,0,B|368:72|256:44|144:72|144:192|144:192|144:200,1,360
88,256,38814,1,8
80,336,39227,6,0,B|168:336|256:300|256:300|344:336|432:336|432:336|440:336,2,360,4|4|4
88,256,42950,1,8
168,256,43363,1,0
216,192,43777,1,8
256,120,44190,2,8,B|256:16,2,89.9999999999999,4|8|8
296,192,45431,1,8
312,272,45845,6,0,B|312:312|256:336|256:336|200:312|200:272|200:272|192:264,2,180,4|0|0
256,208,47912,1,8
216,136,48326,1,0
296,136,48739,1,8
344,72,49153,6,0,B|320:56|256:56|192:56|168:72|168:72|160:80,2,180,0|2|0
296,136,51221,1,8
256,208,51634,1,0
216,136,52048,1,8
152,192,52462,6,0,B|128:288|256:377|384:288|360:192|360:192|360:184,1,360,4|0
336,112,54529,1,8
256,112,54943,1,0
176,112,55357,1,8
166,31,55770,6,0,B|350:31,2,180,4|2|0
208,104,57838,1,8
256,168,58251,1,0
304,104,58665,1,8
320,184,59079,6,0,B|320:232|256:252|192:232|192:183,2,180,4|2|0
384,233,61146,2,0,B|365:277|304:304,2,89.9999999999999,8|0|8
392,152,62387,5,0
323,108,62801,1,8
320,184,63214,2,0,B|320:232|256:252|192:232|192:183,1,180,2|0
128,232,64455,2,0,B|147:276|208:304,2,89.9999999999999,8|0|8
168,160,65696,6,0,B|288:184|354:80|256:12|158:80|224:184|346:160,1,360,4|0
336,240,67763,1,8
256,240,68177,1,0
176,240,68591,1,8
166,320,69004,6,0,B|350:320,2,180,4|2|0
176,240,71072,1,8
256,216,71486,1,0
336,240,71899,1,8
408,200,72313,5,4
346,147,72726,2,0,B|154:147,1,180,8|8
124,77,73967,2,0,B|96:118|28:101,1,89.9999999999999,0|8
24,184,74794,1,0
64,256,75208,1,8
104,184,75621,5,4
166,237,76035,2,0,B|358:237,1,180,8|8
388,307,77275,2,0,B|416:266|484:283,1,89.9999999999999,0|8
488,200,78103,1,0
448,128,78516,1,8
368,128,78930,6,0,B|224:152|182:48|256:12|329:48|288:152|140:128,2,360,4|4|4
384,208,82652,2,0,B|280:208,1,89.9999999999999,8|0
218,208,83479,2,0,B|128:208,1,89.9999999999999,8|0
48,208,84306,1,8
8,280,84720,1,8
88,280,85133,1,8
48,352,85547,5,4
128,352,85960,1,8
168,280,86374,2,0,B|224:280|256:256|256:144,1,180
224,72,87615,2,0,B|256:48|288:88|328:64,1,89.9999999999999,8|0
384,32,88442,1,8
464,32,88855,5,4
384,32,89269,1,8
344,104,89682,2,0,B|288:104|256:128|256:240,1,180
288,312,90923,2,0,B|256:336|224:296|184:320,1,89.9999999999999,8|0
128,352,91750,1,8
152,272,92164,6,0,B|128:176|256:87|384:176|360:272|360:272|360:280,2,360,4|4|4
216,328,95886,1,8
296,328,96299,1,0
256,256,96713,1,8
320,208,97127,2,0,B|320:160|256:140|192:160|192:209,1,180
104,72,98781,5,4
144,144,99194,1,8
200,88,99608,2,0,B|264:96|296:48|256:16|216:48|248:96|314:88,1,180,2|0
344,16,100849,1,8
408,72,101262,1,0
368,144,101676,1,8
344,224,102089,6,0,B|320:240|256:240|192:240|168:224|168:224|160:216,2,180,0|2|0
336,304,104157,1,8
256,328,104571,1,0
176,304,104984,1,8
144,232,105398,6,0,B|288:256|330:152|256:116|183:152|224:256|372:232,1,360,4|0
448,232,107466,1,8
408,304,107879,1,0
328,304,108293,1,8
256,272,108706,6,0,B|256:80,2,180,4|2|0
184,304,110774,1,8
104,304,111188,1,0
64,232,111601,1,8
144,232,112015,5,4
184,160,112428,1,8
256,200,112842,2,0,B|256:304,2,89.9999999999999,2|8|0
328,160,114083,1,8
368,232,114496,1,0
408,304,114910,1,8
328,304,115323,6,0,B|304:352|255:364|208:352|184:302,2,180,0|2|0
256,264,117391,1,8
216,192,117805,1,0
296,192,118218,1,8
360,144,118632,6,0,B|384:48|256:-39|128:48|152:144|152:144|155:144,1,360,4|0
176,224,120700,1,8
256,224,121113,1,0
336,224,121527,1,8
320,304,121940,6,0,B|320:352|256:372|192:352|192:303,1,180,4|2
144,152,123595,2,0,B|288:176|330:72|256:36|183:72|224:176|372:152,1,360,4|4
24,40,138483,6,0,B|216:40,1,180,4|2
200,120,139724,1,8
120,120,140137,1,8
40,120,140551,1,8
72,192,140964,2,0,B|168:192,1,89.9999999999999,2|2
216,256,141792,5,4
296,256,142205,1,8
352,312,142619,2,0,B|344:360|256:360|167:360|160:312|160:312|156:304,2,225,0|2|8
427,282,145100,6,0,B|427:90,1,180,4|2
336,112,146341,1,8
336,192,146754,1,8
336,272,147168,1,8
324,352,147581,6,0,B|180:352,2,135,0|2|8
304,272,149236,2,0,B|304:232|256:228|208:232|208:272|208:272|200:280,2,135,0|2|8
256,24,151510,5,4
176,160,152337,1,4
336,160,153165,1,4
256,360,154819,5,4
336,224,155646,1,4
176,224,156473,1,4
256,16,158127,6,0,B|256:208,1,180,4|2
256,192,159368,12,0,164538
