osu file format v13

[General]
AudioFilename: 03 - Fit For Rivals - Damage.mp3
AudioLeadIn: 0
PreviewTime: 150578
Countdown: 0
SampleSet: Normal
StackLeniency: 0.7
Mode: 0
LetterboxInBreaks: 1
WidescreenStoryboard: 1

[Editor]
DistanceSpacing: 1.2
BeatDivisor: 4
GridSize: 4
TimelineZoom: 1.100006

[Metadata]
Title:Damage
TitleUnicode:Damage
Artist:Fit For Rivals
ArtistUnicode:Fit For Rivals
Creator:Zerzxes
Version:Hard
Source:
Tags:punk rock
BeatmapID:444777
BeatmapSetID:167928

[Difficulty]
HPDrainRate:6
CircleSize:4
OverallDifficulty:6
ApproachRate:7.6
SliderMultiplier:1.9
SliderTickRate:1

[Events]
//Background and Video events
0,0,"wallpaper-994755.jpg",0,0
//Break Periods
//Storyboard Layer 0 (Background)
//Storyboard Layer 1 (Fail)
//Storyboard Layer 2 (Pass)
//Storyboard Layer 3 (Foreground)
//Storyboard Sound Samples

[TimingPoints]
766,363.636363636364,4,2,0,40,1,0
17675,-100,4,1,0,40,0,0
58947,-71.4285714285714,4,1,0,40,0,1
70584,-100,4,1,0,40,0,0
96766,-71.4285714285714,4,1,0,40,0,1
120038,-100,4,1,0,40,0,0
150584,-71.4285714285714,4,1,0,40,0,1
175311,-133.333333333333,4,1,0,20,0,0
179487,-133.333333333333,4,1,0,10,0,0

[HitObjects]
160,256,766,6,0,P|252:304|344:288,1,190
388,216,1311,1,0,0:0:0:0:
336,136,1493,1,0,0:0:0:0:
164,56,1856,5,0,0:0:0:0:
88,112,2038,1,0,0:0:0:0:
88,112,2129,1,0,0:0:0:0:
88,112,2220,2,0,P|56:208|80:296,1,190
172,312,2766,1,0,0:0:0:0:
268,320,2947,1,0,0:0:0:0:
144,160,3311,5,0,0:0:0:0:
192,76,3493,1,0,0:0:0:0:
192,76,3584,1,0,0:0:0:0:
192,76,3675,2,0,P|280:56|380:72,1,190
436,144,4220,1,0,0:0:0:0:
464,236,4402,1,0,0:0:0:0:
204,344,4766,5,0,0:0:0:0:
284,296,4947,2,0,L|328:256,2,47.5,0|0|0,0:0|0:0|0:0,0:0:0:0:
408,148,5493,6,0,P|360:88|336:80,1,95
252,68,5856,1,0,0:0:0:0:
172,120,6038,1,0,0:0:0:0:
172,120,6220,1,0,0:0:0:0:
172,120,6402,1,0,0:0:0:0:
132,208,6584,1,0,0:0:0:0:
300,296,6947,5,0,0:0:0:0:
380,244,7129,1,0,0:0:0:0:
296,200,7311,1,0,0:0:0:0:
168,76,7675,1,0,0:0:0:0:
132,208,7856,1,0,0:0:0:0:
132,208,7947,1,0,0:0:0:0:
132,208,8038,2,0,P|148:308|232:328,1,190
332,292,8584,5,0,0:0:0:0:
384,192,8766,1,0,0:0:0:0:
240,48,9129,1,0,0:0:0:0:
140,104,9311,1,0,0:0:0:0:
116,124,9402,1,0,0:0:0:0:
100,152,9493,1,0,0:0:0:0:
308,244,9856,5,0,0:0:0:0:
200,280,10038,1,0,0:0:0:0:
220,168,10220,1,0,0:0:0:0:
52,324,10584,1,0,0:0:0:0:
60,212,10766,1,0,0:0:0:0:
60,212,10856,1,0,0:0:0:0:
60,212,10947,1,0,0:0:0:0:
100,104,11129,5,0,0:0:0:0:
196,44,11311,2,0,P|264:40|296:60,1,95
384,108,11675,1,0,0:0:0:0:
412,200,11856,1,0,0:0:0:0:
412,200,12038,1,0,0:0:0:0:
412,200,12220,1,0,0:0:0:0:
316,260,12402,1,0,0:0:0:0:
108,84,12766,5,0,0:0:0:0:
188,132,12947,1,0,0:0:0:0:
120,196,13129,2,0,P|120:272|128:288,1,95
216,324,13493,2,0,P|224:277|210:232,1,95
196,208,13766,1,0,0:0:0:0:
180,184,13856,2,0,P|156:140|176:96,1,95
268,92,14220,5,0,0:0:0:0:
268,92,14402,1,0,0:0:0:0:
268,92,14584,1,0,0:0:0:0:
444,164,14947,1,0,0:0:0:0:
364,216,15129,1,0,0:0:0:0:
340,232,15220,1,0,0:0:0:0:
316,248,15311,1,0,0:0:0:0:
220,252,15493,5,0,0:0:0:0:
152,184,15675,1,0,0:0:0:0:
92,256,15856,1,0,0:0:0:0:
92,256,16038,1,0,0:0:0:0:
128,344,16402,6,0,P|208:328|252:308,1,95
444,152,16766,2,0,P|433:196|392:218,1,95
152,224,17129,1,0,0:0:0:0:
292,136,17311,1,0,0:0:0:0:
144,112,17675,5,0,0:0:0:0:
144,112,17856,1,0,0:0:0:0:
144,112,18038,1,0,0:0:0:0:
144,112,18220,2,0,P|76:140|36:252,1,190
368,112,18947,2,0,P|436:140|476:252,1,190
256,72,19675,5,0,0:0:0:0:
252,260,20038,1,0,0:0:0:0:
116,128,20402,2,0,P|152:180|152:192,2,47.5,0|0|0,0:0|0:0|0:0,0:0:0:0:
96,220,20766,2,0,L|60:252,2,47.5,0|0|0,0:0|0:0|0:0,0:0:0:0:
256,196,21129,5,0,0:0:0:0:
256,56,21311,1,0,0:0:0:0:
400,88,21493,2,0,P|372:144|328:144,1,95
112,88,21856,2,0,P|140:144|184:144,1,95
256,292,22220,2,0,B|328:192|212:192|260:88,1,190
88,240,22766,5,0,0:0:0:0:
88,240,22856,1,0,0:0:0:0:
88,240,22947,1,0,0:0:0:0:
140,160,23129,1,0,0:0:0:0:
204,228,23311,2,0,P|276:224|336:192,1,95
384,176,23675,2,0,B|416:132|416:132|392:128|392:128|408:108|408:108|408:56|344:24,1,190
160,288,24402,5,0,0:0:0:0:
256,284,24584,1,0,0:0:0:0:
220,196,24766,2,0,P|184:148|216:108,1,95
288,100,25129,2,0,B|352:92|348:140|448:68,1,142.5
424,84,25493,5,0,0:0:0:0:
452,176,25675,1,0,0:0:0:0:
292,276,26038,5,0,0:0:0:0:
236,352,26220,1,0,0:0:0:0:
208,164,26584,5,0,0:0:0:0:
136,104,26766,1,0,0:0:0:0:
136,104,26947,5,0,0:0:0:0:
224,64,27129,1,0,0:0:0:0:
272,52,27220,1,0,0:0:0:0:
320,44,27311,2,0,B|376:56|376:56|364:88|364:88|443:101|456:128,1,190
460,236,27856,2,0,P|424:280|352:288,1,95
176,276,28402,6,0,P|136:232|88:196,1,95
84,184,28675,1,0,0:0:0:0:
64,156,28766,2,0,P|24:100|40:48,1,95
348,144,29311,1,0,0:0:0:0:
348,144,29402,1,0,0:0:0:0:
348,144,29493,2,0,B|248:196|396:196|324:328,1,190
132,204,30220,5,0,0:0:0:0:
72,108,30402,1,0,0:0:0:0:
296,56,30766,1,0,0:0:0:0:
396,112,30947,2,0,B|332:204|448:228|408:296,1,190
368,328,31402,2,0,P|304:328|296:316,1,47.5
160,180,31856,5,0,0:0:0:0:
80,100,32038,1,0,0:0:0:0:
60,212,32220,1,0,0:0:0:0:
56,232,32311,1,0,0:0:0:0:
52,256,32402,1,0,0:0:0:0:
140,328,32584,1,0,0:0:0:0:
340,260,32766,6,0,P|356:192|300:84,1,190
256,192,33311,1,0,0:0:0:0:
172,260,33493,2,0,P|156:192|212:84,1,190
432,60,34220,1,0,0:0:0:0:
364,152,34402,1,0,0:0:0:0:
440,236,34584,2,0,P|400:296|352:320,1,95
268,312,34947,1,0,0:0:0:0:
268,312,35129,1,0,0:0:0:0:
268,312,35311,1,0,0:0:0:0:
100,156,35675,6,0,P|112:96|168:80,1,95
184,184,36038,2,0,P|184:248|152:276,1,95
52,268,36402,1,0,0:0:0:0:
88,160,36584,1,0,0:0:0:0:
164,72,36766,1,0,0:0:0:0:
364,184,37129,6,0,L|448:120,1,95
456,244,37493,1,0,0:0:0:0:
352,288,37675,1,0,0:0:0:0:
456,244,37856,1,0,0:0:0:0:
360,180,38038,1,0,0:0:0:0:
452,116,38220,1,0,0:0:0:0:
144,64,38584,6,0,P|184:136|156:200,1,142.5
152,216,38947,1,0,0:0:0:0:
84,308,39129,1,0,0:0:0:0:
192,340,39311,2,0,P|272:328|288:304,1,95
392,324,39675,2,0,L|340:272|312:244,1,95
244,176,40038,1,0,0:0:0:0:
432,44,40402,5,0,0:0:0:0:
340,112,40584,1,0,0:0:0:0:
244,52,40766,2,0,P|160:28|120:36,1,95
64,100,41129,2,0,P|52:161|78:197,1,95
148,268,41493,1,0,0:0:0:0:
376,268,41856,6,0,P|360:200|304:188,1,95
264,272,42220,2,0,P|288:336|348:336,1,95
424,336,42584,1,0,0:0:0:0:
292,148,42947,6,0,L|224:72,1,95
216,192,43311,1,0,0:0:0:0:
108,156,43493,1,0,0:0:0:0:
100,268,43675,2,0,P|152:304|368:244,1,285
400,156,44402,6,0,P|424:100|388:68,1,95
296,44,44766,1,0,0:0:0:0:
224,260,45129,2,0,P|200:188|168:176,1,95
80,136,45493,1,0,0:0:0:0:
296,164,45856,2,0,P|364:200|368:216,2,95,0|0|0,0:0|0:0|0:0,0:0:0:0:
