osu file format v14

[General]
AudioFilename: n.mp3
AudioLeadIn: 0
PreviewTime: 69238
Countdown: 0
SampleSet: Soft
StackLeniency: 0.6
Mode: 0
LetterboxInBreaks: 0
WidescreenStoryboard: 0

[Editor]
Bookmarks: 23958,33187,51645,70103,88561,107024,116255,125486,143950,162413,167028,185492,190107,206263,213199,231649
DistanceSpacing: 1.2
BeatDivisor: 4
GridSize: 4
TimelineZoom: 1

[Metadata]
Title:Nuan Nuan
TitleUnicode:暖暖
Artist:Fish Leong
ArtistUnicode:梁靜茹
Creator:liangv587
Version:Hard
Source:
Tags:亲亲 qin 親親 梁静茹 liang jing ru
BeatmapID:386720
BeatmapSetID:158055

[Difficulty]
HPDrainRate:5
CircleSize:4
OverallDifficulty:6
ApproachRate:7
SliderMultiplier:1.6
SliderTickRate:1

[Events]
//Background and Video events
0,0,"bg.jpg",0,0
//Break Periods
2,91230,101667
2,185836,189351
//Storyboard Layer 0 (Background)
//Storyboard Layer 1 (Fail)
//Storyboard Layer 2 (Pass)
//Storyboard Layer 3 (Foreground)
//Storyboard Sound Samples

[TimingPoints]
14893,576.867608883761,4,2,1,30,1,0
14893,-133.333333333333,4,2,1,40,0,0
16046,559.424273664479,4,2,1,30,1,0
16046,-133.333333333333,4,2,1,40,0,0
16605,603.015075376884,4,2,1,30,1,0
17208,574.513076923077,4,2,1,30,1,0
17208,-133.333333333333,4,2,1,40,0,0
23096,-100,4,2,1,50,0,0
24114,576.867608883761,4,2,1,40,1,0
33199,-133.333333333333,4,2,1,30,0,0
42429,-133.333333333333,4,2,1,40,0,0
51659,-100,4,2,1,50,0,0
70263,-80,4,2,1,60,0,1
88723,-133.333333333333,4,2,1,40,0,0
115403,-100,4,2,1,50,0,0
143958,-80,4,2,1,60,0,0
167177,-80,4,2,1,70,0,1
185636,-80,4,2,1,70,0,0
194866,-80,4,2,1,70,0,1
201789,-80,4,2,1,60,0,0
204096,-80,4,2,1,60,0,1
206404,-100,4,2,1,40,0,1
208711,-133.333333333333,4,2,1,40,0,0
210442,592.300098716683,4,2,1,40,1,0
210442,-133.333333333333,4,2,1,40,0,0
211034,576.973076923077,4,2,1,40,1,0
211610,582.52427184466,4,2,1,40,1,0
211610,-133.333333333333,4,2,1,40,0,0
212192,612.244897959184,4,2,1,40,1,0
212192,-133.333333333333,4,2,1,40,0,0
212804,527.240773286468,4,2,1,40,1,0
213331,576.973076923077,4,2,1,40,1,0
231217,588.235294117647,4,2,1,40,1,0
231805,553.50553505535,4,2,1,40,1,0
232912,586.223742061553,4,2,1,40,1,0
233498,614.376407945935,4,2,1,40,1,0
233498,-90.9090909090909,4,2,1,50,0,0
234112,750,4,2,1,40,1,0
234112,-76.9230769230769,4,2,1,40,0,0
234487,851.063829787234,4,2,1,40,1,0
234912,1224.48979591837,4,2,1,30,1,0
234912,-50,4,2,1,30,0,0
235524,1666.66666666667,4,2,1,30,1,0
236357,1250,4,2,1,50,1,0
237294,-100,4,2,1,40,0,0
237919,-100,4,2,1,20,0,0
238544,-100,4,2,1,10,0,0
239169,-100,4,2,1,5,0,0

[Colours]
Combo1 : 255,128,192
Combo2 : 162,68,255
Combo3 : 0,128,255
Combo4 : 65,216,14

[HitObjects]
255,40,14893,6,0,P|278:102|291:160,1,120.000004577637,2|0,0:0|0:0,0:0:0:0:
179,236,16046,2,0,P|211:228|243:228,1,60.0000022888184,2|0,0:0|0:0,0:0:0:0:
311,236,16605,1,0,0:0:0:0:
420,281,17208,5,2,0:0:0:0:
373,335,17495,1,0,0:0:0:0:
305,309,17782,1,2,0:0:0:0:
311,236,18069,1,0,0:0:0:0:
383,217,18357,2,0,P|399:165|407:89,1,120.000004577637,2|0,0:0|0:0,0:0:0:0:
255,40,19506,6,0,P|247:72|243:108,1,60.0000022888184,2|0,0:0|0:0,0:0:0:0:
243,172,20080,1,0,0:0:0:0:
163,332,20655,1,2,0:0:0:0:
91,341,20942,1,0,0:0:0:0:
59,276,21229,1,2,0:0:0:0:
111,227,21516,1,0,0:0:0:0:
174,260,21804,6,0,P|226:244|294:244,2,120.000004577637,2|0|0,0:0|0:0|0:0,0:0:0:0:
299,336,23240,2,0,P|337:353|384:361,2,80,8|8|2,0:3|0:3|0:0,0:0:0:0:
292,244,24114,6,0,P|296:204|308:152,1,80,2|0,0:3|0:0,0:0:0:0:
359,96,24690,1,8,0:1:0:0:
359,96,24979,1,0,0:0:0:0:
417,161,25267,2,0,P|412:201|402:239,1,80,2|0,0:3|0:0,0:0:0:0:
292,244,25844,2,0,P|245:244|201:237,1,80,8|0,0:0|0:0,0:0:0:0:
167,163,26421,6,0,B|128:139|86:151|86:151|45:161|5:133,2,160,2|8|2,0:3|0:1|0:1,0:0:0:0:
115,234,27863,2,0,P|76:252|29:262,2,80,0|8|0,0:0|0:0|0:0,0:0:0:0:
249,149,28728,5,2,0:3:0:0:
198,80,29017,1,0,0:0:0:0:
167,163,29305,2,0,P|181:198|214:224,1,80,8|0,0:1|0:0,0:0:0:0:
300,210,29882,2,0,P|325:176|327:135,1,80,2|0,0:3|0:0,0:0:0:0:
275,68,30459,2,0,P|235:66|198:80,1,80,8|0,0:0|0:0,0:0:0:0:
328,139,31036,6,0,P|371:140|414:123,1,80,2|0,0:3|0:0,0:0:0:0:
488,160,31613,2,0,P|463:192|429:212,2,80,8|2|2,0:1|0:0|0:1,0:0:0:0:
275,69,33343,6,0,P|267:104|252:135,1,60.0000022888184,2|0,0:0|0:0,0:0:0:0:
217,185,33920,1,2,0:1:0:0:
115,83,34497,2,0,P|103:110|96:139,1,60.0000022888184,2|0,0:0|0:0,0:0:0:0:
88,211,35074,1,2,0:1:0:0:
88,211,35651,5,2,0:0:0:0:
130,268,35939,1,0,0:0:0:0:
202,262,36228,2,0,P|238:262|274:268,1,60.0000022888184,2|0,0:0|0:0,0:0:0:0:
328,291,36805,2,0,P|359:329|444:345,2,120.000004577637,2|0|2,0:1|0:0|0:0,0:0:0:0:
323,218,38247,5,0,0:0:0:0:
339,147,38535,1,0,0:0:0:0:
390,97,38824,2,0,P|427:89|458:89,2,60.0000022888184,2|0|0,0:0|0:0|0:0,0:0:0:0:
339,147,39689,2,0,P|308:153|267:155,1,60.0000022888184,2|0,0:0|0:0,0:0:0:0:
208,146,40266,5,2,0:0:0:0:
147,106,40554,1,0,0:0:0:0:
97,53,40843,2,0,P|65:52|28:60,2,60.0000022888184,2|0|2,0:0|0:0|0:1,0:0:0:0:
147,106,41708,1,0,0:0:0:0:
142,177,41996,1,0,0:0:0:0:
115,244,42285,1,0,0:0:0:0:
67,298,42573,6,0,P|43:321|16:341,2,60.0000022888184,2|0|2,0:0|0:0|0:1,0:0:0:0:
197,359,43727,2,0,P|224:367|265:369,2,60.0000022888184,2|0|2,0:0|0:0|0:1,0:0:0:0:
115,244,44881,5,2,0:0:0:0:
186,236,45169,1,0,0:0:0:0:
256,250,45458,1,2,0:0:0:0:
319,283,45746,1,0,0:0:0:0:
367,335,46034,1,2,0:1:0:0:
501,283,46611,2,0,P|496:245|485:211,1,60.0000022888184,2|0,0:0|0:0,0:0:0:0:
418,212,47188,6,0,P|403:241|393:275,2,60.0000022888184,2|0|0,0:0|0:0|0:0,0:0:0:0:
464,157,48054,1,2,0:0:0:0:
448,86,48342,2,0,P|442:58|415:29,1,60.0000022888184
377,90,48919,2,0,P|354:68|322:59,1,60.0000022888184,2|0,0:0|0:0,0:0:0:0:
320,133,49496,6,0,P|287:124|252:132,1,60.0000022888184,2|0,0:0|0:0,0:0:0:0:
285,196,50073,2,0,P|257:203|230:234,2,60.0000022888184,2|0|2,0:0|0:0|0:1,0:0:0:0:
285,196,51803,5,2,0:3:0:0:
371,213,52092,1,0,0:0:0:0:
380,300,52380,2,0,P|347:325|304:339,1,80,8|0,0:1|0:0,0:0:0:0:
174,316,52957,2,0,P|206:292|244:279,1,80,2|0,0:0|0:0,0:0:0:0:
108,257,53534,1,8,0:0:0:0:
21,243,53822,1,0,0:0:0:0:
75,173,54111,6,0,P|93:135|98:90,1,80,2|0,0:0|0:0,0:0:0:0:
43,28,54687,1,8,0:1:0:0:
43,28,54976,1,0,0:0:0:0:
182,50,55264,2,0,P|191:88|188:128,1,80,2|0,0:0|0:0,0:0:0:0:
174,215,55841,1,8,0:0:0:0:
174,215,56130,1,0,0:0:0:0:
261,329,56418,6,0,P|251:290|254:250,1,80,2|0,0:0|0:0,0:0:0:0:
379,207,56995,2,0,P|360:244|355:289,1,80,8|0,0:1|0:0,0:0:0:0:
464,345,57572,2,0,P|453:305|457:262,1,80,2|0,0:0|0:0,0:0:0:0:
463,236,58004,1,0,0:0:0:0:
477,207,58149,2,0,P|467:166|443:132,1,80,8|0,0:0|0:0,0:0:0:0:
378,78,58726,5,2,0:0:0:0:
293,54,59014,1,0,0:0:0:0:
312,139,59302,2,0,P|297:177|256:211,2,80,8|0|2,0:1|0:0|0:1,0:0:0:0:
136,74,60456,2,0,P|107:101|93:138,1,80,8|0,0:0|0:0,0:0:0:0:
109,225,61033,5,2,0:3:0:0:
109,225,61321,1,0,0:0:0:0:
104,367,61610,2,0,P|132:340|147:303,1,80,8|0,0:1|0:0,0:0:0:0:
197,230,62187,2,0,P|227:261|236:307,1,80,2|0,0:0|0:0,0:0:0:0:
361,347,62764,2,0,P|331:316|322:270,1,80,8|0,0:0|0:0,0:0:0:0:
451,209,63340,6,0,P|437:246|409:274,1,80,2|0,0:0|0:0,0:0:0:0:
277,204,63917,1,8,0:1:0:0:
365,197,64206,1,0,0:0:0:0:
445,87,64494,2,0,P|424:50|387:29,1,80,2|0,0:0|0:0,0:0:0:0:
308,57,65071,2,0,P|328:93|365:114,1,80,8|0,0:0|0:0,0:0:0:0:
242,122,65648,6,0,P|206:150|189:190,2,80,2|0|8,0:0|0:0|0:1,0:0:0:0:
277,204,66513,1,0,0:0:0:0:
322,281,66802,2,0,P|350:255|364:210,1,80,2|0,0:0|0:0,0:0:0:0:
233,284,67379,1,8,0:0:0:0:
228,371,67667,1,0,0:0:0:0:
151,327,67955,6,0,P|140:265|172:213,1,120,4|0,0:0|0:0,0:0:0:0:
194,200,68532,1,2,0:0:0:0:
129,139,68821,2,0,P|88:134|41:143,1,80,0|2,0:0|0:1,0:0:0:0:
194,200,70263,6,0,P|241:211|297:195,1,100,4|0,3:2|0:0,0:0:0:0:
239,99,70840,2,0,P|251:54|291:14,1,100,8|0,0:0|0:0,0:0:0:0:
347,108,71417,2,0,P|397:201|356:280,1,200,2|8,0:0|0:0,0:0:0:0:
202,337,72282,1,0,0:0:0:0:
290,198,72570,5,2,0:0:0:0:
301,362,72859,1,0,0:0:0:0:
195,237,73147,2,0,P|139:228|86:244,1,100,8|0,0:0|0:0,0:0:0:0:
54,137,73724,1,2,0:1:0:0:
142,70,74013,1,0,0:0:0:0:
231,134,74301,1,8,0:0:0:0:
231,134,74878,6,0,P|321:188|411:149,1,200,2|8,0:3|0:0,0:0:0:0:
327,76,75743,1,0,0:0:0:0:
483,107,76032,2,0,P|497:155|480:210,1,100,2|0,0:0|0:0,0:0:0:0:
405,252,76608,2,0,P|391:204|408:149,1,100,8|0,0:0|0:0,0:0:0:0:
486,281,77185,6,0,P|411:338|329:290,1,200,2|8,0:0|0:0,0:0:0:0:
316,183,78051,1,0,0:0:0:0:
327,76,78339,1,2,0:1:0:0:
405,252,78627,1,0,0:0:0:0:
225,257,78916,1,8,0:0:0:0:
225,257,79493,5,2,0:3:0:0:
330,291,79781,1,0,0:0:0:0:
245,363,80070,2,0,P|193:360|148:333,1,100,8|0,0:0|0:0,0:0:0:0:
225,257,80647,1,2,0:0:0:0:
305,183,80935,1,0,0:0:0:0:
410,215,81223,2,0,P|435:259|438:312,1,100,8|0,0:0|0:0,0:0:0:0:
330,291,81800,5,2,0:0:0:0:
225,257,82089,1,0,0:0:0:0:
200,146,82377,2,0,P|225:101|269:76,1,100,8|0,0:0|0:0,0:0:0:0:
371,114,82954,2,0,B|357:164|304:183|304:183|341:227|329:280,1,200,2|8,0:1|0:0,0:0:0:0:
244,345,83819,1,2,0:0:0:0:
94,345,84108,6,0,B|93:295|129:252|129:252|180:278|224:256,1,200,2|8,0:3|0:0,0:0:0:0:
305,183,84973,1,0,0:0:0:0:
184,154,85261,1,2,0:0:0:0:
184,154,85550,1,0,0:0:0:0:
72,175,85838,2,0,P|92:220|129:253,1,100,8|0,0:0|0:0,0:0:0:0:
240,248,86415,5,2,0:0:0:0:
348,223,86704,1,0,0:0:0:0:
256,71,86992,1,8,0:0:0:0:
184,154,87281,1,0,0:0:0:0:
358,114,87569,2,0,P|367:63|348:11,1,100,2|0,0:1|0:0,0:0:0:0:
262,180,88146,2,0,P|301:213|356:222,1,100,8|0,0:0|0:0,0:0:0:0:
256,71,88723,5,4,0:0:0:0:
256,192,89011,12,2,91030,0:0:0:0:
256,192,102567,12,2,106029,0:0:0:0:
384,104,107182,5,2,0:3:0:0:
321,139,107471,2,0,P|310:170|305:207,1,60.0000022888184,0|2,0:0|3:1,0:0:0:0:
372,324,108336,1,2,0:0:0:0:
309,288,108625,2,0,P|280:280|233:280,1,60.0000022888184,0|0,0:0|1:0,0:0:0:0:
120,341,109490,5,2,0:0:0:0:
161,282,109778,1,0,0:0:0:0:
172,211,110067,2,0,B|171:161|151:140|151:140|199:143,1,120.000004577637,2|2,0:0|3:1,0:0:0:0:
304,48,111221,2,0,L|244:44,1,60.0000022888184,0|0,1:0|0:0,0:0:0:0:
262,114,111797,6,0,B|278:164|243:197|243:197|253:229,1,120.000004577637,2|0,0:0|0:0,0:0:0:0:
287,287,112663,1,2,0:0:0:0:
352,316,112951,2,0,B|368:266|333:233|333:233|344:202,1,120.000004577637,0|2,0:0|1:2,0:0:0:0:
405,169,113816,1,0,0:0:0:0:
428,101,114105,6,0,L|360:85,1,60.0000022888184,2|0,0:0|0:0,0:0:0:0:
318,138,114682,1,2,0:0:0:0:
249,116,114970,1,0,0:0:0:0:
193,168,115259,1,2,3:1:0:0:
114,153,115547,2,0,L|29:181,2,80,8|8|2,0:3|0:3|0:0,0:0:0:0:
96,74,116412,5,2,0:3:0:0:
154,18,116701,1,0,0:0:0:0:
231,35,116989,2,0,P|273:41|320:29,1,80,8|0,3:0|0:0,0:0:0:0:
370,97,117566,1,2,0:0:0:0:
285,121,117854,1,0,0:0:0:0:
245,199,118143,2,0,P|253:243|279:274,1,80,8|0,3:0|0:0,0:0:0:0:
361,284,118720,5,2,0:3:0:0:
342,198,119008,1,0,0:0:0:0:
395,62,119297,1,8,3:0:0:0:
414,148,119585,1,0,0:0:0:0:
271,141,119874,2,0,L|179:153,1,80,2|0,3:1|3:0,0:0:0:0:
219,65,120450,2,0,L|311:53,1,80,8|0,3:0|0:0,0:0:0:0:
342,198,121027,6,0,B|308:221|308:221|230:232|230:232|192:259,1,160,2|8,0:3|3:0,0:0:0:0:
196,343,121893,1,0,0:0:0:0:
119,299,122181,2,0,B|89:233|142:186|142:186|89:193,1,160,2|8,0:0|3:0,0:0:0:0:
23,162,123046,1,0,0:0:0:0:
89,103,123335,6,0,L|179:89,1,80,2|0,0:3|0:0,0:0:0:0:
255,77,123912,1,8,3:0:0:0:
320,135,124200,2,0,L|306:186,2,40,2|0|2,0:0|0:0|0:1,0:0:0:0:
407,121,124777,2,0,P|414:75|407:33,1,80,0|8,1:0|1:3,0:0:0:0:
246,154,125642,6,0,P|239:200|251:236,1,80,2|0,0:3|0:0,0:0:0:0:
256,319,126219,2,0,P|299:302|324:273,1,80,8|0,0:1|0:0,0:0:0:0:
393,227,126796,2,0,P|356:197|319:190,1,80,2|0,0:0|0:0,0:0:0:0:
169,225,127373,1,8,0:0:0:0:
88,260,127661,1,0,0:0:0:0:
169,225,127950,6,0,L|259:232,1,80,2|0,0:0|0:0,0:0:0:0:
316,113,128527,1,8,0:1:0:0:
397,78,128815,1,0,0:0:0:0:
316,113,129103,2,0,L|226:105,1,80,2|0,0:0|0:0,0:0:0:0:
154,23,129680,1,8,0:0:0:0:
73,58,129969,1,0,0:0:0:0:
154,23,130257,6,0,B|234:28|234:28|255:69|234:111,1,160,2|8,0:0|0:1,0:0:0:0:
201,187,131122,1,0,0:0:0:0:
123,229,131411,2,0,P|151:261|194:275,1,80,2|0,0:0|0:0,0:0:0:0:
217,272,131844,1,0,0:0:0:0:
248,269,131988,2,0,P|245:310|253:356,1,80,8|0,0:0|0:0,0:0:0:0:
337,363,132565,5,2,0:0:0:0:
337,363,132853,1,0,0:0:0:0:
413,319,133141,1,8,0:1:0:0:
447,237,133430,2,0,P|450:196|442:150,1,80,0|2,1:0|1:0,0:0:0:0:
363,121,134007,2,0,P|360:162|368:208,2,80,0|8|0,0:0|0:0|0:0,0:0:0:0:
349,33,134872,6,0,P|291:67|278:153,1,160,2|8,0:3|0:1,0:0:0:0:
303,238,135737,1,0,0:0:0:0:
216,220,136026,2,0,P|176:223|138:235,1,80,2|0,0:0|0:0,0:0:0:0:
135,204,136458,1,0,0:0:0:0:
129,172,136603,2,0,P|106:139|70:121,1,80,8|0,0:0|0:0,0:0:0:0:
51,207,137180,5,2,0:0:0:0:
129,271,137468,1,0,0:0:0:0:
216,220,137756,1,8,0:1:0:0:
237,330,138045,2,0,L|230:379,2,40,0|0|2,0:0|0:0|0:0,0:0:0:0:
143,370,138622,1,0,0:0:0:0:
319,370,138910,2,0,L|331:285,1,80,8|0,0:0|0:0,0:0:0:0:
418,290,139487,6,0,L|406:369,2,80,2|0|8,0:0|0:0|0:1,0:0:0:0:
375,212,140352,1,0,0:0:0:0:
375,212,140641,1,2,0:0:0:0:
389,125,140929,1,0,0:0:0:0:
375,212,141218,2,0,P|331:214|291:205,1,80,8|0,0:0|0:0,0:0:0:0:
232,268,141794,6,0,P|208:208|228:148,1,120,4|0,0:0|0:0,0:0:0:0:
246,135,142371,1,2,0:0:0:0:
165,100,142660,2,0,P|126:109|86:106,1,80,0|2,0:0|0:1,0:0:0:0:
21,165,143237,2,0,P|17:204|27:243,1,80,0|4,1:0|1:3,0:0:0:0:
349,166,144102,6,0,P|354:119|327:60,1,100,4|0,3:2|0:0,0:0:0:0:
246,135,144679,1,8,0:0:0:0:
273,241,144967,1,0,0:0:0:0:
299,347,145256,2,0,P|340:374|399:378,1,100,2|0,0:0|0:0,0:0:0:0:
377,270,145833,1,8,0:0:0:0:
273,241,146121,1,0,0:0:0:0:
167,209,146409,6,0,P|122:230|90:283,1,100,2|0,0:0|0:0,0:0:0:0:
191,313,146986,1,8,0:0:0:0:
273,241,147275,1,0,0:0:0:0:
349,166,147563,2,0,P|354:119|327:60,2,100,2|0|8,0:1|0:0|0:0,0:0:0:0:
62,166,148717,6,0,P|148:119|246:134,1,200,2|8,0:3|0:0,0:0:0:0:
273,241,149582,1,0,0:0:0:0:
355,367,149871,1,2,0:0:0:0:
381,260,150159,1,0,0:0:0:0:
448,107,150448,2,0,P|473:149|471:198,1,100,8|0,0:0|0:0,0:0:0:0:
363,179,151024,6,0,B|318:114|355:44|355:44|292:58,1,200,2|8,0:0|0:0,0:0:0:0:
221,216,151890,1,0,0:0:0:0:
191,42,152178,1,2,0:1:0:0:
319,165,152467,1,0,0:0:0:0:
143,140,152755,1,8,0:0:0:0:
119,347,153332,6,0,P|214:299|221:213,1,200,2|8,0:3|0:0,0:0:0:0:
143,140,154197,1,0,0:0:0:0:
43,96,154486,2,0,P|45:192|124:248,1,200,2|8,0:0|0:0,0:0:0:0:
222,216,155351,1,0,0:0:0:0:
319,165,155639,6,0,P|219:112|141:143,1,200,2|8,0:0|0:0,0:0:0:0:
124,248,156505,1,0,0:0:0:0:
194,324,156793,2,0,B|219:352|219:352|284:361,2,100,2|0|8,0:1|0:0|3:2,0:0:0:0:
222,216,157658,1,8,3:0:0:0:
319,165,157947,6,0,P|332:217|318:268,1,100,2|0,0:3|0:0,0:0:0:0:
236,113,158524,2,0,P|223:61|237:10,1,100,8|0,0:0|0:0,0:0:0:0:
332,66,159101,1,2,0:0:0:0:
222,216,159389,1,0,0:0:0:0:
407,237,159677,1,8,0:0:0:0:
124,248,160254,6,0,P|102:295|105:349,1,100,2|0,0:0|0:0,0:0:0:0:
206,311,160831,2,0,P|225:264|221:212,1,100,8|0,0:0|0:0,0:0:0:0:
216,128,161408,1,2,0:1:0:0:
216,128,161985,1,8,3:2:0:0:
216,128,162562,6,0,B|216:96|216:96|192:64|136:32|88:80|88:160|112:184|160:184|200:208|256:288|256:288|312:208|352:184|400:184|424:160|424:80|368:32|320:64|296:96|296:96|296:136,1,800,4|4,0:0|0:3,0:0:0:0:
428,235,165158,6,0,L|487:220,3,50,2|0|2|0,0:0|0:0|0:0|0:0,0:0:0:0:
496,257,165734,2,0,P|489:311|453:351,1,100,0|2,1:0|1:0,0:0:0:0:
352,327,166311,1,2,0:0:0:0:
332,218,166600,1,0,1:0:0:0:
430,170,166888,1,0,1:0:0:0:
430,170,167032,1,0,1:0:0:0:
430,170,167177,6,0,P|459:130|464:81,1,100,4|2,1:2|0:0,0:0:0:0:
355,91,167754,2,0,P|305:84|260:105,1,100,8|0,0:0|0:0,0:0:0:0:
325,194,168330,2,0,P|344:239|384:268,1,100,8|2,3:0|0:0,0:0:0:0:
296,335,168907,1,8,0:0:0:0:
296,335,169196,1,0,0:0:0:0:
195,288,169484,6,0,P|148:294|97:308,1,100,2|2,3:0|0:0,0:0:0:0:
19,230,170061,2,0,P|71:221|120:207,1,100,8|0,0:0|0:0,0:0:0:0:
136,99,170638,1,8,3:0:0:0:
219,168,170926,1,2,0:0:0:0:
201,276,171215,1,8,0:0:0:0:
408,346,171792,6,0,B|431:302|415:253|415:253|397:201|428:154,1,200,2|8,3:0|0:0,0:0:0:0:
497,67,172657,1,0,0:0:0:0:
356,93,172945,2,0,P|329:141|318:195,1,100,8|2,3:0|0:0,0:0:0:0:
312,294,173522,1,8,0:0:0:0:
312,294,173811,1,0,0:0:0:0:
219,234,174099,6,0,B|196:190|212:141|212:141|230:89|199:42,1,200,2|8,3:0|0:0,0:0:0:0:
108,105,174964,1,0,0:0:0:0:
108,214,175253,2,0,P|123:268|147:305,1,100,8|2,3:0|0:0,0:0:0:0:
258,325,175830,2,0,P|243:271|219:234,1,100,8|8,0:0|3:0,0:0:0:0:
21,171,176407,5,2,3:0:0:0:
108,105,176695,1,2,0:0:0:0:
205,231,176983,2,0,P|149:229|96:207,1,100,8|0,0:0|0:0,0:0:0:0:
7,59,177560,1,8,3:0:0:0:
108,105,177849,1,2,0:0:0:0:
28,266,178137,2,0,P|12:219|21:170,1,100,8|0,0:0|0:0,0:0:0:0:
111,306,178714,6,0,B|128:334|123:372|123:372|168:321|242:331,1,200,2|8,3:0|0:0,0:0:0:0:
346,367,179579,1,0,0:0:0:0:
405,274,179868,2,0,P|437:242|497:223,2,100,8|0|8,3:0|0:0|0:0,0:0:0:0:
282,93,181021,6,0,P|242:57|190:46,1,100,2|2,3:0|0:0,0:0:0:0:
108,105,181598,2,0,P|148:141|195:149,1,100,8|0,0:0|0:0,0:0:0:0:
313,22,182175,1,8,3:0:0:0:
355,196,182464,1,2,0:0:0:0:
214,304,182752,1,8,0:0:0:0:
214,304,183329,5,2,3:0:0:0:
108,105,183617,1,2,0:0:0:0:
35,268,183906,1,8,0:0:0:0:
253,210,184194,1,0,0:0:0:0:
116,329,184483,2,0,P|76:362|19:369,1,100,8|2,3:0|0:0,0:0:0:0:
32,168,185060,2,0,P|11:119|20:62,1,100,8|8,0:0|3:0,0:0:0:0:
208,121,185636,5,4,0:0:0:0:
208,121,190251,6,0,P|248:88|305:81,1,100,2|2,3:0|0:0,0:0:0:0:
293,189,190828,2,0,P|314:238|308:294,1,100,8|0,0:0|0:0,0:0:0:0:
204,256,191405,1,8,3:0:0:0:
204,256,191694,1,2,0:0:0:0:
119,185,191982,2,0,P|99:136|108:81,1,100,8|0,0:0|0:0,0:0:0:0:
295,80,192559,6,0,P|255:113|198:120,1,100,2|2,3:0|0:0,0:0:0:0:
326,170,193136,2,0,P|374:188|409:234,1,100,8|0,0:0|0:0,0:0:0:0:
386,96,193713,1,8,3:0:0:0:
386,96,194001,1,2,0:0:0:0:
386,96,194289,2,0,P|377:44|399:-8,1,100,8|0,0:0|0:0,0:0:0:0:
326,170,194866,5,2,3:0:0:0:
254,254,195155,1,2,0:0:0:0:
339,324,195443,2,0,P|388:348|444:344,1,100,8|0,0:0|0:0,0:0:0:0:
408,238,196020,1,8,3:0:0:0:
326,170,196308,1,2,0:0:0:0:
254,254,196597,2,0,P|230:303|234:359,1,100,8|0,0:0|0:0,0:0:0:0:
339,324,197174,5,2,3:0:0:0:
408,238,197462,1,2,0:0:0:0:
326,170,197751,2,0,P|277:146|221:150,1,100,8|0,0:0|0:0,0:0:0:0:
254,254,198328,1,8,3:0:0:0:
339,324,198616,1,2,0:0:0:0:
408,238,198904,2,0,P|432:189|428:133,1,100,8|8,0:0|3:0,0:0:0:0:
356,63,199481,5,2,3:0:0:0:
247,41,199770,1,2,0:0:0:0:
64,98,200058,1,8,0:0:0:0:
171,120,200347,1,0,0:0:0:0:
226,214,200635,2,0,P|217:269|188:310,2,100,8|2|8,3:0|0:0|0:0,0:0:0:0:
19,305,201789,5,2,1:3:0:0:
157,207,202366,1,8,0:0:0:0:
104,371,202942,1,2,1:3:0:0:
55,207,203231,1,2,1:3:0:0:
193,305,203519,1,8,0:0:0:0:
384,197,204096,6,0,P|331:186|276:211,1,100,2|8,3:0|3:0,0:0:0:0:
424,273,204673,2,0,P|460:232|465:172,1,100,8|0,0:0|0:0,0:0:0:0:
339,269,205250,2,0,P|355:320|405:355,1,100,8|2,3:0|0:0,0:0:0:0:
384,198,205827,1,8,0:0:0:0:
290,141,206115,1,8,3:0:0:0:
290,141,206259,1,8,3:0:0:0:
290,141,206404,6,0,B|320:87|384:135|344:239|256:271|256:271|168:239|128:135|192:87|227:141,1,480,4|0,3:2|0:0,0:0:0:0:
87,179,208711,6,0,P|39:149|32:87,1,120.000004577637,2|0,0:0|0:0,0:0:0:0:
68,28,209576,1,0,0:0:0:0:
133,58,209865,2,0,P|118:92|92:114,1,60.0000022888184,2|0,0:0|0:0,0:0:0:0:
87,179,210442,2,0,P|145:174|214:183,1,120.000004577637,0|2,0:0|0:0,0:0:0:0:
353,227,211610,6,0,L|337:285,1,60.0000022888184
276,327,212192,2,0,P|247:333|211:332,2,60.0000022888184,2|0|2,0:1|3:0|0:0,0:0:0:0:
207,181,213331,6,0,P|204:140|214:97,1,80,2|0,0:3|0:0,0:0:0:0:
301,68,213907,2,0,P|305:107|291:156,1,80,8|0,0:1|0:0,0:0:0:0:
391,76,214484,2,0,P|425:75|479:102,1,80,2|0,0:0|0:0,0:0:0:0:
488,185,215061,2,0,P|448:186|400:159,1,80,8|0,0:0|0:0,0:0:0:0:
443,276,215638,6,0,L|431:316,6,26.6666666666667,2|0|0|0|0|0|8,0:0|0:0|0:0|0:0|0:0|0:0|0:1,0:0:0:0:
349,299,216504,2,0,L|310:331,2,40,2|0|2,0:0|0:0|0:1,0:0:0:0:
351,200,217081,2,0,L|265:192,1,80,0|8,0:0|0:0,0:0:0:0:
224,277,217658,1,0,0:0:0:0:
166,353,217946,6,0,B|178:282|178:282|137:202,1,160,2|8,0:3|0:1,0:0:0:0:
62,143,218812,1,0,0:0:0:0:
148,99,219100,2,0,L|228:112,1,80,2|0,0:0|0:0,0:0:0:0:
299,46,219677,2,0,L|219:33,1,80,8|0,0:0|0:0,0:0:0:0:
299,124,220254,5,2,0:0:0:0:
367,191,220543,2,0,L|408:180,1,40,0|0,0:0|0:0,0:0:0:0:
367,191,220831,2,0,P|368:233|360:272,1,80,8|0,0:1|0:0,0:0:0:0:
309,351,221408,1,2,0:1:0:0:
213,345,221697,2,0,P|171:347|127:362,2,80,0|8|8,0:0|0:0|3:0,0:0:0:0:
262,262,222562,6,0,P|217:265|176:255,1,80,2|0,0:3|0:0,0:0:0:0:
150,167,223139,2,0,P|192:164|233:174,1,80,8|0,0:1|0:0,0:0:0:0:
318,139,223716,2,0,P|330:98|326:56,1,80,2|0,3:2|0:0,0:0:0:0:
245,10,224293,2,0,P|233:48|238:100,1,80,8|0,0:0|0:0,0:0:0:0:
144,45,224870,6,0,B|111:37,6,26.6666666666667,2|0|0|0|0|0|8,0:3|0:0|0:0|0:0|0:0|0:0|0:1,0:0:0:0:
67,116,225735,2,0,L|18:125,2,40,2|0|2,0:0|0:0|1:0,3:1:0:0:
145,172,226312,2,0,P|149:213|129:256,2,80,0|8|2,0:0|0:0|0:0,0:0:0:0:
52,201,227178,6,0,P|47:287|98:336,1,160,2|8,0:3|0:1,0:0:0:0:
187,365,228043,1,0,0:0:0:0:
258,300,228332,2,0,L|354:315,1,80,2|0,3:2|0:0,0:0:0:0:
404,243,228909,2,0,L|312:229,1,80,8|0,0:0|0:0,0:0:0:0:
368,144,229486,5,2,0:0:0:0:
383,49,229774,2,0,L|408:8,1,40,0|0,0:0|0:0,0:0:0:0:
383,49,230063,2,0,P|345:50|304:71,1,80,8|0,0:1|0:0,0:0:0:0:
368,144,230640,2,0,P|406:143|447:122,2,80,2|0|8,0:1|3:0|0:0,0:0:0:0:
154,149,231805,6,0,P|136:181|136:229,1,80,2|0,0:0|0:0,0:0:0:0:
207,286,232358,2,0,P|225:254|225:206,1,80,0|0,0:0|0:0,0:0:0:0:
292,273,232912,2,0,P|325:298|365:301,1,80,2|0,0:0|0:0,0:0:0:0:
439,237,233498,2,0,P|406:212|356:204,1,88.000002685547
265,178,234112,2,0,P|265:229|292:273,1,103.999995239258,2|0,0:1|0:0,0:0:0:0:
356,125,234912,2,0,P|291:78|209:89,1,160
256,192,236357,12,0,239482,0:0:0:0:
