osu file format v13

[General]
AudioFilename: Firma_-_Reprezentuje_JP.mp3
AudioLeadIn: 0
PreviewTime: -1
Countdown: 0
SampleSet: Normal
StackLeniency: 0.7
Mode: 0
LetterboxInBreaks: 0
WidescreenStoryboard: 1

[Editor]
DistanceSpacing: 1.1
BeatDivisor: 4
GridSize: 32
TimelineZoom: 1.7

[Metadata]
Title:Reprezentuje JP
TitleUnicode:Reprezentuje JP
Artist:Firma
ArtistUnicode:Firma
Creator:Raikozen
Version:REMAP
Source:
Tags:
BeatmapID:613839
BeatmapSetID:252607

[Difficulty]
HPDrainRate:5
CircleSize:4
OverallDifficulty:8
ApproachRate:9.7
SliderMultiplier:1.5
SliderTickRate:1

[Events]
//Background and Video events
0,0,"spacer.jpg",0,0
//Break Periods
2,141849,156710
//Storyboard Layer 0 (Background)
//Storyboard Layer 1 (Fail)
//Storyboard Layer 2 (Pass)
//Storyboard Layer 3 (Foreground)
//Storyboard Sound Samples

[TimingPoints]
1649.91951076749,277.777777777778,4,1,0,53,1,0
3038,-200,4,1,0,18,0,0
3872,-200,4,1,0,54,0,0
4149,-100,4,1,0,53,0,0
5538,-200,4,1,0,60,0,1
5816,-200,4,1,0,18,0,1
6094,-100,4,1,0,53,0,0
7761,-200,4,1,0,60,0,1
8038,-200,4,1,0,18,0,0
8038,-200,4,1,0,18,0,0
8316,-200,4,1,0,100,0,0
8872,-133.333333333333,4,1,0,100,0,0
10538,-200,4,1,0,20,0,0
11094,-100,4,1,0,40,0,0
11649,-66.6666666666667,4,1,0,100,0,0
12899,-100,4,1,0,60,0,0
14983,-200,4,1,0,60,0,0
15538,-133.333333333333,4,1,0,60,0,0
15816,-100,4,1,0,100,0,0
16094,-90.9090909090909,4,1,0,100,0,0
16372,-83.3333333333333,4,1,0,100,0,0
16649,-76.9230769230769,4,1,0,100,0,0
16927,-66.6666666666667,4,1,0,100,0,0
19427,-74.0740740740741,4,1,0,100,0,0
19983,-90.9090909090909,4,1,0,100,0,0
23038,-76.9230769230769,4,1,0,100,0,0
24427,-62.5,4,1,0,100,0,0
25399,-71.4285714285714,4,1,0,100,0,0
26233,-76.9230769230769,4,1,0,100,0,0
31649,-71.4285714285714,4,1,0,100,0,1
32761,-71.4285714285714,4,1,0,100,0,0
35261,-71.4285714285714,4,2,0,100,0,0
48316,-71.4285714285714,4,3,0,100,0,0
49427,-71.4285714285714,4,1,0,100,0,0
52622,-71.4285714285714,4,1,0,100,0,1
70517,-71.4285714285714,4,2,0,100,0,0
71094,-90.9090909090909,4,2,0,100,0,0
88038,-90.9090909090909,4,1,0,100,0,1
106094,-90.9090909090909,4,2,0,100,0,0
157205,-90.9090909090909,4,2,0,100,0,0
159288,-90.9090909090909,4,1,0,100,0,1

[HitObjects]
344,264,1649,5,0,0:0:0:0:
126,267,1927,1,0,0:0:0:0:
138,191,2066,1,0,0:0:0:0:
185,133,2205,1,0,0:0:0:0:
185,133,2483,2,0,P|268:104|345:136,1,150
265,290,3038,1,0,0:0:0:0:
247,40,3316,6,0,P|165:51|161:51,1,75,2|0,0:0|0:0,0:0:0:0:
417,72,3872,5,0,0:0:0:0:
394,158,4011,1,0,0:0:0:0:
366,249,4149,2,0,P|318:317|239:339,1,150
256,57,4705,1,0,0:0:0:0:
303,333,4983,2,0,P|415:342|445:301,1,150
138,173,5538,6,0,P|109:225|107:254,1,75,2|0,0:0|0:0,0:0:0:0:
312,190,6094,6,0,P|347:186|392:155,1,75
233,130,6372,2,0,P|182:113|150:130,1,75
232,236,6649,2,0,P|223:273|248:331,1,75
324,100,6927,2,0,P|397:65|461:124,1,150
435,313,7483,1,0,0:0:0:0:
435,313,7761,6,0,P|370:339|351:333,1,75,2|0,0:0|0:0,0:0:0:0:
204,136,8316,5,0,0:0:0:0:
161,210,8455,1,0,0:0:0:0:
156,64,8594,1,0,0:0:0:0:
296,132,8733,1,0,0:0:0:0:
225,271,8872,2,0,P|293:281|343:238,1,112.500004291535,8|0,0:0|0:0,0:0:0:0:
396,193,9288,5,0,0:0:0:0:
85,230,9566,1,0,0:0:0:0:
255,198,9705,1,0,0:0:0:0:
254,196,9983,2,0,P|253:98|254:41,1,112.500004291535,8|0,0:0|0:0,0:0:0:0:
221,340,10538,6,0,P|210:291|206:282,1,37.5
277,300,10816,2,0,P|295:261|304:254,1,37.5
214,238,11094,6,0,P|201:193|171:166,1,75
281,211,11372,2,0,P|293:172|325:140,1,75
176,195,11649,6,0,P|116:176|57:196,1,112.500004291535
319,93,11927,2,0,P|377:64|446:87,1,112.500004291535
253,309,12205,6,0,P|172:253|152:194,1,112.500004291535
163,21,12483,2,0,P|215:73|232:123,1,112.500004291535
276,321,12761,5,0,0:0:0:0:
276,321,13038,2,0,P|228:331|173:322,1,75
350,269,13316,1,0,0:0:0:0:
194,243,13455,1,0,0:0:0:0:
278,216,13594,2,0,P|264:286|267:320,1,75
176,296,13872,1,0,0:0:0:0:
192,220,14011,2,0,P|105:220|89:226,1,75
159,142,14288,1,0,0:0:0:0:
144,303,14427,1,8,0:0:0:0:
392,100,14705,1,0,0:0:0:0:
283,317,14983,6,0,P|312:295|329:288,1,37.5
211,259,15261,1,0,0:0:0:0:
196,169,15399,1,0,0:0:0:0:
220,92,15538,2,0,P|234:53|259:42,1,56.2500021457673
327,117,15816,6,0,P|364:174|365:202,1,75
281,266,16094,2,0,P|247:210|245:178,1,82.5000025177003
311,151,16372,6,0,P|350:221|354:246,1,89.9999972534181
171,305,16649,2,0,P|151:234|159:175,1,97.4999955368044
203,53,16927,6,0,L|234:178,1,112.500004291535
233,180,17136,1,0,0:0:0:0:
235,197,17205,6,0,P|303:195|346:165,1,112.500004291535
107,141,17483,1,0,0:0:0:0:
318,99,17622,1,0,0:0:0:0:
306,280,17761,2,0,B|223:277|174:302|174:302|148:247|88:228,1,225.000008583069
220,194,18177,1,0,0:0:0:0:
336,198,18316,6,0,B|405:172|448:186|448:186|426:49,1,225.000008583069
406,265,18733,1,0,0:0:0:0:
299,116,18872,2,0,P|249:171|349:282,1,225.000008583069
349,191,19288,1,0,0:0:0:0:
258,322,19427,2,0,B|225:317|174:331|174:331|37:311,1,202.500000772476
203,163,19844,1,0,0:0:0:0:
405,71,19983,6,0,L|443:257,1,165.000005035401
300,289,20399,1,0,0:0:0:0:
282,130,20538,2,0,B|331:86|360:35|360:35|433:40|427:40,1,165.000005035401
325,217,20955,1,0,0:0:0:0:
224,301,21094,2,0,P|316:336|375:311,1,165.000005035401
123,201,21511,1,0,0:0:0:0:
273,247,21649,6,0,P|346:221|381:223,1,82.5000025177003
341,310,21927,1,0,0:0:0:0:
283,146,22066,1,0,0:0:0:0:
130,56,22205,1,0,0:0:0:0:
234,24,22344,2,0,L|209:117,1,82.5000025177003
206,124,22552,1,0,0:0:0:0:
206,124,22622,5,0,0:0:0:0:
134,56,22761,1,0,0:0:0:0:
309,109,22899,1,0,0:0:0:0:
240,257,23038,1,0,0:0:0:0:
431,319,23177,1,0,0:0:0:0:
228,144,23316,2,0,L|243:23,1,97.4999955368044
156,261,23594,2,0,P|226:244|286:258,1,97.4999955368044
406,277,23872,5,0,0:0:0:0:
250,160,24011,1,0,0:0:0:0:
202,301,24149,1,0,0:0:0:0:
65,232,24288,1,0,0:0:0:0:
355,122,24427,2,0,L|329:257,1,120
121,173,24705,2,0,L|149:34,1,120
243,125,24983,6,0,P|324:138|377:107,1,120
42,89,25261,1,0,0:0:0:0:
88,250,25399,1,0,0:0:0:0:
248,175,25538,2,0,P|170:164|105:175,1,104.999996795654
174,347,25816,2,0,P|244:356|288:340,1,104.999996795654
478,239,26094,6,0,P|491:132|391:62,1,209.999993591309,0|0,0:0|0:0,0:0:0:0:
316,203,26511,1,0,0:0:0:0:
175,322,26649,2,0,L|56:339,1,97.4999955368044
100,118,26927,2,0,L|235:99,1,97.4999955368044
394,72,27205,5,0,0:0:0:0:
268,258,27344,1,0,0:0:0:0:
91,183,27483,1,0,0:0:0:0:
252,73,27622,1,0,0:0:0:0:
354,312,27761,2,0,P|361:218|342:191,1,97.4999955368044
202,185,28038,2,0,P|171:231|173:282,1,97.4999955368044
325,245,28316,5,0,0:0:0:0:
478,127,28455,1,0,0:0:0:0:
200,334,28594,2,0,L|140:229,1,97.4999955368044
278,135,28872,2,0,P|349:112|448:213,1,194.999991073609
279,288,29288,1,0,0:0:0:0:
86,173,29427,5,0,0:0:0:0:
363,148,29566,1,0,0:0:0:0:
272,256,29705,1,0,0:0:0:0:
297,33,29843,1,0,0:0:0:0:
390,333,29983,2,0,L|499:329,1,97.4999955368044
399,76,30261,2,0,L|255:83,1,97.4999955368044
269,338,30538,5,0,0:0:0:0:
335,153,30677,1,0,0:0:0:0:
378,351,30816,1,0,0:0:0:0:
226,233,30955,1,0,0:0:0:0:
406,249,31094,2,0,P|483:218|497:173,1,104.999996795654
243,303,31372,2,0,P|192:313|159:352,1,104.999996795654
105,157,31649,5,0,0:0:0:0:
158,274,31788,1,0,0:0:0:0:
247,99,31927,1,0,0:0:0:0:
246,338,32066,1,0,0:0:0:0:
395,179,32205,2,0,P|431:246|406:303,1,104.999996795654
110,336,32483,2,0,P|72:282|86:204,1,104.999996795654
240,249,32761,5,0,0:0:0:0:
432,303,32899,1,0,0:0:0:0:
330,322,33038,2,0,L|358:196,1,104.999996795654
182,58,33316,5,0,0:0:0:0:
295,155,33455,1,0,0:0:0:0:
347,23,33594,1,0,0:0:0:0:
481,124,33733,1,0,0:0:0:0:
331,273,33872,1,0,0:0:0:0:
97,165,34011,1,0,0:0:0:0:
481,218,34149,1,0,0:0:0:0:
151,350,34288,1,0,0:0:0:0:
204,29,34427,2,0,P|275:5|337:120,1,209.999993591309
342,101,34983,5,0,0:0:0:0:
138,335,35261,1,0,0:0:0:0:
234,324,35399,1,0,0:0:0:0:
172,253,35538,1,0,0:0:0:0:
228,169,35677,1,0,0:0:0:0:
303,271,35816,1,0,0:0:0:0:
172,317,35955,1,0,0:0:0:0:
104,217,36094,6,0,P|27:193|-7:171,1,104.999996795654
172,29,36372,2,0,P|245:64|271:96,1,104.999996795654
96,240,36649,2,0,P|45:219|-6:177,1,104.999996795654
178,24,36927,2,0,P|245:49|269:89,1,104.999996795654
300,339,37205,6,0,P|305:276|289:206,1,104.999996795654
205,288,37483,5,0,0:0:0:0:
386,284,37622,1,0,0:0:0:0:
210,184,37761,1,0,0:0:0:0:
125,346,37899,1,0,0:0:0:0:
301,342,38038,1,0,0:0:0:0:
210,184,38177,1,0,0:0:0:0:
193,292,38316,6,0,P|123:313|72:305,1,104.999996795654
279,278,38594,5,0,0:0:0:0:
434,278,38733,1,0,0:0:0:0:
281,188,38872,1,0,0:0:0:0:
209,333,39011,1,0,0:0:0:0:
357,328,39149,1,0,0:0:0:0:
139,252,39288,1,0,0:0:0:0:
433,330,39427,6,0,P|500:317|507:279,1,104.999996795654,0|0,0:0|0:0,0:0:0:0:
320,316,39705,1,0,0:0:0:0:
202,269,39844,1,0,0:0:0:0:
373,196,39983,1,0,0:0:0:0:
245,155,40122,1,0,0:0:0:0:
204,269,40261,1,0,0:0:0:0:
375,188,40399,1,0,0:0:0:0:
324,322,40538,6,0,P|385:335|430:299,1,104.999996795654
281,200,40816,5,0,0:0:0:0:
194,308,40955,1,0,0:0:0:0:
378,251,41094,1,0,0:0:0:0:
457,133,41233,1,0,0:0:0:0:
310,326,41372,1,0,0:0:0:0:
197,62,41511,1,0,0:0:0:0:
170,292,41649,6,0,P|119:309|60:279,1,104.999996795654
193,107,41927,1,0,0:0:0:0:
369,181,42066,1,0,0:0:0:0:
270,54,42205,1,0,0:0:0:0:
290,235,42344,1,0,0:0:0:0:
350,71,42483,1,0,0:0:0:0:
218,193,42622,1,0,0:0:0:0:
370,142,42761,2,0,P|429:137|485:174,1,104.999996795654
196,110,43038,5,0,0:0:0:0:
177,258,43177,1,0,0:0:0:0:
321,197,43316,1,0,0:0:0:0:
121,79,43455,5,0,0:0:0:0:
163,342,43594,1,0,0:0:0:0:
437,209,43733,1,0,0:0:0:0:
159,21,43872,6,0,P|103:49|74:100,1,104.999996795654
84,220,44149,1,0,0:0:0:0:
208,268,44288,1,0,0:0:0:0:
294,154,44427,1,0,0:0:0:0:
352,287,44566,1,0,0:0:0:0:
441,160,44705,1,0,0:0:0:0:
265,238,44844,1,0,0:0:0:0:
419,347,44983,6,0,P|482:317|495:265,1,104.999996795654
388,225,45261,1,0,0:0:0:0:
304,228,45399,1,0,0:0:0:0:
388,225,45538,1,0,0:0:0:0:
215,224,45677,1,0,0:0:0:0:
388,225,45816,1,0,0:0:0:0:
130,213,45955,1,0,0:0:0:0:
388,225,46094,6,0,P|416:171|403:122,1,104.999996795654
367,38,46372,1,0,0:0:0:0:
129,94,46511,1,0,0:0:0:0:
367,38,46649,1,0,0:0:0:0:
129,94,46788,1,0,0:0:0:0:
367,38,46927,1,0,0:0:0:0:
129,94,47066,1,0,0:0:0:0:
367,38,47205,1,0,0:0:0:0:
129,94,47344,1,0,0:0:0:0:
366,69,47483,5,0,0:0:0:0:
102,163,47622,1,0,0:0:0:0:
364,97,47761,1,0,0:0:0:0:
90,237,47899,1,0,0:0:0:0:
361,143,48038,1,0,0:0:0:0:
78,316,48177,1,0,0:0:0:0:
250,31,48316,6,0,B|226:86|249:123|249:123|187:98|119:141|168:223,1,262.499991989136
174,250,48733,2,0,B|230:297|270:222|270:222|316:281|332:200|332:200|392:244,1,262.499991989136
390,221,49149,2,0,B|407:142|372:117|372:117|436:138,1,157.499995193482
221,69,49427,6,0,P|165:115|155:164,1,104.999996795654
301,139,49705,2,0,P|345:182|356:262,1,104.999996795654
219,200,49983,2,0,P|177:230|153:293,1,104.999996795654
482,322,50538,5,0,0:0:0:0:
477,238,50677,1,0,0:0:0:0:
438,163,50816,1,0,0:0:0:0:
370,113,50955,1,0,0:0:0:0:
290,84,51094,1,0,0:0:0:0:
205,86,51233,2,0,P|136:102|116:131,1,104.999996795654
198,185,51511,1,0,0:0:0:0:
125,22,51649,6,0,P|52:58|177:286,1,419.999987182618
392,86,52622,1,0,0:0:0:0:
442,153,52761,1,0,0:0:0:0:
439,236,52899,1,0,0:0:0:0:
393,306,53038,1,0,0:0:0:0:
315,337,53177,1,0,0:0:0:0:
230,335,53316,2,0,P|173:301|198:147,1,209.999993591309
21,204,53733,5,0,0:0:0:0:
44,329,53872,1,0,0:0:0:0:
137,234,54011,1,0,0:0:0:0:
150,352,54149,1,0,0:0:0:0:
252,233,54288,1,0,0:0:0:0:
287,356,54427,2,0,P|360:293|322:190,1,209.999993591309
164,47,54844,5,0,0:0:0:0:
317,59,54983,1,0,0:0:0:0:
180,121,55122,1,0,0:0:0:0:
49,159,55261,1,0,0:0:0:0:
195,187,55399,1,0,0:0:0:0:
325,184,55538,2,0,P|404:196|386:67,1,209.999993591309
368,122,55955,5,0,0:0:0:0:
387,293,56094,1,0,0:0:0:0:
230,297,56233,1,0,0:0:0:0:
210,138,56372,1,0,0:0:0:0:
368,122,56511,1,0,0:0:0:0:
387,293,56649,2,0,P|301:326|184:264,1,209.999993591309
263,58,57205,5,0,0:0:0:0:
263,58,57483,1,0,0:0:0:0:
368,120,57622,1,0,0:0:0:0:
488,175,57761,1,0,0:0:0:0:
488,175,58038,1,0,0:0:0:0:
406,120,58177,6,0,P|398:178|416:237,1,104.999996795654
443,300,58455,1,0,0:0:0:0:
308,84,58594,1,0,0:0:0:0:
374,337,58733,1,0,0:0:0:0:
212,14,58872,1,0,0:0:0:0:
313,380,59149,1,0,0:0:0:0:
218,200,59427,5,0,0:0:0:0:
279,175,59705,1,0,0:0:0:0:
232,147,59983,1,0,0:0:0:0:
261,213,60261,1,0,0:0:0:0:
28,33,60538,5,0,0:0:0:0:
494,353,60816,1,0,0:0:0:0:
498,24,61094,5,0,0:0:0:0:
24,364,61372,1,0,0:0:0:0:
257,191,61511,5,0,0:0:0:0:
498,24,61649,2,0,P|503:97|476:135,1,104.999996795654
354,211,61927,2,0,P|345:131|374:97,1,104.999996795654
425,164,62205,1,0,0:0:0:0:
79,166,62483,1,0,0:0:0:0:
167,167,62622,5,0,0:0:0:0:
0,168,62761,2,0,P|23:227|76:242,1,104.999996795654
229,114,63038,2,0,P|176:84|106:95,1,104.999996795654
226,255,63316,2,0,P|325:262|417:167,1,209.999993591309
430,102,63733,1,0,0:0:0:0:
429,20,63872,6,0,P|371:36|346:89,1,104.999996795654
448,202,64149,2,0,P|488:163|508:82,1,104.999996795654
228,288,64427,2,0,P|274:325|439:300,1,209.999993591309
461,246,64844,1,0,0:0:0:0:
466,162,64983,6,0,P|393:159|356:182,1,104.999996795654
458,9,65261,2,0,L|470:128,1,104.999996795654
461,316,65538,2,0,P|395:334|250:275,1,209.999993591309
257,194,66094,5,0,0:0:0:0:
257,194,66372,1,0,0:0:0:0:
258,108,66511,1,0,0:0:0:0:
259,279,66649,1,0,0:0:0:0:
259,279,66927,1,0,0:0:0:0:
260,129,67066,1,0,0:0:0:0:
237,10,67205,6,0,P|184:29|136:91,1,104.999996795654
268,7,67483,2,0,P|319:22|359:72,1,104.999996795654
259,371,67760,2,0,L|260:147,1,209.999993591309
270,104,68316,6,0,P|212:108|173:149,1,104.999996795654
234,271,68594,2,0,P|293:257|325:198,1,104.999996795654
168,178,68872,2,0,P|172:236|213:275,1,104.999996795654
335,214,69150,2,0,P|321:155|262:123,1,104.999996795654
274,77,69427,6,0,P|198:82|148:136,1,104.999996795654
227,294,69705,2,0,P|304:276|334:222,1,104.999996795654
141,173,69983,2,0,P|146:249|200:299,1,104.999996795654
358,220,70261,2,0,P|340:143|289:110,1,104.999996795654
244,195,70538,5,0,0:0:0:0:
176,132,70816,1,0,0:0:0:0:
318,258,70955,1,0,0:0:0:0:
169,123,71094,2,0,P|196:77|315:66,1,165.000005035401
388,92,71511,1,0,0:0:0:0:
388,92,71788,1,0,0:0:0:0:
445,215,71927,1,0,0:0:0:0:
318,195,72066,1,0,0:0:0:0:
388,92,72205,2,0,P|326:76|236:132,1,165.000005035401
254,326,72761,5,0,0:0:0:0:
342,309,72899,1,0,0:0:0:0:
403,241,73038,1,0,0:0:0:0:
414,150,73177,1,0,0:0:0:0:
369,70,73316,1,0,0:0:0:0:
286,31,73455,6,0,P|219:27|146:128,1,165.000005035401
132,180,73872,2,0,P|211:173|234:84,1,165.000005035401
178,33,74288,5,0,0:0:0:0:
87,28,74427,1,0,0:0:0:0:
44,108,74566,2,0,P|37:149|46:210,1,82.5000025177003
79,272,74844,1,0,0:0:0:0:
150,327,74983,1,0,0:0:0:0:
72,158,75399,2,0,P|63:209|72:251,1,82.5000025177003
148,338,75676,1,0,0:0:0:0:
148,341,75816,1,0,0:0:0:0:
265,342,75955,1,0,0:0:0:0:
265,342,76094,6,0,P|314:340|363:302,1,82.5000025177003
214,264,76372,2,0,P|162:273|135:307,1,82.5000025177003
304,264,76650,1,0,0:0:0:0:
394,257,76789,1,0,0:0:0:0:
452,188,76927,6,0,P|474:138|438:89,1,82.5000025177003
368,142,77206,1,0,0:0:0:0:
373,232,77344,1,0,0:0:0:0:
376,322,77483,1,0,0:0:0:0:
361,50,77622,1,0,0:0:0:0:
376,322,77761,6,0,P|316:342|221:278,1,165.000005035401
187,216,78177,1,0,0:0:0:0:
196,125,78316,2,0,P|236:112|295:147,1,82.5000025177003
246,302,78594,2,0,L|243:198,1,82.5000025177003
182,353,78872,2,0,P|257:369|263:364,1,82.5000025177003
287,120,79149,2,0,P|230:111|191:129,1,82.5000025177003
126,184,79427,5,0,0:0:0:0:
430,68,79705,1,0,0:0:0:0:
446,173,79844,1,0,0:0:0:0:
408,284,79983,2,0,P|378:320|325:328,1,82.5000025177003
336,167,80261,2,0,P|374:118|401:121,1,82.5000025177003
416,201,80538,6,0,P|381:257|280:237,1,165.000005035401
337,177,80955,1,0,0:0:0:0:
266,337,81094,2,0,P|222:296|209:252,1,82.5000025177003
339,88,81372,2,0,P|394:118|408:145,1,82.5000025177003
419,222,81649,5,0,0:0:0:0:
364,294,81788,1,0,0:0:0:0:
273,288,81927,1,0,0:0:0:0:
198,235,82066,1,0,0:0:0:0:
184,145,82205,1,0,0:0:0:0:
250,82,82344,1,0,0:0:0:0:
331,121,82483,1,0,0:0:0:0:
289,201,82622,1,0,0:0:0:0:
198,201,82761,6,0,P|141:184|118:157,1,82.5000025177003
204,123,83038,2,0,P|257:136|278:174,1,82.5000025177003
140,251,83316,2,0,P|121:215|133:151,1,82.5000025177003
268,164,83594,2,0,P|235:193|182:198,1,82.5000025177003
205,120,83872,6,0,P|246:91|345:152,1,165.000005035401
348,224,84288,1,0,0:0:0:0:
259,199,84427,2,0,L|297:27,2,165.000005035401,0|0|0,0:0|0:0|0:0,0:0:0:0:
236,287,85122,5,0,0:0:0:0:
322,313,85261,1,0,0:0:0:0:
348,224,85399,1,0,0:0:0:0:
260,198,85538,2,0,P|229:167|230:102,1,82.5000025177003
313,130,85816,2,0,P|356:147|374:197,1,82.5000025177003
362,268,86094,6,0,P|296:280|231:191,1,165.000005035401
321,191,86511,1,0,0:0:0:0:
219,328,86649,2,0,P|181:284|179:245,1,82.5000025177003
193,171,86927,5,0,0:0:0:0:
265,73,87066,1,0,0:0:0:0:
327,184,87205,1,0,0:0:0:0:
452,109,87344,1,0,0:0:0:0:
430,255,87483,1,0,0:0:0:0:
267,228,87622,1,0,0:0:0:0:
304,357,87761,1,0,0:0:0:0:
176,338,87899,1,0,0:0:0:0:
157,213,88038,6,0,P|127:164|93:143,1,82.5000025177003
293,218,88316,5,0,0:0:0:0:
192,173,88455,1,0,0:0:0:0:
279,117,88594,1,0,0:0:0:0:
338,291,88733,1,0,0:0:0:0:
190,80,88872,2,0,P|222:46|348:79,1,165.000005035401,0|0,0:0|0:0,0:0:0:0:
374,136,89288,5,0,0:0:0:0:
357,225,89427,1,0,0:0:0:0:
447,249,89566,1,0,0:0:0:0:
274,203,89705,1,0,0:0:0:0:
302,115,89844,1,0,0:0:0:0:
251,298,89983,2,0,P|207:278|192:167,1,165.000005035401
217,89,90399,5,0,0:0:0:0:
302,115,90538,1,0,0:0:0:0:
134,63,90677,1,0,0:0:0:0:
384,139,90816,1,0,0:0:0:0:
56,28,90955,1,0,0:0:0:0:
467,165,91094,2,0,P|452:207|339:269,1,165.000005035401
465,162,91511,5,0,0:0:0:0:
58,28,91650,1,0,0:0:0:0:
385,140,91789,1,0,0:0:0:0:
134,63,91928,1,0,0:0:0:0:
302,116,92067,1,0,0:0:0:0:
221,95,92205,2,0,P|191:173|215:262,1,165.000005035401
424,130,92761,6,0,P|383:175|265:158,1,165.000005035401
332,86,93177,1,0,0:0:0:0:
363,198,93316,2,0,L|406:358,1,165.000005035401
307,330,93733,5,0,0:0:0:0:
160,220,93872,1,0,0:0:0:0:
318,159,94011,1,0,0:0:0:0:
196,320,94149,2,0,P|162:346|102:349,1,82.5000025177003
265,247,94427,2,0,P|334:225|428:253,1,165.000005035401
434,92,94983,6,0,P|342:120|323:118,1,82.5000025177003
221,148,95261,2,0,P|271:164|305:158,1,82.5000025177003
461,176,95538,2,0,P|418:195|374:192,1,82.5000025177003
208,235,95816,2,0,P|257:240|288:220,1,82.5000025177003
217,20,96094,6,0,P|219:64|228:109,1,82.5000025177003
245,357,96372,2,0,P|258:307|256:253,1,82.5000025177003
286,13,96649,2,0,P|303:61|305:122,1,82.5000025177003
325,361,96927,2,0,P|335:320|330:257,1,82.5000025177003
315,157,97205,5,0,0:0:0:0:
236,224,97344,1,0,0:0:0:0:
325,78,97483,1,0,0:0:0:0:
300,284,97622,1,0,0:0:0:0:
260,18,97761,5,0,0:0:0:0:
268,364,98038,1,0,0:0:0:0:
268,364,98177,5,0,0:0:0:0:
268,364,98316,1,0,0:0:0:0:
347,319,98455,1,0,0:0:0:0:
179,322,98594,1,0,0:0:0:0:
390,287,98733,1,0,0:0:0:0:
149,293,98872,1,0,0:0:0:0:
261,34,99149,1,0,0:0:0:0:
262,288,99288,1,0,0:0:0:0:
308,218,99427,6,0,P|263:211|212:233,1,82.5000025177003
386,248,99705,1,0,0:0:0:0:
476,237,99844,1,0,0:0:0:0:
483,158,99983,2,0,P|487:106|375:38,1,165.000005035401
403,118,100399,5,0,0:0:0:0:
212,170,100538,1,0,0:0:0:0:
388,145,100677,1,0,0:0:0:0:
92,197,100816,1,0,0:0:0:0:
383,174,100955,1,0,0:0:0:0:
4,258,101094,2,0,P|50:314|146:298,1,165.000005035401
297,162,101649,6,0,L|340:342,1,165.000005035401
165,84,102066,1,0,0:0:0:0:
311,167,102205,2,0,L|356:357,1,165.000005035401
424,228,102622,5,0,0:0:0:0:
238,258,102761,1,0,0:0:0:0:
375,154,102899,1,0,0:0:0:0:
294,335,103038,1,0,0:0:0:0:
287,161,103177,1,0,0:0:0:0:
389,329,103316,1,0,0:0:0:0:
322,37,103594,1,0,0:0:0:0:
74,304,103872,6,0,P|144:316|188:311,1,82.5000025177003
281,269,104149,2,0,P|241:249|191:249,1,82.5000025177003
61,198,104427,2,0,P|106:186|164:193,1,82.5000025177003
328,158,104705,2,0,P|272:138|212:140,1,82.5000025177003
41,103,104983,5,0,0:0:0:0:
483,137,105261,1,0,0:0:0:0:
40,233,105538,1,0,0:0:0:0:
485,271,105816,1,0,0:0:0:0:
50,334,106094,6,0,P|116:337|152:316,1,82.5000025177003
472,181,106649,2,0,P|425:169|383:190,1,82.5000025177003
320,244,106927,1,0,0:0:0:0:
412,268,107066,2,0,L|392:101,1,165.000005035401
296,183,107483,1,0,0:0:0:0:
500,159,107622,1,0,0:0:0:0:
277,186,107761,2,0,P|207:237|210:251,1,82.5000025177003
381,197,108038,2,0,L|472:158,1,82.5000025177003
310,251,108316,5,0,0:0:0:0:
231,297,108455,1,0,0:0:0:0:
143,271,108594,1,0,0:0:0:0:
94,194,108733,1,0,0:0:0:0:
100,103,108872,2,0,P|142:65|187:67,1,82.5000025177003
248,62,109149,5,0,0:0:0:0:
287,75,109219,1,0,0:0:0:0:
311,107,109288,1,0,0:0:0:0:
323,146,109358,1,0,0:0:0:0:
319,186,109427,1,0,0:0:0:0:
283,260,109566,5,0,0:0:0:0:
207,293,109705,1,0,0:0:0:0:
216,210,109844,1,0,0:0:0:0:
281,260,109983,1,0,0:0:0:0:
354,298,110122,1,0,0:0:0:0:
355,215,110261,1,0,0:0:0:0:
283,260,110399,1,0,0:0:0:0:
283,260,110538,6,0,L|288:80,1,165.000005035401
285,11,110955,1,0,0:0:0:0:
218,166,111094,2,0,P|297:192|377:137,1,165.000005035401
365,155,111788,5,0,0:0:0:0:
365,155,111927,1,0,0:0:0:0:
365,155,112205,2,0,P|293:192|218:166,1,165.000005035401
350,333,112761,6,0,P|399:315|439:204,1,165.000005035401
243,210,113177,1,0,0:0:0:0:
26,222,113316,2,0,P|56:288|153:312,2,165.000005035401,0|0|0,0:0|0:0|0:0,0:0:0:0:
36,122,114011,1,0,0:0:0:0:
117,66,114149,1,0,0:0:0:0:
214,84,114288,1,0,0:0:0:0:
271,164,114427,2,0,P|279:216|266:267,1,82.5000025177003
182,205,114705,2,0,P|163:152|180:111,1,82.5000025177003
205,35,114983,5,0,0:0:0:0:
205,35,115261,1,0,0:0:0:0:
324,147,115399,1,0,0:0:0:0:
165,193,115538,1,0,0:0:0:0:
165,193,115816,1,0,0:0:0:0:
165,193,116094,6,0,P|163:274|180:282,1,82.5000025177003
291,359,116372,2,0,P|325:293|321:268,1,82.5000025177003
304,123,116649,2,0,P|253:162|226:197,1,82.5000025177003
384,91,116927,2,0,P|441:66|459:39,1,82.5000025177003
305,116,117205,5,0,0:0:0:0:
218,164,117344,1,0,0:0:0:0:
188,258,117483,1,0,0:0:0:0:
262,322,117622,1,0,0:0:0:0:
360,333,117761,2,0,P|418:319|416:207,2,165.000005035401,0|0|0,0:0|0:0|0:0,0:0:0:0:
154,250,118594,6,0,L|197:164,1,82.5000025177003
228,87,118872,1,0,0:0:0:0:
198,265,119011,1,0,0:0:0:0:
236,86,119149,1,0,0:0:0:0:
241,275,119288,1,0,0:0:0:0:
247,78,119427,6,0,P|297:64|344:87,1,82.5000025177003
411,107,119705,1,0,0:0:0:0:
296,159,119844,1,0,0:0:0:0:
323,20,119983,2,0,L|373:207,1,165.000005035401
376,269,120399,1,0,0:0:0:0:
319,339,120538,1,0,0:0:0:0:
228,337,120677,2,0,P|164:313|144:288,1,82.5000025177003
251,180,120955,2,0,L|212:268,1,82.5000025177003
286,96,121233,1,0,0:0:0:0:
286,96,121649,5,0,0:0:0:0:
370,128,121788,1,0,0:0:0:0:
403,212,121927,1,0,0:0:0:0:
375,298,122066,1,0,0:0:0:0:
287,321,122205,1,0,0:0:0:0:
207,276,122344,1,0,0:0:0:0:
187,187,122483,1,0,0:0:0:0:
219,102,122622,1,0,0:0:0:0:
295,53,122761,6,0,P|365:45|395:61,1,82.5000025177003
296,245,123038,2,0,P|218:236|192:210,1,82.5000025177003
132,200,123316,1,0,0:0:0:0:
145,110,123455,1,0,0:0:0:0:
214,51,123594,1,0,0:0:0:0:
258,42,123663,1,0,0:0:0:0:
302,52,123733,1,0,0:0:0:0:
336,80,123802,1,0,0:0:0:0:
359,118,123872,6,0,P|388:189|379:224,1,82.5000025177003
361,279,124149,1,0,0:0:0:0:
275,309,124288,1,0,0:0:0:0:
187,284,124427,2,0,P|132:256|120:224,1,82.5000025177003
361,279,124705,2,0,P|419:265|437:235,1,82.5000025177003
450,159,124983,1,0,0:0:0:0:
389,91,125122,1,0,0:0:0:0:
298,80,125261,1,0,0:0:0:0:
214,114,125399,1,0,0:0:0:0:
164,190,125538,1,0,0:0:0:0:
212,36,125677,1,0,0:0:0:0:
225,260,125816,1,0,0:0:0:0:
154,107,125955,1,0,0:0:0:0:
229,341,126094,6,0,P|294:338|314:303,1,82.5000025177003
340,302,126302,1,0,0:0:0:0:
360,260,126372,1,0,0:0:0:0:
370,169,126511,1,0,0:0:0:0:
335,85,126649,2,0,P|277:37|245:38,1,82.5000025177003
253,125,126927,1,0,0:0:0:0:
397,15,127066,1,0,0:0:0:0:
396,144,127205,2,0,P|390:206|400:249,1,82.5000025177003
189,159,127483,2,0,P|216:120|202:66,1,82.5000025177003
303,149,127761,5,0,0:0:0:0:
113,109,127899,1,0,0:0:0:0:
303,149,128038,5,0,0:0:0:0:
113,109,128177,1,0,0:0:0:0:
303,149,128316,6,0,P|317:193|306:258,1,82.5000025177003
424,146,128594,6,0,P|436:195|435:244,1,82.5000025177003,0|0,0:0|0:0,0:0:0:0:
301,160,128872,6,0,P|307:234|299:260,1,82.5000025177003
426,158,129149,6,0,P|429:216|422:253,1,82.5000025177003,0|0,0:0|0:0,0:0:0:0:
246,331,129427,5,0,0:0:0:0:
159,304,129566,1,0,0:0:0:0:
193,219,129705,1,0,0:0:0:0:
277,252,129844,1,0,0:0:0:0:
246,331,129983,5,0,0:0:0:0:
193,219,130122,1,0,0:0:0:0:
314,177,130261,1,0,0:0:0:0:
366,295,130399,1,0,0:0:0:0:
254,326,130538,6,0,P|314:263|272:199,1,165.000005035401
171,244,130955,1,0,0:0:0:0:
465,253,131094,2,0,P|406:306|367:304,1,82.5000025177003
170,312,131372,2,0,P|236:292|286:300,1,82.5000025177003
339,290,131649,2,0,P|383:259|385:205,1,82.5000025177003
373,150,131927,1,0,0:0:0:0:
307,86,132066,1,0,0:0:0:0:
216,80,132205,2,0,P|105:118|97:176,2,165.000005035401,0|0|0,0:0|0:0|0:0,0:0:0:0:
299,115,132899,5,0,0:0:0:0:
331,199,133038,1,0,0:0:0:0:
289,279,133177,1,0,0:0:0:0:
202,306,133316,2,0,P|147:291|121:254,1,82.5000025177003
199,213,133594,2,0,P|252:228|274:264,1,82.5000025177003
111,220,133872,6,0,P|37:204|18:178,1,82.5000025177003
297,206,134149,2,0,P|339:213|379:244,1,82.5000025177003
319,280,134427,1,0,0:0:0:0:
376,153,134566,1,0,0:0:0:0:
398,332,134705,1,0,0:0:0:0:
371,73,134844,1,0,0:0:0:0:
245,291,134983,6,0,P|258:238|294:200,1,82.5000025177003
116,89,135261,1,0,0:0:0:0:
124,133,135330,1,0,0:0:0:0:
130,177,135399,1,0,0:0:0:0:
137,222,135469,1,0,0:0:0:0:
141,266,135538,2,0,L|156:361,1,82.5000025177003
281,158,135816,2,0,L|299:252,1,82.5000025177003
387,314,136094,2,0,P|444:290|454:259,1,82.5000025177003
175,318,136372,2,0,P|126:313|103:268,1,82.5000025177003
266,325,136649,5,0,0:0:0:0:
262,239,136788,1,0,0:0:0:0:
260,150,136927,1,0,0:0:0:0:
258,62,137066,1,0,0:0:0:0:
266,325,137205,6,0,P|332:335|347:318,1,82.5000025177003
404,265,137483,1,0,0:0:0:0:
403,174,137622,1,0,0:0:0:0:
329,120,137761,2,0,P|255:120|238:139,1,82.5000025177003
266,325,138038,2,0,P|319:342|356:319,1,82.5000025177003
328,117,138316,2,0,L|308:291,1,165.000005035401
346,15,138733,1,0,0:0:0:0:
326,120,138872,2,0,L|312:228,1,82.5000025177003
295,360,139149,2,0,L|308:261,1,82.5000025177003
326,122,139427,5,0,0:0:0:0:
274,47,139566,1,0,0:0:0:0:
184,32,139705,1,0,0:0:0:0:
113,89,139844,1,0,0:0:0:0:
99,178,139983,1,0,0:0:0:0:
157,247,140122,1,0,0:0:0:0:
241,279,140261,5,0,0:0:0:0:
283,294,140330,1,0,0:0:0:0:
328,293,140399,1,0,0:0:0:0:
371,277,140469,1,0,0:0:0:0:
405,248,140538,2,0,P|436:217|439:119,1,123.75000377655
425,100,140816,2,0,L|320:126,1,82.5000025177003
254,132,141094,5,0,0:0:0:0:
430,107,141233,1,0,0:0:0:0:
149,131,141372,1,0,0:0:0:0:
496,111,141511,1,0,0:0:0:0:
43,127,141649,5,0,0:0:0:0:
256,192,157205,12,0,158872,0:0:0:0:
256,193,159288,5,0,0:0:0:0:
303,117,159427,2,0,P|332:162|333:214,1,82.5000025177003
201,258,159705,2,0,P|160:184|157:157,1,82.5000025177003
296,272,159983,1,0,0:0:0:0:
207,110,160261,1,0,0:0:0:0:
256,193,160399,5,0,0:0:0:0:
401,75,160538,2,0,P|432:112|439:157,1,82.5000025177003
111,309,160816,2,0,P|80:272|73:227,1,82.5000025177003
432,368,161094,1,0,0:0:0:0:
91,3,161372,1,0,0:0:0:0:
276,180,161511,5,0,0:0:0:0:
257,98,161649,1,0,0:0:0:0:
293,286,161788,1,0,0:0:0:0:
346,87,161927,1,0,0:0:0:0:
165,111,162066,1,0,0:0:0:0:
275,180,162205,2,0,P|356:198|406:275,1,165.000005035401
311,262,162622,5,0,0:0:0:0:
494,285,162760,1,0,0:0:0:0:
397,97,162899,1,0,0:0:0:0:
302,285,163038,1,0,0:0:0:0:
494,260,163177,1,0,0:0:0:0:
374,94,163316,2,0,P|303:101|242:175,1,165.000005035401
350,177,163872,5,0,0:0:0:0:
338,203,164149,1,0,0:0:0:0:
83,160,164288,1,0,0:0:0:0:
325,223,164427,1,0,0:0:0:0:
310,242,164705,1,0,0:0:0:0:
299,262,164844,5,0,0:0:0:0:
287,284,164983,2,0,P|249:302|197:291,1,82.5000025177003
237,218,165261,2,0,P|286:191|325:205,1,82.5000025177003
400,233,165538,1,0,0:0:0:0:
135,249,165816,1,0,0:0:0:0:
241,111,166094,6,0,L|225:13,1,82.5000025177003
188,206,166372,2,0,L|94:235,1,82.5000025177003
278,276,166649,2,0,L|305:367,1,82.5000025177003
322,170,166927,2,0,L|417:136,1,82.5000025177003
132,116,167205,6,0,L|45:69,1,82.5000025177003
165,318,167483,2,0,L|106:382,1,82.5000025177003
401,298,167761,2,0,L|479:380,1,82.5000025177003
356,87,168038,2,0,L|419:20,1,82.5000025177003
302,188,168316,5,0,0:0:0:0:
414,184,168455,1,0,0:0:0:0:
178,190,168594,1,0,0:0:0:0:
177,83,168733,1,0,0:0:0:0:
193,307,168872,2,0,P|237:302|271:273,1,82.5000025177003
158,32,169149,2,0,P|103:60|81:90,1,82.5000025177003
67,166,169427,5,0,0:0:0:0:
204,166,169566,1,0,0:0:0:0:
145,88,169705,1,0,0:0:0:0:
270,240,169844,1,0,0:0:0:0:
77,20,169983,2,0,P|51:59|52:108,1,82.5000025177003
324,313,170261,2,0,P|364:276|368:238,1,82.5000025177003
374,159,170538,5,0,0:0:0:0:
256,53,170677,1,0,0:0:0:0:
136,100,170816,1,0,0:0:0:0:
260,316,170955,1,0,0:0:0:0:
430,90,171094,2,0,P|459:149|450:193,1,82.5000025177003
214,89,171372,2,0,P|166:119|159:171,1,82.5000025177003
162,239,171649,5,0,0:0:0:0:
293,225,171788,1,0,0:0:0:0:
350,120,171927,1,0,0:0:0:0:
177,25,172066,1,0,0:0:0:0:
159,234,172205,2,0,P|160:300|184:329,1,82.5000025177003
123,18,172483,2,0,P|183:-1|237:12,1,82.5000025177003
477,353,172761,5,0,0:0:0:0:
477,353,173038,1,0,0:0:0:0:
254,21,173177,1,0,0:0:0:0:
21,364,173316,1,0,0:0:0:0:
21,364,173594,5,0,0:0:0:0:
477,353,173733,1,0,0:0:0:0:
21,364,173872,2,0,P|49:303|91:274,1,82.5000025177003
477,353,174149,2,0,P|454:312|417:280,1,82.5000025177003
254,21,174427,2,0,L|257:202,1,165.000005035401
256,192,174983,12,0,175816,0:0:0:0:
256,192,176094,12,0,177205,0:0:0:0:
