osu file format v5

[General]
AudioFilename: 01-fireflight-unbreakable.mp3
AudioLeadIn: 0
PreviewTime: -1
Countdown: 1
SampleSet: Normal
StackLeniency: 0.7
Mode: 0
LetterboxInBreaks: 1

[Metadata]
Title:Unbreakable
Artist:Fireflight
Creator:nutternutter
Version:Easy
Source:
Tags:

[Difficulty]
HPDrainRate:0
CircleSize:5
OverallDifficulty:5
SliderMultiplier:1.4
SliderTickRate:1

[Events]
//Background and Video events
//Break Periods
//Storyboard Layer 0 (Background)
//Storyboard Layer 1 (Failing)
//Storyboard Layer 2 (Passing)
//Storyboard Layer 3 (Foreground)
//Storyboard Sound Samples
//Background Colour Transformations
3,100,163,162,255

[TimingPoints]
0,1000,4,1,0,100,1,0

[HitObjects]
96,96,1000,2,0,B|320:96,5,140
352,256,7000,2,0,B|128:256|64:256,2,280
192,64,13000,2,0,B|448:64,3,140
352,256,17000,2,0,B|32:192,3,280
128,96,24000,2,0,B|448:128,2,280
416,288,28000,2,0,B|96:192|416:64,4,280
288,96,38000,2,0,B|64:224,3,140
224,288,42000,2,0,B|448:256,3,140
352,64,46000,2,0,B,2,280
288,288,50000,2,0,B|160:0,1,280
256,192,55000,12,0,65000
96,128,68000,2,0,B|416:224|416:192,1,280
352,224,72000,2,0,B|32:96,1,280
128,96,76000,2,0,B|448:192|448:192|384:256,2,420
64,64,84000,1,0
224,160,85000,1,0
320,256,86000,1,0
224,96,87000,1,0
224,192,88000,1,0
224,192,89000,1,0
224,192,90000,1,0
224,192,91000,1,0
224,192,92000,1,0
288,64,93000,1,0
224,96,94000,1,0
160,128,95000,1,0
256,64,96000,1,0
224,160,97000,1,0
384,96,98000,1,0
160,64,99000,1,0
352,128,100000,1,0
256,64,101000,1,0
224,64,102000,1,0
224,64,103000,1,0
224,64,104000,1,0
224,64,105000,1,0
256,192,107000,12,0,122000
96,128,124000,2,0,B|352:128,1,140
320,128,126000,2,0,B|224:256,7,140
224,224,134000,2,0,B|416:96,1,140
448,128,136000,2,0,B|192:64,1,140
256,192,138000,2,0,B|448:224,1,140
416,0,139000,2,0,B|160:128,1,280
320,128,143000,1,0
320,192,144000,1,0
288,96,145000,1,0
192,192,146000,1,0
288,192,147000,1,0
224,128,148000,1,0
256,224,149000,1,0
192,128,150000,1,0
288,96,151000,1,0
224,160,152000,1,0
256,128,153000,1,0
192,128,154000,1,0
224,128,155000,1,0
288,128,156000,1,0
256,160,157000,1,0
256,160,158000,1,0
224,160,159000,1,0
224,128,160000,1,0
256,128,161000,1,0
256,128,162000,1,0
160,128,163000,1,0
256,128,164000,1,0
256,128,165000,1,0
160,96,166000,1,0
224,96,167000,1,0
160,96,168000,1,0
160,96,169000,1,0
192,96,170000,1,0
192,96,171000,1,0
192,96,172000,1,0
288,160,174000,1,2
256,128,175000,1,2
384,128,177000,5,2
256,96,178000,1,2
224,160,179000,1,2
288,96,180000,1,2
288,96,181000,1,2
288,96,182000,1,2
288,96,183000,5,2
320,64,184000,1,2
480,64,185000,1,2
512,128,187000,1,2
448,96,188000,1,2
448,64,189000,1,2
448,64,190000,1,2
448,160,191000,1,0
384,128,192000,1,0
320,96,193000,1,0
320,96,194000,1,0
