osu file format v5

[General]
AudioFilename: Fireflight - Unbreakable.mp3
AudioLeadIn: 1985
PreviewTime: -1
Countdown: 0
SampleSet: Normal
StackLeniency: 0.6
Mode: 0
LetterboxInBreaks: 1
EditorBookmarks: 85683,133683

[Metadata]
Title:Unbreakable
Artist:Fireflight
Creator:Nharox
Version:Normal
Source:
Tags:

[Difficulty]
HPDrainRate:5
CircleSize:3
OverallDifficulty:5
SliderMultiplier:1.2
SliderTickRate:0.5

[Events]
//Background and Video events
0,0,"unbreakable.jpg"
//Break Periods
2,106550,113649
2,123216,129649
//Storyboard Layer 0 (Background)
//Storyboard Layer 1 (Failing)
//Storyboard Layer 2 (Passing)
//Storyboard Layer 3 (Foreground)
//Storyboard Sound Samples
//Background Colour Transformations
3,100,163,162,255

[TimingPoints]
350,333.333333333333,4,1,0,100,1,0
16183,-100,4,2,0,100,0,0
16516,-100,4,1,0,70,0,0
19016,-200,4,1,0,70,0,0
20516,-100,4,1,0,49,0,0
21516,-100,4,1,0,70,0,0
24349,-200,4,1,0,70,0,0
25849,-100,4,1,0,49,0,0
26849,-100,4,1,0,70,0,0
37349,-100,4,1,0,0,0,0
37516,-100,4,1,0,70,0,0
68516,-100,4,1,0,49,0,0
69599,-100,4,1,0,70,0,0
73849,-100,4,1,0,49,0,0
74933,-100,4,1,0,70,0,0
114516,-100,4,2,0,100,0,0
120183,-100,4,1,0,58,0,0
121849,-200,4,1,0,58,0,0
125183,-100,4,1,0,70,0,0
180016,-100,4,2,0,0,0,0
180183,-100,4,1,0,70,0,0

[Colours]
Combo1 : 255,255,255
Combo2 : 92,92,92
Combo3 : 84,119,74

[HitObjects]
96,192,5683,5,4
160,192,6016,1,4
384,192,6683,5,4
320,192,7016,1,4
256,192,7349,6,0,B|256:128,4,60
224,256,8349,5,0
288,256,8683,1,0
352,256,9016,2,0,B|255:391|157:252,1,240
224,256,10016,1,0
288,256,10349,1,0
416,192,11016,5,4
352,192,11349,1,4
128,192,12016,5,4
192,192,12349,1,4
256,192,12682,6,0,B|256:256,4,60
288,128,13682,5,0
224,128,14016,1,0
160,128,14349,2,0,B|257:-7|355:132,1,240
288,128,15349,1,0
224,128,15682,1,0
256,320,16350,5,4
192,320,16683,6,0,B|128:320,1,60
64,320,17183,1,0
64,256,17516,1,0
128,256,17850,1,0
192,256,18183,2,0,B|254:191|64:192,1,180
72,112,19016,2,0,C|107:94|139:110|171:94|203:110|235:94|268:111|298:92,1,240
192,224,20849,5,0
192,224,21016,1,0
256,224,21349,1,0
320,224,21683,1,4
320,320,22016,6,0,B|384:320,1,60
448,320,22516,1,0
448,256,22849,1,0
384,256,23183,1,0
320,256,23516,2,0,B|258:191|448:192,1,180
440,112,24349,2,0,C|405:94|373:110|341:94|309:110|277:94|244:111|214:92,1,240
320,224,26182,5,0
320,224,26349,1,0
256,224,26682,1,0
192,224,27016,1,4
128,224,27349,5,0
128,224,27516,1,0
128,160,27849,1,0
192,160,28183,1,0
192,96,28516,1,0
256,96,28849,2,0,B|318:6|416:177|418:20,1,180
384,224,30016,5,0
384,224,30183,1,0
384,160,30516,1,0
320,160,30850,1,0
320,96,31183,1,0
256,96,31516,2,0,B|194:6|96:177|94:20,1,180
256,288,32849,6,0,B|256:352,2,60
256,224,33516,2,0,B|256:96,2,120
256,256,34349,1,0
256,320,34683,1,0
256,192,35099,12,0,37349
160,128,37683,6,0,B|259:-3|374:147,3,240
360,256,40349,2,0,B|261:387|147:238,3,240
224,96,43349,5,0
224,160,43683,1,0
224,224,44016,1,0
224,288,44349,2,4,B|224:320|192:320|192:288|192:256|224:256|256:256|256:288|256:320|256:352|224:352|192:352|160:352|160:320|160:288,2,240,4|0|4
288,288,46016,5,0
288,224,46349,1,0
288,160,46683,1,0
288,96,47016,2,4,B|288:64|320:64|320:96|320:128|288:128|256:128|256:96|256:64|256:32|288:32|320:32|352:32|352:64|352:96,2,240,4|4|4
208,96,48683,6,0,B|208:224,2,120
304,96,49683,2,0,B|304:224,2,120,0|0|0
96,192,51349,5,0
160,192,51683,1,0
224,192,52016,1,4
288,192,52349,1,4
352,192,52683,1,4
416,192,53016,1,4
64,64,54016,5,0
128,64,54349,1,0
192,64,54683,1,0
256,64,55016,1,4
384,64,55683,1,4
448,320,56683,5,0
384,320,57016,1,0
320,320,57350,1,0
256,320,57683,1,4
128,320,58350,1,4
256,192,58516,12,0,61683
256,96,63183,6,4,B|256:288,1,180
96,192,64349,5,4
0,96,64683,5,0
0,96,64850,1,0
64,160,65183,2,0,B|160:256,1,120
128,160,65849,2,0,B|224:256,1,120
192,160,66516,2,0,B|288:256,1,120
320,256,67016,5,0
512,256,67683,1,0
416,96,68349,1,0
416,224,68683,5,0
416,224,68849,1,0
416,160,69183,1,0
416,96,69516,1,0
416,96,69683,1,4
512,96,70016,5,0
512,96,70183,1,0
448,160,70516,2,0,B|352:256,1,120
384,160,71182,2,0,B|288:256,1,120
320,160,71849,2,0,B|224:256,1,120
192,256,72349,5,0
0,256,73016,1,0
96,96,73682,1,0
256,75,74016,6,0,B|256:139,5,60
209,183,75016,6,0,B|152:241|226:300,2,120,4|0|0
256,235,76016,1,0
256,235,76183,1,0
305,183,76516,2,0,B|356:245|282:313,1,120
256,128,77349,1,4
256,128,77683,1,4
209,180,78016,6,0,B|152:122|226:63,1,120
256,128,78682,1,0
256,128,78849,1,0
305,180,79182,2,0,B|356:118|282:50,1,120
256,256,80016,1,4
256,32,80683,5,0
256,32,80849,1,0
204,66,81183,2,0,B|259:130|328:49,3,120
256,256,82683,5,0
256,192,83016,1,0
160,96,83683,1,0
256,0,84349,1,0
352,96,85016,1,0
160,192,85683,6,0,B|160:320,1,120
224,192,86349,2,0,B|224:320,1,120
288,192,87016,2,0,B|288:320,1,120
352,192,87683,2,0,B|352:320,1,120
352,192,88349,6,0,B|352:64,1,120
288,192,89015,2,0,B|288:64,1,120
224,192,89682,2,0,B|224:64,1,120
160,192,90349,2,0,B|160:64,1,120
160,320,91349,5,0
160,256,91683,1,0
160,192,92016,1,0
160,128,92349,5,4
64,256,93016,1,4
256,256,93683,1,4
352,320,94016,5,0
352,256,94349,1,0
352,192,94683,1,0
352,128,95016,5,4
448,256,95683,1,4
256,256,96349,1,0
256,256,96683,5,0
192,224,97016,1,0
192,160,97349,1,0
256,128,97683,1,0
320,160,98016,1,0
320,224,98349,1,0
256,32,99349,5,0
224,96,99683,1,0
288,96,100016,1,4
320,160,100349,1,4
256,160,100683,1,4
192,160,101016,1,4
395,267,102016,6,0,B|479:351,3,120,0|0|0|4
320,192,103683,1,4
117,267,104683,6,0,B|32:351,3,120,0|0|0|4
192,192,106350,1,4
192,32,114849,6,0,B|192:96,1,60
256,32,115349,2,0,B|256:96,1,60
320,32,115849,2,0,B|320:96,1,60
320,160,116349,6,0,B|320:224,1,60
256,160,116849,2,0,B|256:224,1,60
192,160,117349,2,0,B|192:224,1,60
192,288,117849,6,0,B|192:352,1,60
256,288,118349,2,0,B|256:352,1,60
320,288,118849,2,0,B|320:352,1,60
256,288,119349,5,2
256,288,119516,1,2
192,96,120349,6,4,B|253:-30|317:98,1,180,4|0
256,96,121183,1,0
256,96,121349,1,0
224,160,121683,1,0
224,160,121849,2,0,B|256:289|291:156,1,150
256,96,123016,5,0
256,64,130849,5,0
256,128,131183,1,0
256,128,131349,1,0
256,256,131849,1,0
192,96,133683,6,0,B|61:195|211:310,3,240
320,296,136349,2,0,B|451:197|302:83,3,240
112,160,139349,6,0,B|240:160,1,120
288,160,140016,1,0
352,160,140349,2,4,B|384:160|384:128|352:128|320:128|320:160|320:192|352:192|384:192|416:192|416:160|416:128|416:96|384:96|352:96,2,240,4|0|4
400,224,142016,6,0,B|272:224,1,120
224,224,142683,1,0
160,224,143016,2,4,B|128:224|128:256|160:256|192:256|192:224|192:192|160:192|128:192|96:192|96:224|96:256|96:288|128:288|160:288,2,240,4|4|4
192,160,144683,5,0
256,160,145016,1,0
320,160,145349,1,0
320,224,145683,1,0
256,224,146016,1,0
192,224,146349,1,0
204,29,147349,6,0,B|259:93|314:20,5,120,0|0|4|4|4|4
96,96,150016,5,0
96,160,150349,1,0
96,224,150683,1,0
96,288,151016,2,4,B|161:274|161:274|160:96,1,240
416,96,152683,5,0
416,160,153016,1,0
416,224,153350,1,0
416,288,153683,2,4,B|351:274|351:274|352:96,1,240
136,128,155016,5,0
72,160,155349,1,0
72,224,155683,1,0
136,256,156016,1,0
136,192,156349,2,4,B|264:192,2,120
376,128,157683,5,0
440,160,158016,1,0
440,224,158350,1,0
376,256,158683,1,0
376,192,159016,2,4,B|248:192,2,120
150,194,160683,6,0,B|202:138|266:202,1,120
361,190,161349,2,0,B|309:246|245:182,1,120,0|4
425,190,162349,1,4
254,76,163349,6,0,B|310:128|246:192,1,120
258,287,164016,2,0,B|202:235|266:171,1,120,0|4
258,351,165016,1,4
216,112,165683,5,0
216,112,166016,1,0
216,112,166350,2,0,L|216:240,1,120
296,232,167016,1,0
296,232,167349,1,0
296,232,167683,2,0,L|296:104,1,120
256,320,169016,5,0
128,96,169683,1,0
384,96,170349,1,0
160,192,171349,6,0,B|32:192,2,120
256,96,172349,1,4
256,288,173016,1,4
352,192,173683,1,4
352,192,174016,6,0,B|480:192,2,120
256,288,175016,1,4
256,96,175683,1,4
160,192,176350,1,4
256,192,176516,12,0,180016
179,102,180516,6,4,B|254:15|350:111,1,180
128,256,181683,5,4
192,256,182016,1,4
384,256,182683,5,4
320,256,183016,1,4
256,128,183683,5,8
256,128,183849,1,8
256,320,184349,5,4
256,256,184683,1,4
256,64,185349,5,4
256,128,185683,1,4
256,256,186349,5,8
256,256,186516,1,8
128,256,187016,6,4,B|256:256,1,120
377,256,188016,2,4,B|249:256,1,120
256,64,189016,5,0
192,96,189349,1,0
256,128,189683,1,0
320,96,190016,1,4
