osu file format v13

[General]
AudioFilename: proud of you.mp3
AudioLeadIn: 0
PreviewTime: 78309
Countdown: 0
SampleSet: Soft
StackLeniency: 0.7
Mode: 0
LetterboxInBreaks: 0
EpilepsyWarning: 1
WidescreenStoryboard: 1

[Editor]
DistanceSpacing: 0.8
BeatDivisor: 4
GridSize: 4
TimelineZoom: 2

[Metadata]
Title:Proud of You
TitleUnicode:Proud of You
Artist:Fiona Fung
ArtistUnicode:馮曦妤
Creator:pandorawindy
Version:Wings
Source:
Tags:A little love Feng Xi Yu
BeatmapID:461970
BeatmapSetID:194567

[Difficulty]
HPDrainRate:6
CircleSize:4
OverallDifficulty:6
ApproachRate:7
SliderMultiplier:2.1
SliderTickRate:2

[Events]
//Background and Video events
0,0,"bg.jpg",0,0
//Break Periods
2,58204,66616
//Storyboard Layer 0 (Background)
//Storyboard Layer 1 (Fail)
//Storyboard Layer 2 (Pass)
//Storyboard Layer 3 (Foreground)
//Storyboard Sound Samples
//Background Colour Transformations
3,100,163,162,255

[TimingPoints]
11907.0071661449,731.707317073171,4,2,1,45,1,0
20687,-133.333333333333,4,2,1,45,0,0
21420,-100,4,2,1,45,0,0
30199,-66.6666666666667,4,2,1,45,0,0
31297,-100,4,2,1,45,0,0
35321,-83.3333333333333,4,2,1,60,0,1
55809,-100,4,2,1,60,0,0
67516,-100,4,2,1,50,0,0
76297,-100,4,2,1,60,0,0
79224,-83.3333333333333,4,2,1,80,0,1
99711,-100,4,2,1,80,0,1
101175,-100,4,2,1,45,0,0
105108,-100,4,2,1,5,0,0
105291,-100,4,2,1,45,0,0
106846,-75.7575757575758,4,2,1,45,0,0
108492,-75.7575757575758,4,2,1,30,0,0
109224,-75.7575757575758,4,2,1,15,0,0
109955,-75.7575757575758,4,2,1,5,0,0
110687,-83.3333333333333,4,2,1,45,0,0
113467,731.707317073171,4,2,1,45,1,0
113980,731.707317073171,4,2,1,45,1,0
113980,-83.3333333333333,4,2,1,45,0,0
116541,-125,4,2,1,45,0,0
117089,-83.3333333333333,4,2,1,45,0,0
119550,705.882352941176,4,2,1,45,1,0
125902,-100,4,2,1,5,0,0

[Colours]
Combo1 : 240,145,0
Combo2 : 200,200,200
Combo3 : 200,200,2
Combo4 : 255,77,197
SliderBorder : 255,255,255

[HitObjects]
296,84,11907,6,0,P|341:112|372:166,1,105,2|0,0:0|0:0,0:0:0:0:
315,256,12638,1,0,0:0:0:0:
197,256,13004,1,0,0:0:0:0:
143,154,13370,2,0,P|171:111|216:84,1,105,2|0,0:0|0:0,0:0:0:0:
256,192,14102,5,0,0:0:0:0:
256,308,14467,1,0,0:0:0:0:
208,128,14833,2,0,P|256:112|312:136,2,105,2|0|0,0:0|0:0|0:0,0:0:0:0:
112,192,15931,1,0,0:0:0:0:
208,256,16297,2,0,P|256:272|312:248,1,105,2|0,0:0|0:0,0:0:0:0:
304,140,17028,5,0,0:0:0:0:
400,72,17394,1,0,0:0:0:0:
496,140,17760,2,0,P|456:176|408:188,1,105,2|0,0:0|0:0,0:0:0:0:
208,140,18492,5,0,0:0:0:0:
112,72,18858,1,0,0:0:0:0:
16,140,19224,2,0,P|56:176|104:188,1,105,2|0,0:0|0:0,0:0:0:0:
316,340,19955,5,0,0:0:0:0:
197,340,20321,1,0,0:0:0:0:
256,240,20687,2,0,B|276:152|240:168|256:82,1,157.500006008148,2|0,0:0|0:0,0:0:0:0:
256,82,21785,1,0,0:0:0:0:
360,128,22150,2,0,B|396:152|396:152|428:148|460:168,1,105,2|0,0:0|0:0,0:0:0:0:
382,344,22882,5,0,0:0:0:0:
320,259,23248,1,0,0:0:0:0:
424,248,23614,2,0,P|408:300|372:352,1,105,2|0,0:0|0:0,0:0:0:0:
130,344,24346,5,0,0:0:0:0:
192,259,24712,1,0,0:0:0:0:
88,248,25078,2,0,P|104:300|140:352,1,105,2|0,0:0|0:0,0:0:0:0:
256,144,25809,5,0,0:0:0:0:
256,248,26175,1,0,0:0:0:0:
372,132,26541,2,0,P|356:84|312:44,1,105,2|0,0:0|0:0,0:0:0:0:
256,144,27272,2,0,L|256:276,1,105,0|0,0:0|0:0,0:0:0:0:
140,132,28004,2,0,P|156:84|200:44,1,105,2|0,0:0|0:0,0:0:0:0:
368,232,28736,5,0,0:0:0:0:
144,232,29102,1,0,0:0:0:0:
307,135,29467,2,0,P|257:123|206:134,1,105,2|0,0:0|0:0,0:0:0:0:
290,256,30199,6,0,B|326:235|358:252|361:284|321:302|292:324|281:353,1,157.500006008148,0|0,0:0|0:0,0:0:0:0:
221,256,30931,2,0,B|184:235|152:252|149:284|189:302|218:324|229:353,1,157.500006008148,2|0,0:0|0:0,0:0:0:0:
320,180,31663,5,0,0:0:0:0:
128,220,32028,1,0,0:0:0:0:
296,80,32394,2,0,P|320:128|312:200,1,105,2|0,0:0|0:0,0:0:0:0:
128,220,33126,2,0,P|157:175|223:146,1,105,0|0,0:0|0:0,0:0:0:0:
336,288,33858,2,0,P|282:284|224:241,1,105,2|0,0:0|0:0,0:0:0:0:
328,152,34589,1,0,0:0:0:0:
452,216,34955,1,0,0:0:0:0:
432,80,35321,6,0,B|392:80|349:53|349:53|320:95|286:58|286:58|252:96|208:99,1,251.999992309571,6|0,0:0|0:0,0:0:0:0:
188,236,36419,1,0,0:0:0:0:
272,348,36785,2,0,P|314:294|322:229,1,125.999996154785,2|0,0:0|0:0,0:0:0:0:
99,130,37516,2,0,P|59:178|48:240,1,125.999996154785,0|0,0:0|0:0,0:0:0:0:
276,144,38248,6,0,B|320:144|359:117|359:117|388:159|422:122|422:122|456:160|500:163,1,251.999992309571,6|0,0:0|0:0,0:0:0:0:
376,236,39346,1,0,0:0:0:0:
264,316,39711,2,0,B|228:328|228:328|212:288|164:272,1,125.999996154785,2|0,0:0|0:0,0:0:0:0:
376,236,40443,2,0,B|412:224|412:224|428:264|476:280,1,125.999996154785
244,140,41175,6,0,B|199:134|156:84|156:84|176:180|96:220,1,251.999992309571,6|0,0:0|0:0,0:0:0:0:
16,112,42272,1,0,0:0:0:0:
16,112,42638,6,0,P|56:152|72:96,1,125.999996154785,2|0,0:0|0:0,0:0:0:0:
216,76,43370,2,0,P|251:35|278:82,1,125.999996154785,0|0,0:0|0:0,0:0:0:0:
368,188,44102,6,0,B|338:219|337:364|482:315|403:183|314:287|312:338,1,251.999992309571,2|0,0:0|0:0,0:0:0:0:
208,152,45199,2,0,P|172:104|108:92,1,125.999996154785,0|2,0:0|0:0,0:0:0:0:
128,172,45931,2,0,L|208:52,1,125.999996154785,0|0,0:0|0:0,0:0:0:0:
308,144,46663,1,0,0:0:0:0:
288,280,47028,6,0,B|244:280|205:253|205:253|176:295|142:258|142:258|108:296|68:298,1,251.999992309571,6|0,0:0|0:0,0:0:0:0:
96,164,48126,1,0,0:0:0:0:
272,96,48492,2,0,B|312:92|328:72|328:72|312:92|320:132,1,125.999996154785,2|0,0:0|0:0,0:0:0:0:
240,308,49224,2,0,B|200:312|184:332|184:332|200:312|192:272,1,125.999996154785,0|0,0:0|0:0,0:0:0:0:
288,172,49955,6,0,B|332:172|371:145|371:145|400:187|434:150|434:150|468:188|508:190,1,251.999992309571,6|0,0:0|0:0,0:0:0:0:
392,268,51053,1,0,0:0:0:0:
287,358,51419,2,0,P|256:304|258:237,1,125.999996154785,2|0,0:0|0:0,0:0:0:0:
417,133,52150,2,0,P|354:131|301:163,1,125.999996154785
133,179,52882,6,0,B|180:156|220:168|220:168|220:92|344:52,1,251.999992309571,6|0,0:0|0:0,0:0:0:0:
460,100,53980,1,0,0:0:0:0:
388,276,54346,5,2,0:0:0:0:
308,340,54711,1,0,0:0:0:0:
124,276,55077,1,2,2:0:0:0:
204,340,55443,1,0,0:0:0:0:
256,192,55809,1,6,0:0:0:0:
256,192,55992,12,0,58004,0:0:0:0:
80,92,67516,5,0,0:0:0:0:
140,192,67882,2,0,P|180:156|196:108,1,105,2|0,0:0|0:0,0:0:0:0:
317,108,68614,1,0,0:0:0:0:
316,108,68797,2,0,P|333:157|372:192,1,105,2|0,0:0|0:0,0:0:0:0:
401,221,69346,2,0,L|302:262,1,105,0|2,0:0|0:0,0:0:0:0:
196,304,70077,1,0,0:0:0:0:
140,204,70443,6,0,P|144:152|176:108,1,105,2|0,0:0|0:0,0:0:0:0:
256,192,71175,1,0,0:0:0:0:
338,274,71541,2,0,P|368:231|372:180,1,105,2|0,0:0|0:0,0:0:0:0:
372,180,72272,5,0,0:0:0:0:
316,80,72638,1,2,0:0:0:0:
196,80,73004,1,0,0:0:0:0:
140,180,73370,5,2,0:0:0:0:
88,284,73736,2,0,L|52:344,2,52.5,0|0|2,0:0|0:0|0:0,0:0:0:0:
140,180,74467,2,0,L|196:84,1,105,0|2,0:0|0:0,0:0:0:0:
192,89,75016,1,0,0:0:0:0:
192,89,75199,1,0,0:0:0:0:
320,89,75565,2,0,L|372:184,1,105,2|0,0:0|0:0,0:0:0:0:
256,192,76297,5,2,0:0:0:0:
256,192,76663,2,0,L|256:136,2,52.5,0|0|2,0:0|0:0|0:0,0:0:0:0:
256,336,77394,1,0,0:0:0:0:
256,336,77760,2,0,L|256:228,1,105,4|0,0:0|0:0,0:0:0:0:
132,292,78492,5,0,0:0:0:0:
380,292,78858,1,0,0:0:0:0:
420,108,79224,6,0,P|360:100|296:120,1,125.999996154785,10|0,0:0|0:0,0:0:0:0:
298,118,79772,1,0,0:0:0:0:
298,118,79955,1,2,0:0:0:0:
132,292,80321,5,0,0:0:0:0:
92,108,80687,2,0,P|152:100|216:120,1,125.999996154785,2|0,0:0|0:0,0:0:0:0:
265,376,81419,2,0,P|228:328|213:262,1,125.999996154785,2|0,0:0|0:0,0:0:0:0:
410,91,82150,2,0,P|387:147|338:193,1,125.999996154785,10|0,0:0|0:0,0:0:0:0:
340,192,82699,1,0,0:0:0:0:
340,192,82882,1,2,0:0:0:0:
120,224,83248,5,0,0:0:0:0:
120,224,83614,2,0,B|160:224|160:224|176:272|232:292,1,125.999996154785,2|0,0:0|0:0,0:0:0:0:
312,144,84346,2,0,P|256:120|200:144,1,125.999996154785,2|0,0:0|0:0,0:0:0:0:
295,285,85077,2,0,B|336:272|352:224|352:224|392:224,1,125.999996154785,10|0,0:0|0:0,0:0:0:0:
391,224,85626,1,0,0:0:0:0:
391,224,85809,1,2,0:0:0:0:
328,77,86175,5,0,0:0:0:0:
182,80,86541,2,0,B|165:139|165:139|120:186,1,125.999996154785,2|0,0:0|0:0,0:0:0:0:
196,312,87272,2,0,B|256:296|256:296|319:312,1,125.999996154785,2|0,0:0|0:0,0:0:0:0:
389,183,88004,2,0,B|346:140|346:140|328:77,1,125.999996154785,2|0,0:0|0:0,0:0:0:0:
468,80,88736,1,2,0:0:0:0:
328,77,89102,5,0,0:0:0:0:
328,77,89285,2,0,L|192:77,1,125.999996154785,0|0,0:0|0:0,0:0:0:0:
158,50,89833,2,0,P|208:84|243:158,1,125.999996154785,2|0,0:0|0:0,0:0:0:0:
108,176,90565,1,0,0:0:0:0:
336,348,90931,6,0,L|408:233,1,125.999996154785,10|0,0:0|0:0,0:0:0:0:
402,241,91480,1,0,0:0:0:0:
402,241,91663,1,2,0:0:0:0:
256,192,92028,1,0,0:0:0:0:
176,36,92394,6,0,L|104:151,1,125.999996154785,2|0,0:0|0:0,0:0:0:0:
92,168,92943,1,0,0:0:0:0:
76,196,93126,2,0,P|144:196|184:236,1,125.999996154785,2|0,2:0|2:0,0:0:0:0:
59,379,93858,6,0,L|123:239,1,125.999996154785,10|0,0:0|0:0,0:0:0:0:
111,264,94407,1,0,0:0:0:0:
111,264,94589,1,2,0:0:0:0:
256,192,94955,1,0,0:0:0:0:
399,265,95321,2,0,L|452:380,1,125.999996154785,2|0,0:0|0:0,0:0:0:0:
256,272,96053,5,2,0:0:0:0:
256,256,96419,1,0,0:0:0:0:
256,240,96785,2,0,L|256:112,1,125.999996154785,10|0,0:0|0:0,0:0:0:0:
256,114,97333,1,0,0:0:0:0:
256,114,97516,1,2,0:0:0:0:
56,152,97882,5,0,0:0:0:0:
56,152,98248,2,0,P|116:132|184:156,1,125.999996154785,2|0,0:0|0:0,0:0:0:0:
456,152,98980,2,0,P|397:132|337:148,1,125.999996154785,2|0,0:0|0:0,0:0:0:0:
164,260,99711,6,0,P|256:304|348:260,2,210,10|2|4,0:0|0:0|0:0,0:0:0:0:
204,192,102272,5,0,0:0:0:0:
204,192,102638,2,0,L|316:192,1,105,2|0,0:0|0:0,0:0:0:0:
408,248,103370,1,0,0:0:0:0:
408,136,103736,1,0,0:0:0:0:
292,140,104102,2,0,P|276:192|292:240,1,105,2|0,0:0|0:0,0:0:0:0:
368,192,104833,2,0,L|196:192,1,157.5,0|0,2:0|2:0,0:0:0:0:
168,192,105565,6,0,P|212:224|228:272,1,105,2|0,0:0|0:0,0:0:0:0:
116,292,106297,1,0,0:0:0:0:
396,292,106663,1,0,0:0:0:0:
230,256,107028,6,0,B|176:256|160:304|160:304|160:240|96:272|96:272|128:208|48:192|48:192|96:144|32:64|32:64|128:144|224:144|224:144|256:176|288:144|288:144|384:144|477:64|477:64|416:141|466:192|466:192|384:204|415:271|415:271|352:240|352:304|352:304|336:256|268:256,1,1385.99999577026,4|0,0:0|0:0,0:0:0:0:
160,128,111419,6,0,P|144:192|160:248,1,125.999996154785,10|0,0:0|0:0,0:0:0:0:
352,248,112150,2,0,P|368:187|352:127,1,125.999996154785,0|0,0:0|0:0,0:0:0:0:
256,66,112882,2,0,B|256:198,1,125.999996154785,2|0,0:0|0:0,0:0:0:0:
256,280,113467,6,0,L|256:332,1,52.5,0|0,0:0|0:0,0:0:0:0:
256,192,113980,1,0,0:0:0:0:
192,104,114346,6,0,P|140:88|152:144,1,125.999996154785,2|0,0:0|0:0,0:0:0:0:
368,140,115077,2,0,P|369:85|320:104,1,125.999996154785,0|0,0:0|0:0,0:0:0:0:
199,248,115809,2,0,P|256:271|313:248,1,125.999996154785,2|0,0:0|0:0,0:0:0:0:
256,32,116541,6,0,L|256:160,1,126,0|0,2:0|1:0,1:0:0:0:
256,192,117272,1,2,0:0:0:0:
141,154,118004,5,0,2:0:0:0:
370,154,118369,1,0,0:0:0:0:
185,289,118736,1,0,0:0:0:0:
326,289,119101,1,0,0:0:0:0:
256,72,119550,5,4,0:0:0:0:
256,192,119726,12,0,121314,0:0:0:0:
256,192,121491,12,0,126079,1:0:0:0:
