osu file format v13

[General]
AudioFilename: proud of you.mp3
AudioLeadIn: 0
PreviewTime: 78309
Countdown: 0
SampleSet: Soft
StackLeniency: 0.7
Mode: 0
LetterboxInBreaks: 0
EpilepsyWarning: 1
WidescreenStoryboard: 1

[Editor]
Bookmarks: 59467,90942
DistanceSpacing: 0.8
BeatDivisor: 4
GridSize: 4
TimelineZoom: 1.7

[Metadata]
Title:Proud of You
TitleUnicode:Proud of You
Artist:Fiona Fung
ArtistUnicode:馮曦妤
Creator:pandorawindy
Version:Beginner
Source:
Tags:A little love Feng Xi Yu
BeatmapID:463401
BeatmapSetID:194567

[Difficulty]
HPDrainRate:3
CircleSize:3
OverallDifficulty:2
ApproachRate:3
SliderMultiplier:1.4
SliderTickRate:2

[Events]
//Background and Video events
0,0,"bg.jpg",0,0
//Break Periods
2,58204,66076
//Storyboard Layer 0 (Background)
//Storyboard Layer 1 (Fail)
//Storyboard Layer 2 (Pass)
//Storyboard Layer 3 (Foreground)
//Storyboard Sound Samples
//Background Colour Transformations
3,100,163,162,255

[TimingPoints]
11907.0071661449,731.707317073171,4,2,1,45,1,0
22150,-100,4,2,1,45,0,0
35321,-100,4,2,1,60,0,1
55809,-100,4,2,1,45,0,0
67516,-100,4,2,1,50,0,0
76297,-100,4,2,1,60,0,0
79224,-100,4,2,1,80,0,1
101175,-100,4,2,1,45,0,0
113467,731.707317073171,4,2,1,45,1,0
113980,731.707317073171,4,2,1,45,1,0
119550,705.882352941176,4,2,1,45,1,0
125902,-100,4,2,1,5,0,0

[Colours]
Combo1 : 240,145,0
Combo2 : 200,200,200
Combo3 : 200,200,2
Combo4 : 255,77,197
SliderBorder : 255,255,255

[HitObjects]
256,192,11907,5,2,0:0:0:0:
154,240,12638,2,0,P|146:168|181:108,1,140,0|2,0:0|0:0,0:0:0:0:
256,32,14102,5,0,0:0:0:0:
334,110,14833,2,0,P|366:171|358:240,2,140,2|0|2,0:0|0:0|0:0,0:0:0:0:
258,193,17028,6,0,P|186:223|110:197,1,140,0|2,0:0|0:0,0:0:0:0:
180,112,18492,2,0,P|250:80|328:108,1,140,0|2,0:0|0:0,0:0:0:0:
364,192,19955,5,0,0:0:0:0:
252,192,20687,2,0,L|88:192,2,140,2|0|2,0:0|0:0|0:0,0:0:0:0:
292,296,22882,6,0,P|368:284|420:244,1,140,0|2,0:0|0:0,0:0:0:0:
417,136,24346,2,0,P|360:96|292:88,1,140,0|2,0:0|0:0,0:0:0:0:
184,124,25809,2,0,P|166:193|191:266,2,140,0|2|0,0:0|0:0|0:0,0:0:0:0:
276,192,28004,1,2,0:0:0:0:
296,80,28736,1,0,0:0:0:0:
384,148,29467,5,2,0:0:0:0:
420,40,30199,2,0,P|480:88|496:148,1,140,0|2,0:0|0:0,0:0:0:0:
440,244,31663,1,0,0:0:0:0:
384,148,32394,5,2,0:0:0:0:
332,248,33126,2,0,P|284:200|276:120,1,140,0|2,0:0|0:0,0:0:0:0:
324,32,34589,1,0,0:0:0:0:
212,44,35321,6,0,B|168:32|144:52|144:52|112:44|80:76,1,140,6|0,0:0|0:0,0:0:0:0:
120,180,36785,1,2,0:0:0:0:
224,224,37516,1,0,0:0:0:0:
320,168,38248,6,0,B|364:156|388:176|388:176|420:168|452:200,1,140,6|0,0:0|0:0,0:0:0:0:
384,288,39711,2,0,P|336:332|264:340,2,140,2|0|6,0:0|0:0|0:0,0:0:0:0:
288,228,41907,1,0,0:0:0:0:
192,172,42638,6,0,P|240:128|312:120,2,140,2|0|2,0:0|0:0|0:0,0:0:0:0:
188,284,44833,1,0,0:0:0:0:
96,220,45565,2,0,P|60:207|20:208,2,70,2|0|0,0:0|0:0|0:0,0:0:0:0:
200,176,47028,6,0,P|228:112|288:76,1,140,6|0,0:0|0:0,0:0:0:0:
393,110,48492,1,2,0:0:0:0:
312,188,49224,1,0,0:0:0:0:
208,232,49955,2,0,P|252:284|319:301,1,140,6|0,0:0|0:0,0:0:0:0:
368,200,51419,6,0,P|384:132|348:64,2,140,2|0|6,0:0|0:0|0:0,0:0:0:0:
256,216,53614,1,0,0:0:0:0:
144,200,54346,2,0,P|128:132|164:64,1,140,2|0,0:0|0:0,0:0:0:0:
256,192,55809,12,0,58004,0:0:0:0:
88,152,67516,6,0,P|152:176|220:160,1,140,2|0,0:0|0:0,0:0:0:0:
308,88,68980,2,0,P|332:152|316:220,1,140,2|0,0:0|0:0,0:0:0:0:
216,272,70443,5,2,0:0:0:0:
112,232,71175,1,0,0:0:0:0:
100,120,71907,1,2,0:0:0:0:
200,164,72638,6,0,P|268:180|344:164,1,140,0|2,0:0|0:0,0:0:0:0:
416,88,74102,2,0,P|448:148|432:224,1,140,2|2,0:0|0:0,0:0:0:0:
336,168,75565,1,2,0:0:0:0:
235,119,76297,6,0,P|224:186|256:248,2,140,2|2|2,0:0|0:0|0:0,0:0:0:0:
332,60,78492,1,2,0:0:0:0:
340,172,79224,6,0,B|384:160|408:180|408:180|440:172|472:204,1,140,10|2,0:0|0:0,0:0:0:0:
400,288,80687,1,2,0:0:0:0:
288,308,81419,1,2,0:0:0:0:
180,276,82150,6,0,B|136:264|112:284|112:284|80:276|48:308,1,140,10|2,0:0|0:0,0:0:0:0:
44,192,83614,1,2,0:0:0:0:
152,168,84346,1,2,0:0:0:0:
188,60,85077,6,0,P|252:108|268:180,1,140,10|2,0:0|0:0,0:0:0:0:
264,276,86541,2,0,P|340:252|372:200,1,140,2|2,0:0|0:0,0:0:0:0:
321,105,88004,6,0,P|389:96|457:137,1,140,2|2,0:0|0:0,0:0:0:0:
472,240,89467,2,0,P|472:280|464:320,2,70,2|0|2,0:0|0:0|0:0,0:0:0:0:
368,276,90931,6,0,P|300:276|236:240,1,140,10|2,0:0|0:0,0:0:0:0:
164,160,92394,1,2,0:0:0:0:
248,88,93126,1,2,0:0:0:0:
360,80,93858,6,0,P|428:80|492:116,1,140,10|2,0:0|0:0,0:0:0:0:
492,224,95321,1,2,0:0:0:0:
408,300,96053,2,0,P|369:303|329:289,2,70,2|0|10,0:0|0:0|0:0,0:0:0:0:
384,192,97516,1,2,0:0:0:0:
321,99,98248,6,0,P|387:79|452:104,2,140,2|2|10,0:0|0:0|0:0,0:0:0:0:
256,192,100443,1,2,0:0:0:0:
208,92,101175,1,4,0:0:0:0:
208,92,102638,6,0,P|132:92|132:168,1,140,2|0,0:0|0:0,0:0:0:0:
190,232,104102,2,0,P|256:252|328:228,1,140,2|0,0:0|0:0,0:0:0:0:
394,143,105565,2,0,P|368:83|304:92,1,140,2|0,0:0|0:0,0:0:0:0:
256,192,107028,12,0,109955,1:0:0:0:
102,209,111419,6,0,P|79:144|103:79,1,140,10|0,0:0|0:0,2:0:0:0:
194,145,112882,1,2,0:0:0:0:
290,78,113649,1,0,0:0:0:0:
385,124,114345,5,2,0:0:0:0:
293,184,115076,1,0,0:0:0:0:
393,232,115808,1,2,0:0:0:0:
301,296,116540,1,0,0:0:0:0:
202,243,117271,5,2,0:0:0:0:
171,135,118004,2,0,P|104:114|38:133,1,140,0|0,0:0|0:0,2:0:0:0:
103,244,119550,5,4,0:0:0:0:
256,192,121314,12,0,126079,1:0:0:0:
