osu file format v5

[General]
AudioFilename: Finntroll - Trollhammaren.mp3
AudioLeadIn: 0
PreviewTime: -1
Countdown: 1
SampleSet: Normal
StackLeniency: 0.7
Mode: 0

[Metadata]
Title:Trollhammaren
Artist:Finntroll
Creator:K-S-O
Version:Easy
Source:
Tags:

[Difficulty]
HPDrainRate:2
CircleSize:2
OverallDifficulty:2
SliderMultiplier:0.7
SliderTickRate:2

[Events]
//Background and Video events
//Break Periods
2,54009,61097
2,102671,111655
2,133006,152102
2,169004,175188
//Storyboard Layer 0 (Background)
//Storyboard Layer 1 (Failing)
//Storyboard Layer 2 (Passing)
//Storyboard Layer 3 (Foreground)
//Storyboard Sound Samples
//Background Colour Transformations
3,48,192,192,192

[TimingPoints]
12113,315.822718180861,4,1,0,100

[HitObjects]
144,128,12112,2,0,B|288:128,1,140
304,272,13389,2,0,B|160:272,1,140
160,80,14653,5,0
256,80,14969,1,0
352,80,15284,1,0
352,224,15916,1,4
176,224,16548,1,4
176,64,17180,6,2,B|320:64,1,140
336,240,18429,2,2,B|192:240,1,140
176,80,19707,5,0
256,80,20023,1,0
336,80,20339,1,0
336,240,20970,1,2
256,240,21286,1,2
176,240,21602,1,2
160,128,22219,6,0,B|304:128,3,140
320,272,24745,2,0,B|176:272,3,140
80,80,27272,6,0,L|224:80|224:224,1,280
432,240,29799,2,0,L|432:96|288:96,1,280
256,192,32325,12,4,34537
112,96,35168,1,0
112,96,35484,1,0
112,224,36115,2,2,L|256:224,1,140
400,288,37694,6,0,L|400:128|208:128,1,350
384,80,40221,5,0
384,80,40537,1,0
304,192,41168,2,0,L|160:192,2,140
384,160,43695,6,2,L|96:160,1,280
112,192,45590,5,0
256,192,46853,1,0
400,192,48116,1,0
400,80,48748,5,2
112,112,50011,6,0,L|336:112,1,210
384,208,51275,2,0,L|160:208,1,210
112,304,52538,2,0,L|336:304,1,210
432,304,53801,5,2
128,112,62644,6,0,L|288:112,1,140
368,256,63907,2,0,L|208:256,1,140
176,160,65171,6,4,L|320:160,3,140
320,80,67697,6,2,L|176:80,1,140
192,192,68961,2,2,L|336:192,1,140
320,320,70224,6,4,L|160:320,3,140
64,160,72750,6,4,L|352:160,3,280
384,272,77804,6,4,L|96:272,3,280
208,96,83173,5,0
208,96,83488,1,0
144,240,84120,1,0
336,240,84752,1,0
336,80,85698,5,0
336,80,86014,1,0
368,256,86645,1,2
160,256,87277,1,2
112,80,88225,6,0,L|272:80|272:272,1,350
400,176,90436,2,0,L|400:336|128:336,1,420
64,144,92963,6,0,L|496:144,2,420
256,192,98017,12,0,102440
128,128,113172,5,0
256,128,113804,1,0
352,208,115067,1,4
192,192,115699,5,0
64,192,116331,1,0
256,64,117595,1,4
384,64,118226,5,0
384,192,118858,1,0
128,192,120122,1,4
128,320,120753,5,0
256,320,121385,1,0
416,192,122649,1,4
416,80,123281,6,4,L|192:80|192:288,1,420
400,288,125808,6,4,L|176:288|176:80,1,420
80,96,128335,6,4,L|80:320|288:320,1,420
416,240,130862,6,4,L|192:240|192:32,1,420
128,96,153599,5,0
128,176,153915,1,0
128,256,154231,1,0
256,288,154862,5,0
256,208,155178,1,0
256,128,155494,1,0
384,96,156126,5,0
384,176,156442,1,0
384,256,156758,1,0
320,320,157390,6,2,L|176:320,1,140
240,64,158653,5,0
320,64,158969,1,0
400,64,159285,1,0
336,192,159917,5,0
256,192,160233,1,0
176,192,160548,1,0
288,320,161180,5,0
208,320,161496,1,0
128,320,161812,1,0
48,224,162444,6,2,L|48:64,1,140
256,192,163707,12,0,168763
256,80,176335,6,0,L|256:240,2,140
336,80,177914,1,0
416,80,178230,1,0
416,304,178862,6,0,L|416:160,2,140
336,304,180441,1,0
256,304,180757,1,0
64,224,181389,6,2,L|64:80,2,140
144,224,182969,1,4
224,224,183284,1,4
416,80,183916,6,2,L|416:224,2,140
336,80,185496,1,4
256,80,185812,1,4
240,240,186443,6,0,L|464:240,2,210
352,128,188970,2,2,L|64:128,1,280
224,96,191498,6,0,L|448:96,2,210
336,240,194025,2,2,L|48:240,1,280
176,96,196552,5,2
256,96,196868,1,2
336,96,197184,1,2
336,256,197815,1,2
256,256,198131,1,2
176,256,198447,1,2
176,160,199079,1,2
256,160,199395,1,2
336,160,199711,1,2
208,304,200342,2,4,L|352:304,1,140
256,192,201606,12,4,205872
