osu file format v5

[General]
AudioFilename: Finley - Addio.mp3
AudioLeadIn: 0
PreviewTime: -1
Countdown: 1
SampleSet: Normal
StackLeniency: 0.7
Mode: 0
LetterboxInBreaks: 1

[Metadata]
Title:Addio
Artist:Finley
Creator:xxheroxx
Version:Sad
Source:
Tags:

[Difficulty]
HPDrainRate:6
CircleSize:6
OverallDifficulty:6
SliderMultiplier:2.4
SliderTickRate:4

[Events]
//Background and Video events
0,0,"th_DarkSora.jpg"
//Break Periods
2,29184,30034
2,70284,78934
2,98783,99124
//Storyboard Layer 0 (Background)
//Storyboard Layer 1 (Failing)
//Storyboard Layer 2 (Passing)
//Storyboard Layer 3 (Foreground)
//Storyboard Sound Samples
//Background Colour Transformations
3,100,163,162,255

[TimingPoints]
168,600,4,1,0,100,1

[Colours]
Combo1 : 128,128,128
Combo2 : 69,69,69

[HitObjects]
32,56,10368,1,2
32,56,10518,1,2
120,56,10818,1,4
208,56,11118,1,0
296,56,11418,1,4
384,56,11718,1,0
472,56,12018,1,4
472,272,12768,5,2
472,272,12918,1,2
384,272,13218,1,4
296,272,13518,1,0
208,272,13818,1,4
120,272,14118,1,0
40,168,14568,2,2,B|40:72|176:72,1,180
208,72,15168,2,2,B|344:72,1,120
416,72,15768,5,4
120,72,16368,1,4
120,160,16668,5,0
208,160,16968,2,2,B|400:160,1,180
432,160,17568,2,2,B|488:160|488:24|424:16|184:24|120:24|72:64|64:104|64:200|64:360,1,720
240,336,19968,5,2
240,336,20118,1,2
240,248,20418,1,4
328,248,20718,1,0
328,160,21018,1,4
328,72,21318,1,0
416,72,21618,1,4
416,248,22218,5,0
416,248,22368,1,2
416,248,22518,1,2
328,248,22818,1,4
240,248,23118,1,0
152,248,23418,1,4
56,248,23718,1,0
56,112,24168,2,2,B|56:48|80:24|184:24,1,180
224,24,24768,2,2,B|360:24,1,120
432,24,25368,5,4
432,344,25968,1,4
344,344,26268,1,0
256,344,26568,2,2,B|56:344,1,180
32,344,27168,2,2,B|32:216|128:288|128:128|280:280|432:256|440:72|216:40|80:168|8:136|40:32|176:16,1,720
176,96,31068,5,0
176,96,31368,1,4
304,96,31818,1,2
304,224,32268,1,0
384,224,32568,1,4
384,352,33018,1,2
256,352,33468,2,2,B|40:352|8:344|8:304|16:72|72:56|120:128|112:224|152:264|184:264|224:232|216:184|184:120|120:72|128:32|184:24|232:24|256:56|256:152|272:176|376:80,1,840
448,88,35868,5,0
448,168,36168,1,4
320,168,36618,1,2
320,40,37068,1,0
232,40,37368,1,4
104,40,37818,1,2
104,168,38268,2,2,B|64:128|16:176|24:296|72:344|104:304|168:224|192:176|208:224|240:336|280:368|312:336|344:200|416:208|384:168|256:200|208:192|256:144|368:80|440:144|464:176|456:232|448:320|424:344|336:352|256:352,1,840
184,352,40668,5,0
184,352,40968,1,4
56,352,41418,1,2
56,224,41868,1,0
136,224,42168,1,4
264,224,42618,1,2
264,352,43068,2,2,B|408:360|472:344|480:304|480:120|472:48|440:24|368:8|280:32|352:160|328:200|280:184|216:72|168:48|160:104|208:208|208:248|184:264|136:280|80:240,1,840
88,160,45468,5,0
88,72,45768,1,4
216,72,46218,1,2
344,72,46668,1,0
344,152,46968,1,4
344,24,47418,1,2
256,192,47868,12,0,50268
40,56,51168,5,2
40,136,51468,1,2
80,136,51618,2,6,B|280:136,1,180,6|2
256,216,52368,2,2,B|112:216,2,120
312,152,53268,5,8
368,88,53568,1,8
432,32,53868,5,0
432,112,54168,2,0,B|432:256,4,120,4|0|4|0|4
344,112,55668,5,8
256,112,55968,1,8
168,112,56268,1,8
80,112,56568,6,0,B|80:256,3,120,4|0|4|0
80,312,57768,2,2,B|456:312,1,360,6|2
440,224,58968,2,0,B|440:88,3,120
440,16,60168,2,4,B|296:16,1,120
320,96,60768,5,2
320,176,61068,1,2
280,176,61218,2,6,B|80:176,1,180,6|2
104,88,61968,2,2,B|240:88,2,120
104,168,62868,5,8
104,248,63168,1,8
104,328,63468,5,0
16,328,63768,2,0,B|16:184,4,120,4|0|4|0|4
96,328,65268,5,8
176,328,65568,1,8
256,328,65868,1,8
336,328,66168,6,0,B|480:328,3,120,4|0|4|0
456,240,67368,2,6,B|456:40|360:16|216:24,1,360,6|2
152,24,68568,2,0,B|16:24,3,120
32,104,69768,2,4,B|32:232,1,120
448,56,79968,5,2
448,56,80118,1,2
360,56,80418,1,4
272,56,80718,1,0
272,136,81018,1,4
272,216,81318,1,0
184,216,81618,1,4
56,48,82368,5,2
56,48,82518,1,2
128,48,82818,1,4
208,48,83118,1,0
288,48,83418,1,4
368,48,83718,1,0
448,144,84168,2,2,B|448:328,1,180
448,368,84768,2,2,B|368:368|368:264,1,120
368,208,85368,5,4
40,208,85968,1,4
40,120,86268,5,0
96,56,86568,2,2,B|152:24|176:8|256:128,1,180
280,104,87168,2,2,B|344:40|456:24|488:48|488:104|488:264|480:320|448:352|408:368|328:360|320:264|320:216|296:200|224:192|176:232,1,720
40,320,89568,5,2
40,320,89718,1,2
120,320,90018,1,4
200,320,90318,1,0
280,320,90618,1,4
241,245,90918,1,0
240,160,91218,1,4
64,48,91968,5,2
64,48,92118,1,2
64,128,92418,1,4
64,208,92718,1,0
64,288,93018,1,4
64,368,93318,1,0
192,368,93768,2,2,B|384:368,1,180
424,368,94368,2,2,B|568:368,1,120
488,304,94968,5,4
16,304,95568,1,4
16,216,95868,1,0
16,128,96168,2,2,B|16:64|40:32|112:32|144:32,1,180
176,32,96768,2,2,B|408:32|464:64|496:120|488:232|400:168|336:112|248:104|176:112|256:208|400:240|480:288,1,720
408,328,100668,5,0
408,328,100968,1,4
280,328,101418,1,2
280,200,101868,1,0
280,280,102168,1,4
408,280,102618,1,2
408,152,103068,2,2,B|480:80|464:40|384:16|288:24|208:24|208:112|208:192|184:192|144:200|136:152|152:72|144:40|120:16|88:16|72:40|72:176|32:200|8:208|8:248|16:280|96:288|160:224|184:224|208:256|184:304|152:336|72:328,1,840
24,320,105468,5,0
24,232,105768,1,4
112,320,106218,1,2
200,232,106668,1,0
200,144,106968,1,4
72,144,107418,1,2
72,272,107868,2,2,B|72:352|120:352|376:344|424:344|464:328|472:288|472:136|416:152|392:144|336:176|336:224|312:256|256:272|216:272|168:264|120:224|112:152|120:112,1,840
120,64,110268,5,0
200,64,110568,1,4
200,192,111018,1,2
200,320,111468,1,0
280,320,111768,1,4
408,320,112218,1,2
408,192,112668,2,2,B|488:128|488:72|432:72|344:136|288:128|288:80|352:24|352:8|328:8|216:40|168:96|168:144|128:176|72:176|32:144|24:80|24:40|96:16|168:32|160:208|152:272|240:288|328:272,1,840
392,272,115068,5,0
472,272,115368,1,4
472,144,115818,1,2
344,144,116268,1,0
256,144,116568,1,4
128,144,117018,1,2
40,48,117468,2,2,B|32:328|48:344|104:360|168:352|216:344|232:288|216:112|152:104|128:88|128:48|184:24|256:32|280:56|280:112|288:232|288:296|312:328|360:336|416:320|424:272|400:192|344:120,1,1080,2|6
176,120,120768,5,2
88,120,121068,1,2
88,160,121218,2,6,B|88:368,1,180,6|2
168,336,121968,2,2,B|168:192,2,120
248,336,122868,5,8
328,336,123168,1,8
376,272,123468,5,0
456,272,123768,2,0,B|456:128,4,120,4|0|4|0|4
456,352,125268,5,8
368,352,125568,1,8
280,352,125868,1,8
192,352,126168,6,0,B|48:352,3,120,4|0|4|0
64,264,127368,2,6,B|16:192|16:168|72:136|104:176|104:208|168:208|168:168|152:120|112:96|56:104|16:96|16:88|47:66|91:62|128:48|128:48|128:48,1,360,6|2
184,56,128568,2,0,B|320:56,3,120
376,96,129768,2,4,B|232:96,1,120
184,56,130368,5,2
104,56,130668,1,2
64,56,130818,2,6,B|64:264,1,180,6|2
112,304,131568,2,2,B|112:160,2,120
192,304,132468,5,8
272,304,132768,1,8
232,232,133068,5,0
232,152,133368,2,0,B|232:8,4,120,4|0|4|0|4
184,216,134868,5,8
232,280,135168,1,8
280,216,135468,1,8
360,216,135768,6,0,B|504:216,3,120,4|0|4|0
400,184,136968,2,2,B|400:88|392:40|344:16|224:8|144:24,1,360,6|2
208,80,138168,2,0,B|80:80,3,120
88,160,139368,2,4,B|88:304,1,120
256,192,140268,12,2,140868
256,120,141168,5,4
256,160,141318,5,8
256,200,141468,5,4
256,240,141618,5,8
256,280,141768,5,4
256,192,142668,12,2,143268
256,280,143568,5,4
256,240,143718,5,8
256,200,143868,5,4
256,160,144018,5,8
256,120,144168,5,4
256,192,145068,12,2,145668
336,192,145968,5,4
296,192,146118,5,8
256,192,146268,5,4
216,192,146418,5,8
176,192,146568,5,4
256,192,147468,12,2,148068
176,192,148368,5,4
216,192,148518,5,8
256,192,148668,5,4
296,192,148818,5,8
336,192,148968,5,4
104,88,149868,6,2,B|416:88,1,300
440,88,150768,2,6,B|504:88,4,60
448,336,152268,6,2,B|136:336,1,300
104,336,153168,2,6,B|16:336,4,60
104,80,154668,6,2,B|408:80,1,300
448,80,155568,2,6,B|536:80,4,60
256,192,157068,12,4,159468
