osu file format v5

[General]
AudioFilename: Finley - Addio.mp3
AudioLeadIn: 0
PreviewTime: -1
Countdown: 1
SampleSet: Normal
StackLeniency: 0.7
Mode: 0
LetterboxInBreaks: 1

[Metadata]
Title:Addio
Artist:Finley
Creator:xxheroxx
Version:Happy
Source:
Tags:

[Difficulty]
HPDrainRate:2
CircleSize:2
OverallDifficulty:2
SliderMultiplier:1.4
SliderTickRate:4

[Events]
//Background and Video events
0,0,"Be_Happy___Sora_by_Deepsies.jpg"
//Break Periods
2,69984,78274
//Storyboard Layer 0 (Background)
//Storyboard Layer 1 (Failing)
//Storyboard Layer 2 (Passing)
//Storyboard Layer 3 (Foreground)
//Storyboard Sound Samples
//Background Colour Transformations
3,100,163,162,255

[TimingPoints]
168,600,4,1,0,100,1

[Colours]
Combo1 : 255,0,0
Combo2 : 128,255,255
Combo3 : 0,128,255
Combo4 : 255,255,0

[HitObjects]
32,56,10368,2,8,C|456:56,1,420,8|8
464,152,12768,6,10,C|32:152,1,420,10|10
48,248,15168,6,8,C|480:248,1,420
472,344,17568,6,10,C|40:344,1,420
48,248,19968,6,8,C|48:96,1,140
128,104,21168,2,4,B|128:248,1,140
128,328,22368,6,8,C|280:328,1,140
352,328,23568,2,4,B|504:328,1,140
496,240,24768,6,8,C|496:88,1,140
496,16,25968,2,4,B|496:160,1,140
408,160,27168,6,10,B|320:168|304:152|312:112|320:88|296:48|256:40|208:56|176:96|192:168|232:168|288:200|304:224|264:264|224:264|200:270|200:270,1,420
432,288,31368,5,4
336,288,31968,1,0
240,288,32568,1,4
144,288,33168,1,0
48,288,33768,2,6,B|48:136|224:136|224:248|400:248|400:40|176:56,1,560
88,56,36768,6,8,B|88:344,1,280
176,336,38568,2,6,B|496:336|576:288|576:184|440:184|440:88,1,560
384,16,41568,5,0
288,16,42168,2,0,B|136:16,1,140,4|0
56,16,43368,2,6,B|56:304|160:360|232:360,1,420
312,368,45768,6,0,B|480:368,3,140,0|4|0|4
256,192,48168,12,4,50568
40,336,51168,5,0
136,336,51768,1,4
232,336,52368,1,0
328,336,52968,1,4
472,336,53868,5,4
472,336,54168,2,2,B|472:40,1,280,2|6
272,56,56568,6,2,B|272:208,1,140
272,296,57768,2,2,B|96:296|96:96,1,280,6|2
192,120,59568,2,2,B|352:120,1,140,2|6
336,216,60768,5,0
240,216,61368,1,4
144,216,61968,1,0
48,216,62568,1,4
48,72,63468,5,4
48,72,63768,2,2,B|336:72,1,280,2|6
320,264,66168,6,2,B|168:264,1,140
80,264,67368,2,2,B|80:112|288:112,1,280,6|2
272,208,69168,2,2,B|272:352,1,140,2|6
464,48,79968,6,8,B|296:40|296:240|56:224,1,420
56,136,82368,6,10,B|48:48|96:40|208:40|208:152|176:232|112:280|264:296,1,420
344,296,84768,6,8,B|440:296|488:248|472:200|448:160|400:144|280:184|216:184|256:72,1,420
304,24,87168,6,10,B|336:0|448:8|480:96|480:264|448:304|376:344,1,420
312,320,89568,5,8
240,264,90168,1,8
144,264,90768,1,4
72,208,91368,1,4
72,112,91968,5,8
136,48,92568,1,8
224,48,93168,1,4
224,136,93768,1,4
224,224,94368,5,8
160,288,94968,1,8
224,352,95568,1,4
288,288,96168,1,4
376,288,96768,6,10,B|472:288|504:240|504:136|400:136|368:120|336:104|336:32|480:40,1,420
32,56,100968,5,4
128,56,101568,1,0
224,56,102168,1,4
320,56,102768,1,0
416,56,103368,2,6,B|480:128|352:152|320:168|312:208|352:224|464:240|472:272|472:320|384:328|168:320,1,560
80,312,106368,6,0,B|80:144,1,140,0|4
80,80,107568,1,0
168,80,108168,2,6,B|256:80|280:64|304:40|352:24|376:32|368:88|352:120|288:136|264:144|224:152|224:176|256:216|280:224|328:200|360:176|392:136|416:128|448:144|448:184|448:272,1,560
448,328,111168,6,8,B|144:328,1,280
72,328,112968,2,6,B|-8:328|-8:232|24:232|136:232|176:232|176:136|104:136|16:136|16:64|48:16|160:8|208:192,1,560
216,272,115968,6,8,B|216:368|328:368,2,140
256,192,117768,12,4,120168
48,264,120768,5,0
48,160,121368,1,4
48,64,121968,1,0
144,64,122568,1,4
384,64,123468,5,4
384,64,123768,2,2,B|384:352,1,280,2|6
208,264,126168,6,2,B|208:120,1,140
208,24,127368,2,2,B|64:24|64:240,1,280,6|2
160,224,129168,2,2,B|312:224,1,140,2|6
304,128,130368,5,0
208,128,130968,1,4
112,128,131568,1,0
16,128,132168,1,4
16,272,133068,5,4
16,272,133368,2,2,B|304:272,1,280,2|6
264,80,135768,6,2,B|112:80,1,140
24,80,136968,2,2,B|24:224|232:224,1,280,6|2
224,128,138768,2,2,B|224:-24,1,140,2|6
256,192,140268,12,4,141768
432,192,142668,6,2,B|72:192,1,350,2|4
256,192,145068,12,4,146568
80,192,147468,6,2,B|456:192,1,350,2|4
48,48,149868,6,6,B|152:48|152:136|40:144|40:224|144:224|144:280|208:168,1,350
264,40,152268,6,6,B|448:40|464:104|440:144|376:136|352:184|384:248,1,350
328,376,154668,6,6,B|248:328|208:384|184:400|160:376|128:328|104:344|72:392|48:400|16:360|-8:320,1,350
256,192,157068,12,4,159468
