osu file format v4

[General]
AudioFilename: 02. Fine Young Cannibals - She Drives Me Crazy.mp3
AudioLeadIn: 0
AudioHash: 04776b4b751f931fe1f5aa8b46af5439
PreviewTime: -1
Countdown: 1
SampleSet: Normal
EditorBookmarks: 22200,38468,49222,74589,93339,127530,145729

[Metadata]
Title:She Drives Me Crazy
Artist:Fine Young Cannibals
Creator:mtmcl
Version:Normal

[Difficulty]
HPDrainRate:5
CircleSize:6
OverallDifficulty:5
SliderMultiplier: 1.4
SliderTickRate: 1

[Events]
//Background and Video events
//Break Periods
2,38668,48022
2,74789,92139
2,127730,144529
//Storyboard Layer 0 (Background)
//Storyboard Layer 1 (Failing)
//Storyboard Layer 2 (Passing)
//Storyboard Layer 3 (Foreground)
//Storyboard Sound Samples
//Background Colour Transformations
3,100,163,162,255

[TimingPoints]
22175,551.470588235294,4,1,0,100

[Colours]
Combo1 : 0,255,0
Combo2 : 0,0,255
Combo3 : 255,0,0

[HitObjects]
256,320,22175,1,0
160,320,22726,1,0
160,320,23002,1,0
160,32,24380,1,0
224,32,24794,1,0
288,32,25208,1,0
448,160,26311,5,0
448,160,26586,1,0
448,256,27138,1,0
448,256,27413,1,0
160,320,28792,1,0
160,256,29206,1,0
160,192,29619,1,0
384,32,30998,5,0
448,96,31550,1,0
448,96,31825,1,0
384,352,33204,1,0
320,352,33618,1,0
256,352,34031,1,0
96,128,35410,5,0
192,128,35961,1,0
192,128,36237,1,0
256,192,36513,12,0,38443
256,192,49197,5,0
256,288,49748,1,0
32,96,51127,1,0
32,96,51402,1,0
32,96,51678,1,0
352,96,53333,5,0
352,96,53608,2,0,L|352:96|352:192,1,70
352,166,54160,1,0
256,352,55263,1,0
192,192,56090,1,0
384,64,57193,5,0
384,64,57469,2,0,B|384:64|384:96|352:128,1,70
354,125,58020,2,0,B|354:125|384:160|384:192,1,70
383,187,58572,1,0
383,187,58847,1,0
320,352,59675,1,0
160,352,60502,1,0
96,96,61605,5,0
96,96,61880,2,0,B|96:96|128:96|160:128,1,70
157,125,62432,2,0,B|157:125|192:128|192:192,1,70
191,178,62983,1,0
191,178,63259,1,0
320,288,64086,1,0
320,96,64913,1,0
128,224,66016,5,0
128,224,66292,2,0,B|128:224|128:192|160:160,1,70
157,162,66844,2,0,B|157:162|128:128|128:96,1,70
128,99,67395,1,0
128,99,67671,1,0
224,96,68222,5,0
224,96,68498,1,0
320,96,69050,1,0
416,96,69601,2,0,B|416:96|416:192|352:224,1,140
361,218,70428,1,0
256,192,70704,12,0,74564
256,192,93314,2,0,B|256:192|288:192|352:192,2,70
64,64,94969,1,0
224,64,95796,1,0
384,64,96623,1,0
256,256,97726,6,0,B|256:256|256:352,2,70
160,128,99105,1,0
192,96,99380,1,0
288,64,99932,1,0
320,32,100208,1,0
320,192,101035,1,0
96,192,102138,6,0,B|96:192|192:192,1,70
166,192,102689,1,0
384,192,103792,1,0
288,352,104619,1,0
256,192,105447,1,0
64,64,106550,5,0
64,64,106825,1,0
64,64,107101,1,0
224,160,107928,1,0
256,192,108204,1,0
288,224,108480,1,0
320,256,108755,1,0
352,288,109031,1,0
384,64,110134,5,0
384,64,110410,2,0,B|384:64|384:96|352:128,1,70
354,125,110961,2,0,B|354:125|384:160|384:192,1,70
383,187,111513,1,0
383,187,111788,1,0
320,352,112616,1,0
160,352,113443,1,0
96,96,114546,5,0
96,96,114822,2,0,B|96:96|128:96|160:128,1,70
157,125,115373,2,0,B|157:125|192:128|192:192,1,70
191,178,115925,1,0
191,178,116200,1,0
320,288,117027,1,0
320,96,117855,1,0
128,224,118958,5,0
128,224,119233,2,0,B|128:224|128:192|160:160,1,70
157,162,119785,2,0,B|157:162|128:128|128:96,1,70
128,99,120336,1,0
128,99,120612,1,0
224,96,121163,5,0
224,96,121439,1,0
320,96,121991,1,0
416,96,122542,2,0,B|416:96|416:192|352:224,1,140
361,218,123369,1,0
256,192,123645,12,0,127505
256,192,145704,1,0
256,96,146255,1,0
256,96,146531,2,0,B|256:96|288:96|384:160,1,140
320,320,147910,1,0
160,320,148737,1,0
96,320,149151,1,0
32,320,149564,1,0
32,224,150116,5,0
32,128,150667,1,0
32,128,150943,1,0
320,128,152322,1,0
320,288,153149,1,0
256,288,153562,1,0
192,288,153976,1,0
192,192,154527,5,0
288,192,155079,2,0,B|288:192|320:192|352:160,1,70
448,288,156182,1,0
448,192,156733,1,0
288,192,157561,1,0
288,256,157974,1,0
288,320,158388,1,0
288,320,158663,1,0
288,320,158939,1,0
384,320,159491,6,0,B|384:320|384:224,1,70
384,96,160594,1,0
288,96,161145,1,0
288,224,161972,1,0
224,224,162386,1,0
160,224,162800,1,0
160,224,163075,1,0
160,224,163351,2,0,B|160:224|160:128,1,70
160,154,163902,2,0,B|160:154|256:128,1,70
227,135,164454,1,0
227,135,164730,1,0
384,128,165557,5,0
352,288,166384,1,0
128,288,167487,5,0
128,288,167763,2,0,B|128:288|128:192,1,70
128,218,168314,2,0,B|128:218|224:224,1,70
197,222,168866,1,0
197,222,169141,1,0
352,128,169969,1,0
352,288,170796,1,0
128,288,171899,5,0
128,288,172175,2,0,B|128:288|128:192,1,70
128,218,172726,2,0,B|128:218|64:288,1,70
80,269,173277,1,0
80,269,173553,1,0
64,128,174380,5,0
160,128,174932,1,0
256,128,175483,2,0,B|256:128|256:224,1,70
256,198,176035,1,0
256,198,176311,2,0,B|256:198|352:192,1,70
256,192,176862,12,0,180447
384,64,180998,2,0,B|384:64|384:96|352:128,1,70
354,125,181550,2,0,B|354:125|384:160|384:192,1,70
383,187,182101,1,0
383,187,182377,1,0
320,352,183204,1,0
160,352,184031,1,0
96,96,185134,5,0
96,96,185410,2,0,B|96:96|128:96|160:128,1,70
157,125,185961,2,0,B|157:125|192:128|192:192,1,70
191,178,186513,1,0
191,178,186788,1,0
320,288,187616,1,0
320,96,188443,1,0
128,224,189546,5,0
128,224,189822,2,0,B|128:224|128:192|160:160,1,70
157,162,190373,2,0,B|157:162|128:128|128:96,1,70
128,99,190925,1,0
128,99,191200,1,0
224,96,191752,5,0
224,96,192027,1,0
320,96,192579,1,0
416,96,193130,2,0,B|416:96|416:192|352:224,1,140
361,218,193958,1,0
256,192,194233,12,0,198094
