osu file format v14

[General]
AudioFilename: LUCID.mp3
AudioLeadIn: 0
PreviewTime: -1
Countdown: 0
SampleSet: Soft
StackLeniency: 0.4
Mode: 3
LetterboxInBreaks: 0
SpecialStyle: 0
WidescreenStoryboard: 1

[Editor]
DistanceSpacing: 0.8
BeatDivisor: 4
GridSize: 8
TimelineZoom: 1.259999

[Metadata]
Title:4key & 7key Fantasy Last. Vol.
TitleUnicode:4key & 7key Fantasy Last. Vol.
Artist:Final Mania Dimension
ArtistUnicode:Final Mania Dimension
Creator:Un-known
Version:yak_won - LUCID [7key Maximum][Another]
Source:
Tags:
BeatmapID:683951
BeatmapSetID:-1

[Difficulty]
HPDrainRate:8
CircleSize:7
OverallDifficulty:8
ApproachRate:5
SliderMultiplier:1.4
SliderTickRate:1

[Events]
//Background and Video events
0,0,"7.jpg",0,0
//Break Periods
//Storyboard Layer 0 (Background)
//Storyboard Layer 1 (Fail)
//Storyboard Layer 2 (Pass)
//Storyboard Layer 3 (Foreground)
//Storyboard Sound Samples

[TimingPoints]
1299,342.857142857143,4,2,0,100,1,0
2327,-50,4,2,0,100,0,0
2584,-100,4,2,0,100,0,0
8156,-100,4,2,0,100,0,0
13641,-100,4,2,0,100,0,0
30097,-100,4,2,0,100,0,0
35584,-133.333333333333,4,2,0,100,0,1
45870,-100,4,2,0,100,0,0
57526,-100,4,2,0,100,0,0
68497,-100,4,2,0,100,0,0
73984,-100,4,2,0,100,0,1
84956,-100,4,2,0,100,0,0
93183,-100,4,2,0,100,0,0
104154,-100,4,2,0,100,0,0
112384,-100,4,2,0,100,0,1
117184,-100,4,2,0,100,0,0

[HitObjects]
182,192,1299,5,0,0:0:0:0:
256,192,1299,1,0,0:0:0:0:
329,192,1299,1,0,0:0:0:0:
109,192,1470,1,0,0:0:0:0:
329,192,1641,1,0,0:0:0:0:
475,192,1641,1,0,0:0:0:0:
36,192,1641,1,0,0:0:0:0:
182,192,1641,1,0,0:0:0:0:
402,192,1727,1,0,0:0:0:0:
109,192,1727,1,0,0:0:0:0:
329,192,1813,1,0,0:0:0:0:
182,192,1813,1,0,0:0:0:0:
256,192,1899,1,0,0:0:0:0:
182,192,1984,1,0,0:0:0:0:
329,192,1984,1,0,0:0:0:0:
109,192,2070,1,0,0:0:0:0:
402,192,2070,1,0,0:0:0:0:
36,192,2156,1,0,0:0:0:0:
182,192,2156,1,0,0:0:0:0:
329,192,2156,1,0,0:0:0:0:
475,192,2156,1,0,0:0:0:0:
329,192,2327,128,0,2670:0:0:0:0:
182,192,2327,128,0,2670:0:0:0:0:
402,192,2327,1,0,0:0:0:0:
109,192,2327,1,0,0:0:0:0:
402,192,2670,1,0,0:0:0:0:
475,192,2670,1,0,0:0:0:0:
36,192,2670,1,0,0:0:0:0:
109,192,2670,1,0,0:0:0:0:
182,192,2841,1,0,0:0:0:0:
256,192,2841,1,0,0:0:0:0:
329,192,2841,1,0,0:0:0:0:
36,192,3013,1,0,0:0:0:0:
109,192,3013,1,0,0:0:0:0:
402,192,3013,1,0,0:0:0:0:
475,192,3013,1,0,0:0:0:0:
182,192,3013,1,0,0:0:0:0:
329,192,3184,1,0,0:0:0:0:
402,192,3184,1,0,0:0:0:0:
475,192,3184,1,0,0:0:0:0:
36,192,3184,1,0,0:0:0:0:
109,192,3184,1,0,0:0:0:0:
256,192,3356,1,0,0:0:0:0:
329,192,3356,1,0,0:0:0:0:
402,192,3356,1,0,0:0:0:0:
475,192,3356,1,0,0:0:0:0:
182,192,3356,1,0,0:0:0:0:
36,192,3527,1,0,0:0:0:0:
109,192,3527,1,0,0:0:0:0:
182,192,3527,1,0,0:0:0:0:
475,192,3527,1,0,0:0:0:0:
256,192,3527,1,0,0:0:0:0:
182,192,3699,1,0,0:0:0:0:
109,192,3699,1,0,0:0:0:0:
36,192,3699,1,0,0:0:0:0:
475,192,3699,1,0,0:0:0:0:
402,192,3699,1,0,0:0:0:0:
329,192,3870,1,0,0:0:0:0:
402,192,3870,1,0,0:0:0:0:
182,192,3870,1,0,0:0:0:0:
256,192,3870,1,0,0:0:0:0:
475,192,3870,1,0,0:0:0:0:
36,192,4041,1,0,0:0:0:0:
475,192,4041,1,0,0:0:0:0:
109,192,4099,1,0,0:0:0:0:
402,192,4099,1,0,0:0:0:0:
182,192,4156,1,0,0:0:0:0:
329,192,4156,1,0,0:0:0:0:
256,192,4213,1,0,0:0:0:0:
329,192,4270,1,0,0:0:0:0:
182,192,4270,1,0,0:0:0:0:
402,192,4327,1,0,0:0:0:0:
109,192,4327,1,0,0:0:0:0:
475,192,4384,1,0,0:0:0:0:
36,192,4384,1,0,0:0:0:0:
402,192,4441,1,0,0:0:0:0:
329,192,4499,1,0,0:0:0:0:
256,192,4556,1,0,0:0:0:0:
182,192,4613,1,0,0:0:0:0:
109,192,4670,1,0,0:0:0:0:
182,192,4727,1,0,0:0:0:0:
256,192,4784,1,0,0:0:0:0:
329,192,4841,1,0,0:0:0:0:
402,192,4899,1,0,0:0:0:0:
36,192,4956,1,0,0:0:0:0:
475,192,4956,1,0,0:0:0:0:
109,192,5013,1,0,0:0:0:0:
402,192,5013,1,0,0:0:0:0:
182,192,5070,1,0,0:0:0:0:
329,192,5070,1,0,0:0:0:0:
256,192,5127,1,0,0:0:0:0:
182,192,5184,1,0,0:0:0:0:
329,192,5184,1,0,0:0:0:0:
109,192,5241,1,0,0:0:0:0:
402,192,5241,1,0,0:0:0:0:
36,192,5299,1,0,0:0:0:0:
475,192,5299,1,0,0:0:0:0:
256,192,5356,1,0,0:0:0:0:
329,192,5413,1,0,0:0:0:0:
182,192,5413,1,0,0:0:0:0:
402,192,5470,1,0,0:0:0:0:
109,192,5470,1,0,0:0:0:0:
475,192,5527,1,0,0:0:0:0:
36,192,5527,1,0,0:0:0:0:
402,192,5584,1,0,0:0:0:0:
109,192,5584,1,0,0:0:0:0:
329,192,5641,1,0,0:0:0:0:
182,192,5641,1,0,0:0:0:0:
256,192,5699,1,0,0:0:0:0:
329,192,5756,1,0,0:0:0:0:
182,192,5756,1,0,0:0:0:0:
402,192,5813,1,0,0:0:0:0:
109,192,5813,1,0,0:0:0:0:
475,192,5870,1,0,0:0:0:0:
36,192,5870,1,0,0:0:0:0:
109,192,5927,1,0,0:0:0:0:
402,192,5927,1,0,0:0:0:0:
182,192,5984,1,0,0:0:0:0:
329,192,5984,1,0,0:0:0:0:
256,192,6041,1,0,0:0:0:0:
182,192,6099,1,0,0:0:0:0:
329,192,6099,1,0,0:0:0:0:
109,192,6156,1,0,0:0:0:0:
402,192,6156,1,0,0:0:0:0:
36,192,6213,1,0,0:0:0:0:
475,192,6213,1,0,0:0:0:0:
256,192,6270,1,0,0:0:0:0:
329,192,6327,1,0,0:0:0:0:
402,192,6384,1,0,0:0:0:0:
475,192,6441,1,0,0:0:0:0:
402,192,6499,1,0,0:0:0:0:
329,192,6556,1,0,0:0:0:0:
256,192,6613,1,0,0:0:0:0:
182,192,6670,1,0,0:0:0:0:
109,192,6727,1,0,0:0:0:0:
36,192,6784,1,0,0:0:0:0:
475,192,6784,1,0,0:0:0:0:
109,192,6841,1,0,0:0:0:0:
402,192,6841,1,0,0:0:0:0:
182,192,6899,1,0,0:0:0:0:
329,192,6899,1,0,0:0:0:0:
256,192,6956,1,0,0:0:0:0:
329,192,7013,1,0,0:0:0:0:
182,192,7013,1,0,0:0:0:0:
402,192,7070,1,0,0:0:0:0:
109,192,7070,1,0,0:0:0:0:
475,192,7127,1,0,0:0:0:0:
36,192,7127,1,0,0:0:0:0:
109,192,7184,1,0,0:0:0:0:
402,192,7184,1,0,0:0:0:0:
182,192,7241,1,0,0:0:0:0:
329,192,7241,1,0,0:0:0:0:
256,192,7299,1,0,0:0:0:0:
182,192,7356,1,0,0:0:0:0:
329,192,7356,1,0,0:0:0:0:
109,192,7413,1,0,0:0:0:0:
402,192,7413,1,0,0:0:0:0:
475,192,7470,128,0,7813:0:0:0:0:
329,192,7470,128,0,7813:0:0:0:0:
182,192,7470,128,0,7813:0:0:0:0:
36,192,7470,128,0,7813:0:0:0:0:
256,192,7813,128,0,8156:0:0:0:0:
402,192,7813,128,0,8156:0:0:0:0:
109,192,7813,128,0,8156:0:0:0:0:
475,192,8156,1,0,0:0:0:0:
36,192,8156,1,0,0:0:0:0:
402,192,8241,1,0,0:0:0:0:
109,192,8241,1,0,0:0:0:0:
329,192,8327,1,0,0:0:0:0:
182,192,8327,1,0,0:0:0:0:
256,192,8413,1,0,0:0:0:0:
402,192,8499,1,0,0:0:0:0:
475,192,8499,1,0,0:0:0:0:
329,192,8584,1,0,0:0:0:0:
256,192,8670,1,0,0:0:0:0:
402,192,8670,1,0,0:0:0:0:
329,192,8756,1,0,0:0:0:0:
256,192,8841,1,0,0:0:0:0:
329,192,8927,1,0,0:0:0:0:
36,192,9013,1,0,0:0:0:0:
475,192,9013,1,0,0:0:0:0:
109,192,9099,1,0,0:0:0:0:
402,192,9099,1,0,0:0:0:0:
182,192,9184,1,0,0:0:0:0:
329,192,9184,1,0,0:0:0:0:
109,192,9270,1,0,0:0:0:0:
402,192,9270,1,0,0:0:0:0:
36,192,9356,1,0,0:0:0:0:
475,192,9356,1,0,0:0:0:0:
182,192,9441,1,0,0:0:0:0:
256,192,9527,1,0,0:0:0:0:
182,192,9613,1,0,0:0:0:0:
109,192,9699,1,0,0:0:0:0:
36,192,9784,1,0,0:0:0:0:
109,192,9870,1,0,0:0:0:0:
182,192,9956,1,0,0:0:0:0:
256,192,10041,1,0,0:0:0:0:
329,192,10041,1,0,0:0:0:0:
182,192,10127,1,0,0:0:0:0:
475,192,10213,1,0,0:0:0:0:
402,192,10299,1,0,0:0:0:0:
329,192,10384,1,0,0:0:0:0:
475,192,10470,1,0,0:0:0:0:
402,192,10556,1,0,0:0:0:0:
329,192,10556,1,0,0:0:0:0:
109,192,10556,1,0,0:0:0:0:
182,192,10556,1,0,0:0:0:0:
256,192,10641,1,0,0:0:0:0:
329,192,10727,1,0,0:0:0:0:
182,192,10727,1,0,0:0:0:0:
402,192,10813,1,0,0:0:0:0:
109,192,10813,1,0,0:0:0:0:
256,192,10899,1,0,0:0:0:0:
36,192,10984,1,0,0:0:0:0:
475,192,10984,1,0,0:0:0:0:
109,192,11070,1,0,0:0:0:0:
402,192,11070,1,0,0:0:0:0:
182,192,11156,1,0,0:0:0:0:
329,192,11156,1,0,0:0:0:0:
475,192,11241,1,0,0:0:0:0:
36,192,11241,1,0,0:0:0:0:
402,192,11327,1,0,0:0:0:0:
109,192,11327,1,0,0:0:0:0:
182,192,11413,1,0,0:0:0:0:
329,192,11413,1,0,0:0:0:0:
256,192,11499,1,0,0:0:0:0:
182,192,11584,1,0,0:0:0:0:
329,192,11584,1,0,0:0:0:0:
402,192,11670,1,0,0:0:0:0:
109,192,11670,1,0,0:0:0:0:
475,192,11756,1,0,0:0:0:0:
36,192,11756,1,0,0:0:0:0:
182,192,11841,1,0,0:0:0:0:
256,192,11927,1,0,0:0:0:0:
402,192,11927,1,0,0:0:0:0:
329,192,12013,1,0,0:0:0:0:
182,192,12099,1,0,0:0:0:0:
256,192,12184,1,0,0:0:0:0:
402,192,12270,1,0,0:0:0:0:
329,192,12356,1,0,0:0:0:0:
402,192,12441,1,0,0:0:0:0:
109,192,12527,1,0,0:0:0:0:
182,192,12613,1,0,0:0:0:0:
256,192,12699,1,0,0:0:0:0:
475,192,12784,1,0,0:0:0:0:
402,192,12870,1,0,0:0:0:0:
329,192,12956,1,0,0:0:0:0:
475,192,12956,1,0,0:0:0:0:
256,192,13041,1,0,0:0:0:0:
329,192,13127,1,0,0:0:0:0:
402,192,13213,1,0,0:0:0:0:
36,192,13299,128,0,13641:0:0:0:0:
475,192,13299,128,0,13641:0:0:0:0:
256,192,13641,1,0,0:0:0:0:
402,192,13641,1,0,0:0:0:0:
109,192,13641,1,0,0:0:0:0:
329,192,13727,1,0,0:0:0:0:
182,192,13727,1,0,0:0:0:0:
256,192,13813,1,0,0:0:0:0:
182,192,13899,1,0,0:0:0:0:
329,192,13899,1,0,0:0:0:0:
109,192,13984,1,0,0:0:0:0:
402,192,13984,1,0,0:0:0:0:
475,192,14070,1,0,0:0:0:0:
36,192,14070,1,0,0:0:0:0:
402,192,14156,1,0,0:0:0:0:
329,192,14241,1,0,0:0:0:0:
256,192,14327,1,0,0:0:0:0:
182,192,14413,1,0,0:0:0:0:
109,192,14499,1,0,0:0:0:0:
36,192,14584,1,0,0:0:0:0:
475,192,14584,1,0,0:0:0:0:
109,192,14670,1,0,0:0:0:0:
402,192,14670,1,0,0:0:0:0:
182,192,14756,1,0,0:0:0:0:
329,192,14756,1,0,0:0:0:0:
256,192,14841,1,0,0:0:0:0:
329,192,14927,1,0,0:0:0:0:
182,192,14927,1,0,0:0:0:0:
402,192,15013,1,0,0:0:0:0:
109,192,15013,1,0,0:0:0:0:
475,192,15099,1,0,0:0:0:0:
36,192,15099,1,0,0:0:0:0:
402,192,15184,1,0,0:0:0:0:
329,192,15270,1,0,0:0:0:0:
256,192,15356,1,0,0:0:0:0:
182,192,15441,1,0,0:0:0:0:
109,192,15527,1,0,0:0:0:0:
36,192,15613,1,0,0:0:0:0:
475,192,15613,1,0,0:0:0:0:
109,192,15699,1,0,0:0:0:0:
402,192,15699,1,0,0:0:0:0:
182,192,15784,1,0,0:0:0:0:
329,192,15784,1,0,0:0:0:0:
256,192,15870,1,0,0:0:0:0:
329,192,15956,1,0,0:0:0:0:
182,192,15956,1,0,0:0:0:0:
402,192,16041,1,0,0:0:0:0:
109,192,16041,1,0,0:0:0:0:
475,192,16127,1,0,0:0:0:0:
36,192,16127,1,0,0:0:0:0:
109,192,16213,1,0,0:0:0:0:
402,192,16213,1,0,0:0:0:0:
182,192,16299,1,0,0:0:0:0:
329,192,16299,1,0,0:0:0:0:
256,192,16384,1,0,0:0:0:0:
475,192,16384,1,0,0:0:0:0:
36,192,16384,1,0,0:0:0:0:
402,192,16470,1,0,0:0:0:0:
109,192,16470,1,0,0:0:0:0:
329,192,16556,1,0,0:0:0:0:
182,192,16556,1,0,0:0:0:0:
475,192,16641,1,0,0:0:0:0:
36,192,16641,1,0,0:0:0:0:
402,192,16727,1,0,0:0:0:0:
109,192,16727,1,0,0:0:0:0:
329,192,16813,1,0,0:0:0:0:
182,192,16813,1,0,0:0:0:0:
256,192,16899,1,0,0:0:0:0:
182,192,16984,1,0,0:0:0:0:
329,192,16984,1,0,0:0:0:0:
109,192,17070,1,0,0:0:0:0:
402,192,17070,1,0,0:0:0:0:
36,192,17156,1,0,0:0:0:0:
475,192,17156,1,0,0:0:0:0:
109,192,17241,1,0,0:0:0:0:
402,192,17241,1,0,0:0:0:0:
182,192,17327,1,0,0:0:0:0:
329,192,17327,1,0,0:0:0:0:
256,192,17413,1,0,0:0:0:0:
475,192,17413,1,0,0:0:0:0:
36,192,17413,1,0,0:0:0:0:
402,192,17499,1,0,0:0:0:0:
109,192,17499,1,0,0:0:0:0:
329,192,17584,1,0,0:0:0:0:
182,192,17584,1,0,0:0:0:0:
256,192,17670,1,0,0:0:0:0:
182,192,17756,1,0,0:0:0:0:
329,192,17756,1,0,0:0:0:0:
109,192,17841,1,0,0:0:0:0:
402,192,17841,1,0,0:0:0:0:
36,192,17927,1,0,0:0:0:0:
475,192,17927,1,0,0:0:0:0:
402,192,18013,1,0,0:0:0:0:
109,192,18013,1,0,0:0:0:0:
329,192,18099,1,0,0:0:0:0:
182,192,18099,1,0,0:0:0:0:
256,192,18184,1,0,0:0:0:0:
329,192,18270,1,0,0:0:0:0:
182,192,18270,1,0,0:0:0:0:
402,192,18356,1,0,0:0:0:0:
109,192,18356,1,0,0:0:0:0:
329,192,18441,128,0,18784:0:0:0:0:
475,192,18441,128,0,18784:0:0:0:0:
182,192,18441,128,0,18784:0:0:0:0:
36,192,18441,128,0,18784:0:0:0:0:
109,192,18784,128,0,19127:0:0:0:0:
256,192,18784,128,0,19127:0:0:0:0:
402,192,18784,128,0,19127:0:0:0:0:
475,192,19127,1,0,0:0:0:0:
36,192,19127,1,0,0:0:0:0:
182,192,19213,1,0,0:0:0:0:
329,192,19213,1,0,0:0:0:0:
256,192,19299,1,0,0:0:0:0:
329,192,19384,1,0,0:0:0:0:
182,192,19384,1,0,0:0:0:0:
36,192,19470,1,0,0:0:0:0:
109,192,19470,1,0,0:0:0:0:
402,192,19470,1,0,0:0:0:0:
475,192,19470,1,0,0:0:0:0:
329,192,19556,1,0,0:0:0:0:
36,192,19641,1,0,0:0:0:0:
109,192,19699,1,0,0:0:0:0:
182,192,19756,1,0,0:0:0:0:
256,192,19813,1,0,0:0:0:0:
329,192,19870,1,0,0:0:0:0:
402,192,19927,1,0,0:0:0:0:
475,192,19984,1,0,0:0:0:0:
402,192,20041,1,0,0:0:0:0:
329,192,20099,1,0,0:0:0:0:
256,192,20156,1,0,0:0:0:0:
182,192,20213,1,0,0:0:0:0:
329,192,20213,1,0,0:0:0:0:
109,192,20270,1,0,0:0:0:0:
402,192,20270,1,0,0:0:0:0:
36,192,20327,1,0,0:0:0:0:
475,192,20327,1,0,0:0:0:0:
109,192,20384,1,0,0:0:0:0:
402,192,20384,1,0,0:0:0:0:
182,192,20441,1,0,0:0:0:0:
329,192,20441,1,0,0:0:0:0:
256,192,20499,1,0,0:0:0:0:
329,192,20556,1,0,0:0:0:0:
402,192,20613,1,0,0:0:0:0:
475,192,20670,1,0,0:0:0:0:
402,192,20727,1,0,0:0:0:0:
329,192,20784,1,0,0:0:0:0:
256,192,20841,1,0,0:0:0:0:
182,192,20899,1,0,0:0:0:0:
109,192,20956,1,0,0:0:0:0:
36,192,21013,1,0,0:0:0:0:
109,192,21070,1,0,0:0:0:0:
182,192,21127,1,0,0:0:0:0:
256,192,21184,1,0,0:0:0:0:
329,192,21241,1,0,0:0:0:0:
182,192,21241,1,0,0:0:0:0:
402,192,21299,1,0,0:0:0:0:
109,192,21299,1,0,0:0:0:0:
475,192,21356,1,0,0:0:0:0:
36,192,21356,1,0,0:0:0:0:
402,192,21413,1,0,0:0:0:0:
109,192,21413,1,0,0:0:0:0:
329,192,21470,1,0,0:0:0:0:
182,192,21470,1,0,0:0:0:0:
256,192,21527,1,0,0:0:0:0:
182,192,21584,1,0,0:0:0:0:
109,192,21641,1,0,0:0:0:0:
36,192,21699,1,0,0:0:0:0:
109,192,21756,1,0,0:0:0:0:
182,192,21813,1,0,0:0:0:0:
256,192,21870,1,0,0:0:0:0:
329,192,21927,1,0,0:0:0:0:
402,192,21984,1,0,0:0:0:0:
475,192,22041,1,0,0:0:0:0:
402,192,22099,1,0,0:0:0:0:
329,192,22156,1,0,0:0:0:0:
256,192,22213,1,0,0:0:0:0:
182,192,22270,1,0,0:0:0:0:
109,192,22327,1,0,0:0:0:0:
36,192,22384,1,0,0:0:0:0:
109,192,22441,1,0,0:0:0:0:
182,192,22499,1,0,0:0:0:0:
256,192,22556,1,0,0:0:0:0:
329,192,22613,1,0,0:0:0:0:
402,192,22670,1,0,0:0:0:0:
475,192,22727,1,0,0:0:0:0:
402,192,22784,1,0,0:0:0:0:
329,192,22841,1,0,0:0:0:0:
256,192,22899,1,0,0:0:0:0:
182,192,22956,1,0,0:0:0:0:
109,192,23013,1,0,0:0:0:0:
36,192,23070,1,0,0:0:0:0:
109,192,23127,1,0,0:0:0:0:
182,192,23184,1,0,0:0:0:0:
256,192,23241,1,0,0:0:0:0:
329,192,23299,1,0,0:0:0:0:
182,192,23299,1,0,0:0:0:0:
402,192,23356,1,0,0:0:0:0:
109,192,23356,1,0,0:0:0:0:
475,192,23413,1,0,0:0:0:0:
36,192,23413,1,0,0:0:0:0:
402,192,23470,1,0,0:0:0:0:
109,192,23470,1,0,0:0:0:0:
329,192,23527,1,0,0:0:0:0:
182,192,23527,1,0,0:0:0:0:
256,192,23584,1,0,0:0:0:0:
182,192,23641,1,0,0:0:0:0:
109,192,23699,1,0,0:0:0:0:
36,192,23756,1,0,0:0:0:0:
109,192,23813,1,0,0:0:0:0:
182,192,23870,1,0,0:0:0:0:
256,192,23927,1,0,0:0:0:0:
329,192,23984,1,0,0:0:0:0:
402,192,24041,1,0,0:0:0:0:
475,192,24099,1,0,0:0:0:0:
36,192,24156,1,0,0:0:0:0:
109,192,24213,1,0,0:0:0:0:
402,192,24213,1,0,0:0:0:0:
182,192,24270,1,0,0:0:0:0:
329,192,24270,1,0,0:0:0:0:
256,192,24327,1,0,0:0:0:0:
329,192,24384,1,0,0:0:0:0:
182,192,24384,1,0,0:0:0:0:
402,192,24441,1,0,0:0:0:0:
109,192,24441,1,0,0:0:0:0:
475,192,24499,1,0,0:0:0:0:
36,192,24499,1,0,0:0:0:0:
402,192,24556,1,0,0:0:0:0:
329,192,24613,1,0,0:0:0:0:
256,192,24670,1,0,0:0:0:0:
182,192,24727,1,0,0:0:0:0:
109,192,24784,1,0,0:0:0:0:
36,192,24841,1,0,0:0:0:0:
109,192,24899,1,0,0:0:0:0:
182,192,24956,1,0,0:0:0:0:
256,192,25013,1,0,0:0:0:0:
329,192,25070,1,0,0:0:0:0:
402,192,25127,1,0,0:0:0:0:
475,192,25184,1,0,0:0:0:0:
402,192,25241,1,0,0:0:0:0:
475,192,25299,1,0,0:0:0:0:
402,192,25356,1,0,0:0:0:0:
329,192,25413,1,0,0:0:0:0:
256,192,25470,1,0,0:0:0:0:
182,192,25527,1,0,0:0:0:0:
109,192,25584,1,0,0:0:0:0:
36,192,25641,1,0,0:0:0:0:
475,192,25699,1,0,0:0:0:0:
402,192,25756,1,0,0:0:0:0:
109,192,25756,1,0,0:0:0:0:
329,192,25813,1,0,0:0:0:0:
182,192,25813,1,0,0:0:0:0:
256,192,25870,1,0,0:0:0:0:
182,192,25927,1,0,0:0:0:0:
329,192,25927,1,0,0:0:0:0:
109,192,25984,1,0,0:0:0:0:
402,192,25984,1,0,0:0:0:0:
36,192,26041,1,0,0:0:0:0:
475,192,26099,1,0,0:0:0:0:
402,192,26156,1,0,0:0:0:0:
329,192,26213,1,0,0:0:0:0:
256,192,26270,1,0,0:0:0:0:
182,192,26327,1,0,0:0:0:0:
109,192,26384,1,0,0:0:0:0:
36,192,26441,1,0,0:0:0:0:
109,192,26499,1,0,0:0:0:0:
182,192,26556,1,0,0:0:0:0:
256,192,26613,1,0,0:0:0:0:
329,192,26670,1,0,0:0:0:0:
402,192,26727,1,0,0:0:0:0:
475,192,26784,1,0,0:0:0:0:
36,192,26841,1,0,0:0:0:0:
182,192,26841,1,0,0:0:0:0:
109,192,26899,1,0,0:0:0:0:
256,192,26899,1,0,0:0:0:0:
182,192,26956,1,0,0:0:0:0:
329,192,26956,1,0,0:0:0:0:
256,192,27013,1,0,0:0:0:0:
402,192,27013,1,0,0:0:0:0:
329,192,27070,1,0,0:0:0:0:
475,192,27070,1,0,0:0:0:0:
402,192,27127,1,0,0:0:0:0:
475,192,27184,1,0,0:0:0:0:
329,192,27184,1,0,0:0:0:0:
402,192,27241,1,0,0:0:0:0:
256,192,27241,1,0,0:0:0:0:
329,192,27299,1,0,0:0:0:0:
182,192,27299,1,0,0:0:0:0:
256,192,27356,1,0,0:0:0:0:
109,192,27356,1,0,0:0:0:0:
182,192,27413,1,0,0:0:0:0:
36,192,27413,1,0,0:0:0:0:
109,192,27470,1,0,0:0:0:0:
36,192,27527,1,0,0:0:0:0:
182,192,27527,1,0,0:0:0:0:
109,192,27584,1,0,0:0:0:0:
256,192,27584,1,0,0:0:0:0:
182,192,27641,1,0,0:0:0:0:
329,192,27641,1,0,0:0:0:0:
256,192,27699,1,0,0:0:0:0:
402,192,27699,1,0,0:0:0:0:
329,192,27756,1,0,0:0:0:0:
475,192,27756,1,0,0:0:0:0:
402,192,27813,1,0,0:0:0:0:
475,192,27870,1,0,0:0:0:0:
329,192,27870,1,0,0:0:0:0:
402,192,27927,1,0,0:0:0:0:
256,192,27927,1,0,0:0:0:0:
329,192,27984,1,0,0:0:0:0:
182,192,27984,1,0,0:0:0:0:
256,192,28041,1,0,0:0:0:0:
109,192,28041,1,0,0:0:0:0:
182,192,28099,1,0,0:0:0:0:
36,192,28099,1,0,0:0:0:0:
109,192,28156,1,0,0:0:0:0:
36,192,28213,1,0,0:0:0:0:
182,192,28213,1,0,0:0:0:0:
109,192,28270,1,0,0:0:0:0:
256,192,28270,1,0,0:0:0:0:
182,192,28327,1,0,0:0:0:0:
329,192,28327,1,0,0:0:0:0:
256,192,28384,1,0,0:0:0:0:
402,192,28384,1,0,0:0:0:0:
329,192,28441,1,0,0:0:0:0:
475,192,28441,1,0,0:0:0:0:
402,192,28499,1,0,0:0:0:0:
475,192,28556,1,0,0:0:0:0:
402,192,28613,1,0,0:0:0:0:
329,192,28670,1,0,0:0:0:0:
36,192,28727,1,0,0:0:0:0:
109,192,28727,1,0,0:0:0:0:
256,192,28813,1,0,0:0:0:0:
182,192,28899,1,0,0:0:0:0:
329,192,28899,1,0,0:0:0:0:
402,192,28984,1,0,0:0:0:0:
256,192,29070,1,0,0:0:0:0:
329,192,29070,1,0,0:0:0:0:
475,192,29070,1,0,0:0:0:0:
402,192,29156,1,0,0:0:0:0:
256,192,29241,1,0,0:0:0:0:
329,192,29241,1,0,0:0:0:0:
475,192,29327,1,0,0:0:0:0:
402,192,29413,1,0,0:0:0:0:
256,192,29413,1,0,0:0:0:0:
109,192,29499,1,0,0:0:0:0:
182,192,29584,1,0,0:0:0:0:
256,192,29670,1,0,0:0:0:0:
36,192,29756,1,0,0:0:0:0:
109,192,29756,1,0,0:0:0:0:
182,192,29841,1,0,0:0:0:0:
109,192,29927,1,0,0:0:0:0:
36,192,30013,1,0,0:0:0:0:
329,192,30099,1,0,0:0:0:0:
402,192,30099,1,0,0:0:0:0:
475,192,30099,1,0,0:0:0:0:
256,192,30099,1,0,0:0:0:0:
182,192,30099,1,0,0:0:0:0:
329,192,30270,1,0,0:0:0:0:
402,192,30270,1,0,0:0:0:0:
475,192,30270,1,0,0:0:0:0:
36,192,30270,1,0,0:0:0:0:
109,192,30270,1,0,0:0:0:0:
402,192,30441,1,0,0:0:0:0:
475,192,30441,1,0,0:0:0:0:
36,192,30441,1,0,0:0:0:0:
109,192,30441,1,0,0:0:0:0:
182,192,30441,1,0,0:0:0:0:
475,192,30613,1,0,0:0:0:0:
182,192,30613,1,0,0:0:0:0:
109,192,30613,1,0,0:0:0:0:
36,192,30613,1,0,0:0:0:0:
256,192,30613,1,0,0:0:0:0:
36,192,30784,1,0,0:0:0:0:
109,192,30784,1,0,0:0:0:0:
182,192,30784,1,0,0:0:0:0:
256,192,30784,1,0,0:0:0:0:
329,192,30784,1,0,0:0:0:0:
329,192,30956,1,0,0:0:0:0:
402,192,30956,1,0,0:0:0:0:
475,192,30956,1,0,0:0:0:0:
36,192,30956,1,0,0:0:0:0:
256,192,30956,1,0,0:0:0:0:
402,192,31127,1,0,0:0:0:0:
475,192,31127,1,0,0:0:0:0:
36,192,31127,1,0,0:0:0:0:
109,192,31127,1,0,0:0:0:0:
182,192,31127,1,0,0:0:0:0:
475,192,31299,1,0,0:0:0:0:
256,192,31299,1,0,0:0:0:0:
329,192,31299,1,0,0:0:0:0:
402,192,31299,1,0,0:0:0:0:
182,192,31299,1,0,0:0:0:0:
329,192,31470,1,0,0:0:0:0:
182,192,31470,1,0,0:0:0:0:
402,192,31527,1,0,0:0:0:0:
109,192,31527,1,0,0:0:0:0:
475,192,31584,1,0,0:0:0:0:
36,192,31584,1,0,0:0:0:0:
402,192,31641,1,0,0:0:0:0:
109,192,31641,1,0,0:0:0:0:
329,192,31699,1,0,0:0:0:0:
182,192,31699,1,0,0:0:0:0:
256,192,31756,1,0,0:0:0:0:
182,192,31813,1,0,0:0:0:0:
109,192,31870,1,0,0:0:0:0:
36,192,31927,1,0,0:0:0:0:
109,192,31984,1,0,0:0:0:0:
182,192,32041,1,0,0:0:0:0:
256,192,32099,1,0,0:0:0:0:
329,192,32156,1,0,0:0:0:0:
402,192,32213,1,0,0:0:0:0:
475,192,32270,1,0,0:0:0:0:
329,192,32270,1,0,0:0:0:0:
402,192,32327,1,0,0:0:0:0:
256,192,32327,1,0,0:0:0:0:
329,192,32384,1,0,0:0:0:0:
182,192,32384,1,0,0:0:0:0:
256,192,32441,1,0,0:0:0:0:
109,192,32441,1,0,0:0:0:0:
182,192,32499,1,0,0:0:0:0:
36,192,32499,1,0,0:0:0:0:
109,192,32556,1,0,0:0:0:0:
36,192,32613,1,0,0:0:0:0:
109,192,32670,1,0,0:0:0:0:
182,192,32727,1,0,0:0:0:0:
256,192,32784,1,0,0:0:0:0:
329,192,32841,1,0,0:0:0:0:
182,192,32841,1,0,0:0:0:0:
402,192,32899,1,0,0:0:0:0:
109,192,32899,1,0,0:0:0:0:
475,192,32956,1,0,0:0:0:0:
36,192,32956,1,0,0:0:0:0:
402,192,33013,1,0,0:0:0:0:
109,192,33013,1,0,0:0:0:0:
329,192,33070,1,0,0:0:0:0:
182,192,33070,1,0,0:0:0:0:
256,192,33127,1,0,0:0:0:0:
182,192,33184,1,0,0:0:0:0:
109,192,33241,1,0,0:0:0:0:
36,192,33299,1,0,0:0:0:0:
109,192,33356,1,0,0:0:0:0:
182,192,33413,1,0,0:0:0:0:
256,192,33470,1,0,0:0:0:0:
329,192,33527,1,0,0:0:0:0:
182,192,33527,1,0,0:0:0:0:
402,192,33584,1,0,0:0:0:0:
109,192,33584,1,0,0:0:0:0:
475,192,33641,1,0,0:0:0:0:
36,192,33641,1,0,0:0:0:0:
402,192,33699,1,0,0:0:0:0:
109,192,33699,1,0,0:0:0:0:
329,192,33756,1,0,0:0:0:0:
182,192,33756,1,0,0:0:0:0:
256,192,33813,1,0,0:0:0:0:
182,192,33870,1,0,0:0:0:0:
109,192,33927,1,0,0:0:0:0:
36,192,33984,1,0,0:0:0:0:
109,192,34041,1,0,0:0:0:0:
182,192,34099,1,0,0:0:0:0:
256,192,34156,1,0,0:0:0:0:
329,192,34213,1,0,0:0:0:0:
402,192,34270,1,0,0:0:0:0:
475,192,34327,1,0,0:0:0:0:
402,192,34384,1,0,0:0:0:0:
329,192,34441,1,0,0:0:0:0:
256,192,34499,1,0,0:0:0:0:
182,192,34556,1,0,0:0:0:0:
329,192,34556,1,0,0:0:0:0:
109,192,34613,1,0,0:0:0:0:
402,192,34613,1,0,0:0:0:0:
36,192,34670,1,0,0:0:0:0:
475,192,34670,1,0,0:0:0:0:
109,192,34727,1,0,0:0:0:0:
402,192,34727,1,0,0:0:0:0:
182,192,34784,1,0,0:0:0:0:
329,192,34784,1,0,0:0:0:0:
256,192,34841,1,0,0:0:0:0:
329,192,34899,128,0,35241:0:0:0:0:
182,192,34899,128,0,35241:0:0:0:0:
256,192,35241,128,0,36270:0:0:0:0:
109,192,35241,128,0,36270:0:0:0:0:
402,192,35241,128,0,36270:0:0:0:0:
182,192,35499,1,0,0:0:0:0:
475,192,35584,128,0,36270:0:0:0:0:
36,192,35584,128,0,36270:0:0:0:0:
329,192,35584,128,0,36613:0:0:0:0:
182,192,36270,128,0,36956:0:0:0:0:
109,192,36527,1,0,0:0:0:0:
256,192,36613,128,0,37641:0:0:0:0:
402,192,36956,128,0,39699:0:0:0:0:
475,192,36956,128,0,37641:0:0:0:0:
36,192,36956,128,0,37641:0:0:0:0:
329,192,36956,128,0,38327:0:0:0:0:
109,192,36956,128,0,38327:0:0:0:0:
182,192,37556,1,0,0:0:0:0:
256,192,38241,1,0,0:0:0:0:
36,192,38327,128,0,39699:0:0:0:0:
475,192,38327,128,0,39699:0:0:0:0:
182,192,38327,128,0,40041:0:0:0:0:
256,192,39613,1,0,0:0:0:0:
109,192,39613,1,0,0:0:0:0:
329,192,39699,128,0,40041:0:0:0:0:
402,192,39956,1,0,0:0:0:0:
475,192,40041,128,0,40384:0:0:0:0:
256,192,40041,1,0,0:0:0:0:
36,192,40041,128,0,40384:0:0:0:0:
329,192,40299,1,0,0:0:0:0:
182,192,40299,1,0,0:0:0:0:
402,192,40384,128,0,40727:0:0:0:0:
109,192,40384,128,0,40727:0:0:0:0:
329,192,40641,1,0,0:0:0:0:
182,192,40641,1,0,0:0:0:0:
475,192,40727,128,0,41070:0:0:0:0:
36,192,40727,128,0,41070:0:0:0:0:
402,192,40984,1,0,0:0:0:0:
109,192,40984,1,0,0:0:0:0:
182,192,41070,128,0,42099:0:0:0:0:
329,192,41070,128,0,41756:0:0:0:0:
475,192,41670,1,0,0:0:0:0:
36,192,41670,1,0,0:0:0:0:
402,192,41756,128,0,42441:0:0:0:0:
256,192,41756,128,0,42099:0:0:0:0:
109,192,41756,128,0,42441:0:0:0:0:
329,192,42013,1,0,0:0:0:0:
475,192,42099,128,0,42441:0:0:0:0:
256,192,42356,1,0,0:0:0:0:
329,192,42441,128,0,43127:0:0:0:0:
182,192,42441,128,0,43127:0:0:0:0:
36,192,42441,128,0,45184:0:0:0:0:
402,192,43127,128,0,45184:0:0:0:0:
109,192,43127,128,0,43813:0:0:0:0:
256,192,43127,128,0,43813:0:0:0:0:
475,192,43127,128,0,43813:0:0:0:0:
329,192,43813,128,0,44841:0:0:0:0:
182,192,43813,128,0,44841:0:0:0:0:
256,192,44756,1,0,0:0:0:0:
109,192,44841,128,0,45184:0:0:0:0:
475,192,44841,128,0,45184:0:0:0:0:
182,192,45099,1,0,0:0:0:0:
329,192,45099,1,0,0:0:0:0:
256,192,45184,128,0,45870:0:0:0:0:
402,192,45956,1,0,0:0:0:0:
475,192,45956,1,0,0:0:0:0:
36,192,45956,1,0,0:0:0:0:
109,192,45956,1,0,0:0:0:0:
329,192,45956,1,0,0:0:0:0:
329,192,46127,1,0,0:0:0:0:
402,192,46127,1,0,0:0:0:0:
475,192,46127,1,0,0:0:0:0:
36,192,46127,1,0,0:0:0:0:
256,192,46127,1,0,0:0:0:0:
256,192,46299,1,0,0:0:0:0:
329,192,46299,1,0,0:0:0:0:
402,192,46299,1,0,0:0:0:0:
475,192,46299,1,0,0:0:0:0:
182,192,46299,1,0,0:0:0:0:
182,192,46556,1,0,0:0:0:0:
329,192,46556,1,0,0:0:0:0:
402,192,46556,1,0,0:0:0:0:
109,192,46556,128,0,50670:0:0:0:0:
36,192,46556,128,0,47241:0:0:0:0:
256,192,46556,128,0,47927:0:0:0:0:
329,192,47241,128,0,47584:0:0:0:0:
402,192,47241,128,0,48613:0:0:0:0:
182,192,47241,1,0,0:0:0:0:
475,192,47241,1,0,0:0:0:0:
36,192,47499,1,0,0:0:0:0:
182,192,47584,128,0,49299:0:0:0:0:
475,192,47584,128,0,47927:0:0:0:0:
36,192,47927,128,0,48613:0:0:0:0:
329,192,47927,128,0,48613:0:0:0:0:
256,192,48613,128,0,49299:0:0:0:0:
475,192,48613,128,0,51699:0:0:0:0:
36,192,49299,128,0,50670:0:0:0:0:
329,192,49299,128,0,50670:0:0:0:0:
402,192,49299,1,0,0:0:0:0:
182,192,50670,128,0,52041:0:0:0:0:
256,192,50670,128,0,51013:0:0:0:0:
402,192,50670,128,0,51013:0:0:0:0:
329,192,51013,128,0,51356:0:0:0:0:
36,192,51013,128,0,51356:0:0:0:0:
109,192,51013,1,0,0:0:0:0:
256,192,51356,128,0,51699:0:0:0:0:
109,192,51356,128,0,51699:0:0:0:0:
402,192,51356,1,0,0:0:0:0:
402,192,51699,128,0,52041:0:0:0:0:
36,192,51699,128,0,52041:0:0:0:0:
329,192,51699,128,0,54784:0:0:0:0:
109,192,52041,128,0,52727:0:0:0:0:
256,192,52041,128,0,52727:0:0:0:0:
475,192,52041,1,0,0:0:0:0:
475,192,52727,128,0,53413:0:0:0:0:
182,192,52727,128,0,53070:0:0:0:0:
402,192,52727,1,0,0:0:0:0:
36,192,52727,1,0,0:0:0:0:
402,192,53070,128,0,53413:0:0:0:0:
36,192,53070,128,0,53413:0:0:0:0:
256,192,53070,1,0,0:0:0:0:
109,192,53070,1,0,0:0:0:0:
256,192,53413,128,0,54099:0:0:0:0:
109,192,53413,128,0,54099:0:0:0:0:
182,192,53413,1,0,0:0:0:0:
402,192,54099,128,0,55813:0:0:0:0:
36,192,54099,128,0,54784:0:0:0:0:
182,192,54099,128,0,54784:0:0:0:0:
475,192,54099,1,0,0:0:0:0:
475,192,54784,128,0,57527:0:0:0:0:
256,192,54784,128,0,55813:0:0:0:0:
109,192,54784,128,0,55813:0:0:0:0:
329,192,55813,128,0,56156:0:0:0:0:
182,192,55813,128,0,57527:0:0:0:0:
36,192,55813,128,0,56156:0:0:0:0:
256,192,56156,128,0,57527:0:0:0:0:
402,192,56156,128,0,57527:0:0:0:0:
109,192,56156,1,0,0:0:0:0:
36,192,57527,1,0,0:0:0:0:
329,192,57527,1,0,0:0:0:0:
109,192,57613,1,0,0:0:0:0:
256,192,57613,1,0,0:0:0:0:
182,192,57699,1,0,0:0:0:0:
402,192,57784,1,0,0:0:0:0:
36,192,57870,1,0,0:0:0:0:
109,192,57870,1,0,0:0:0:0:
182,192,57956,1,0,0:0:0:0:
475,192,58041,1,0,0:0:0:0:
402,192,58127,1,0,0:0:0:0:
329,192,58213,1,0,0:0:0:0:
475,192,58213,1,0,0:0:0:0:
402,192,58270,1,0,0:0:0:0:
256,192,58270,1,0,0:0:0:0:
329,192,58327,1,0,0:0:0:0:
182,192,58327,1,0,0:0:0:0:
256,192,58384,1,0,0:0:0:0:
109,192,58384,1,0,0:0:0:0:
182,192,58441,1,0,0:0:0:0:
36,192,58441,1,0,0:0:0:0:
109,192,58499,1,0,0:0:0:0:
402,192,58499,1,0,0:0:0:0:
36,192,58556,1,0,0:0:0:0:
475,192,58556,1,0,0:0:0:0:
329,192,58556,1,0,0:0:0:0:
402,192,58613,1,0,0:0:0:0:
256,192,58613,1,0,0:0:0:0:
329,192,58670,1,0,0:0:0:0:
182,192,58670,1,0,0:0:0:0:
256,192,58727,1,0,0:0:0:0:
109,192,58727,1,0,0:0:0:0:
182,192,58784,1,0,0:0:0:0:
36,192,58784,1,0,0:0:0:0:
109,192,58841,1,0,0:0:0:0:
36,192,58899,1,0,0:0:0:0:
182,192,58899,1,0,0:0:0:0:
109,192,58956,1,0,0:0:0:0:
256,192,58956,1,0,0:0:0:0:
182,192,59013,1,0,0:0:0:0:
329,192,59013,1,0,0:0:0:0:
256,192,59070,1,0,0:0:0:0:
402,192,59070,1,0,0:0:0:0:
329,192,59127,1,0,0:0:0:0:
475,192,59127,1,0,0:0:0:0:
402,192,59184,1,0,0:0:0:0:
475,192,59241,1,0,0:0:0:0:
36,192,59241,1,0,0:0:0:0:
182,192,59241,1,0,0:0:0:0:
109,192,59299,1,0,0:0:0:0:
256,192,59299,1,0,0:0:0:0:
182,192,59356,1,0,0:0:0:0:
329,192,59356,1,0,0:0:0:0:
256,192,59413,1,0,0:0:0:0:
402,192,59413,1,0,0:0:0:0:
329,192,59470,1,0,0:0:0:0:
475,192,59470,1,0,0:0:0:0:
402,192,59527,1,0,0:0:0:0:
475,192,59584,1,0,0:0:0:0:
36,192,59584,1,0,0:0:0:0:
182,192,59584,1,0,0:0:0:0:
109,192,59641,1,0,0:0:0:0:
256,192,59641,1,0,0:0:0:0:
182,192,59699,1,0,0:0:0:0:
329,192,59699,1,0,0:0:0:0:
256,192,59756,1,0,0:0:0:0:
402,192,59756,1,0,0:0:0:0:
329,192,59813,1,0,0:0:0:0:
475,192,59813,1,0,0:0:0:0:
402,192,59870,1,0,0:0:0:0:
475,192,59927,1,0,0:0:0:0:
36,192,59927,1,0,0:0:0:0:
109,192,59984,1,0,0:0:0:0:
402,192,59984,1,0,0:0:0:0:
182,192,60041,1,0,0:0:0:0:
329,192,60041,1,0,0:0:0:0:
256,192,60099,1,0,0:0:0:0:
182,192,60156,1,0,0:0:0:0:
329,192,60156,1,0,0:0:0:0:
109,192,60213,1,0,0:0:0:0:
402,192,60213,1,0,0:0:0:0:
36,192,60270,1,0,0:0:0:0:
475,192,60270,1,0,0:0:0:0:
109,192,60327,1,0,0:0:0:0:
402,192,60327,1,0,0:0:0:0:
182,192,60384,1,0,0:0:0:0:
329,192,60384,1,0,0:0:0:0:
256,192,60441,1,0,0:0:0:0:
36,192,60499,1,0,0:0:0:0:
475,192,60499,1,0,0:0:0:0:
109,192,60556,1,0,0:0:0:0:
402,192,60556,1,0,0:0:0:0:
182,192,60613,1,0,0:0:0:0:
329,192,60613,1,0,0:0:0:0:
475,192,60670,1,0,0:0:0:0:
36,192,60670,1,0,0:0:0:0:
402,192,60727,1,0,0:0:0:0:
109,192,60727,1,0,0:0:0:0:
329,192,60784,1,0,0:0:0:0:
182,192,60784,1,0,0:0:0:0:
256,192,60841,1,0,0:0:0:0:
182,192,60899,1,0,0:0:0:0:
109,192,60956,1,0,0:0:0:0:
36,192,61013,1,0,0:0:0:0:
256,192,61070,1,0,0:0:0:0:
329,192,61127,1,0,0:0:0:0:
182,192,61127,1,0,0:0:0:0:
402,192,61184,1,0,0:0:0:0:
109,192,61184,1,0,0:0:0:0:
475,192,61241,1,0,0:0:0:0:
36,192,61241,1,0,0:0:0:0:
256,192,61299,1,0,0:0:0:0:
329,192,61356,1,0,0:0:0:0:
182,192,61356,1,0,0:0:0:0:
402,192,61413,1,0,0:0:0:0:
109,192,61413,1,0,0:0:0:0:
475,192,61470,1,0,0:0:0:0:
36,192,61470,1,0,0:0:0:0:
256,192,61470,1,0,0:0:0:0:
182,192,61527,1,0,0:0:0:0:
329,192,61527,1,0,0:0:0:0:
109,192,61584,1,0,0:0:0:0:
402,192,61584,1,0,0:0:0:0:
256,192,61641,1,0,0:0:0:0:
36,192,61641,1,0,0:0:0:0:
475,192,61641,1,0,0:0:0:0:
329,192,61699,1,0,0:0:0:0:
182,192,61699,1,0,0:0:0:0:
402,192,61756,1,0,0:0:0:0:
109,192,61756,1,0,0:0:0:0:
475,192,61813,1,0,0:0:0:0:
36,192,61813,1,0,0:0:0:0:
256,192,61813,1,0,0:0:0:0:
182,192,61870,1,0,0:0:0:0:
329,192,61870,1,0,0:0:0:0:
109,192,61927,1,0,0:0:0:0:
402,192,61927,1,0,0:0:0:0:
36,192,61984,1,0,0:0:0:0:
475,192,61984,1,0,0:0:0:0:
402,192,62041,1,0,0:0:0:0:
329,192,62099,1,0,0:0:0:0:
256,192,62156,1,0,0:0:0:0:
182,192,62213,1,0,0:0:0:0:
109,192,62270,1,0,0:0:0:0:
36,192,62327,1,0,0:0:0:0:
475,192,62327,1,0,0:0:0:0:
402,192,62384,1,0,0:0:0:0:
109,192,62384,1,0,0:0:0:0:
329,192,62441,1,0,0:0:0:0:
182,192,62441,1,0,0:0:0:0:
256,192,62499,1,0,0:0:0:0:
329,192,62556,1,0,0:0:0:0:
402,192,62613,1,0,0:0:0:0:
475,192,62670,1,0,0:0:0:0:
36,192,62670,1,0,0:0:0:0:
109,192,62727,1,0,0:0:0:0:
402,192,62727,1,0,0:0:0:0:
182,192,62784,1,0,0:0:0:0:
329,192,62784,1,0,0:0:0:0:
256,192,62841,1,0,0:0:0:0:
329,192,62899,1,0,0:0:0:0:
182,192,62899,1,0,0:0:0:0:
402,192,62956,1,0,0:0:0:0:
109,192,62956,1,0,0:0:0:0:
475,192,63013,1,0,0:0:0:0:
36,192,63013,1,0,0:0:0:0:
109,192,63070,1,0,0:0:0:0:
182,192,63127,1,0,0:0:0:0:
256,192,63184,1,0,0:0:0:0:
329,192,63241,1,0,0:0:0:0:
182,192,63241,1,0,0:0:0:0:
402,192,63299,1,0,0:0:0:0:
109,192,63299,1,0,0:0:0:0:
475,192,63356,1,0,0:0:0:0:
36,192,63356,1,0,0:0:0:0:
109,192,63413,1,0,0:0:0:0:
182,192,63470,1,0,0:0:0:0:
256,192,63527,1,0,0:0:0:0:
329,192,63584,1,0,0:0:0:0:
402,192,63641,1,0,0:0:0:0:
475,192,63699,1,0,0:0:0:0:
402,192,63756,1,0,0:0:0:0:
329,192,63813,1,0,0:0:0:0:
256,192,63870,1,0,0:0:0:0:
329,192,63927,1,0,0:0:0:0:
402,192,63984,1,0,0:0:0:0:
475,192,64041,1,0,0:0:0:0:
36,192,64041,1,0,0:0:0:0:
109,192,64099,1,0,0:0:0:0:
182,192,64156,1,0,0:0:0:0:
256,192,64213,1,0,0:0:0:0:
182,192,64270,1,0,0:0:0:0:
109,192,64327,1,0,0:0:0:0:
36,192,64384,1,0,0:0:0:0:
402,192,64441,1,0,0:0:0:0:
109,192,64441,1,0,0:0:0:0:
329,192,64499,1,0,0:0:0:0:
182,192,64499,1,0,0:0:0:0:
256,192,64556,1,0,0:0:0:0:
329,192,64613,1,0,0:0:0:0:
182,192,64613,1,0,0:0:0:0:
402,192,64670,1,0,0:0:0:0:
109,192,64670,1,0,0:0:0:0:
36,192,64727,1,0,0:0:0:0:
475,192,64727,1,0,0:0:0:0:
256,192,64727,1,0,0:0:0:0:
329,192,64784,1,0,0:0:0:0:
182,192,64784,1,0,0:0:0:0:
402,192,64841,1,0,0:0:0:0:
109,192,64841,1,0,0:0:0:0:
475,192,64899,1,0,0:0:0:0:
36,192,64899,1,0,0:0:0:0:
109,192,64956,1,0,0:0:0:0:
402,192,64956,1,0,0:0:0:0:
182,192,65013,1,0,0:0:0:0:
329,192,65013,1,0,0:0:0:0:
256,192,65070,1,0,0:0:0:0:
182,192,65127,1,0,0:0:0:0:
109,192,65184,1,0,0:0:0:0:
36,192,65241,1,0,0:0:0:0:
109,192,65299,1,0,0:0:0:0:
182,192,65356,1,0,0:0:0:0:
256,192,65413,1,0,0:0:0:0:
329,192,65470,1,0,0:0:0:0:
402,192,65527,1,0,0:0:0:0:
475,192,65584,1,0,0:0:0:0:
402,192,65641,1,0,0:0:0:0:
329,192,65699,1,0,0:0:0:0:
256,192,65756,1,0,0:0:0:0:
475,192,65813,1,0,0:0:0:0:
402,192,65870,1,0,0:0:0:0:
329,192,65927,1,0,0:0:0:0:
256,192,65984,1,0,0:0:0:0:
36,192,66041,1,0,0:0:0:0:
475,192,66041,1,0,0:0:0:0:
109,192,66099,1,0,0:0:0:0:
402,192,66099,1,0,0:0:0:0:
182,192,66156,1,0,0:0:0:0:
329,192,66156,1,0,0:0:0:0:
256,192,66213,1,0,0:0:0:0:
36,192,66270,1,0,0:0:0:0:
109,192,66327,1,0,0:0:0:0:
182,192,66384,1,0,0:0:0:0:
256,192,66441,1,0,0:0:0:0:
182,192,66499,1,0,0:0:0:0:
329,192,66499,1,0,0:0:0:0:
109,192,66556,1,0,0:0:0:0:
402,192,66556,1,0,0:0:0:0:
36,192,66613,1,0,0:0:0:0:
475,192,66613,1,0,0:0:0:0:
402,192,66670,1,0,0:0:0:0:
109,192,66670,1,0,0:0:0:0:
329,192,66727,1,0,0:0:0:0:
182,192,66727,1,0,0:0:0:0:
256,192,66784,1,0,0:0:0:0:
329,192,66841,1,0,0:0:0:0:
182,192,66841,1,0,0:0:0:0:
402,192,66899,1,0,0:0:0:0:
109,192,66899,1,0,0:0:0:0:
475,192,66956,1,0,0:0:0:0:
36,192,66956,1,0,0:0:0:0:
402,192,67013,1,0,0:0:0:0:
109,192,67013,1,0,0:0:0:0:
329,192,67070,1,0,0:0:0:0:
182,192,67070,1,0,0:0:0:0:
256,192,67127,1,0,0:0:0:0:
182,192,67184,1,0,0:0:0:0:
109,192,67241,1,0,0:0:0:0:
36,192,67299,1,0,0:0:0:0:
475,192,67299,1,0,0:0:0:0:
109,192,67356,1,0,0:0:0:0:
402,192,67356,1,0,0:0:0:0:
182,192,67413,1,0,0:0:0:0:
329,192,67413,1,0,0:0:0:0:
256,192,67470,1,0,0:0:0:0:
182,192,67527,1,0,0:0:0:0:
329,192,67527,1,0,0:0:0:0:
109,192,67584,1,0,0:0:0:0:
402,192,67584,1,0,0:0:0:0:
36,192,67641,1,0,0:0:0:0:
475,192,67641,1,0,0:0:0:0:
402,192,67699,1,0,0:0:0:0:
329,192,67756,1,0,0:0:0:0:
256,192,67813,1,0,0:0:0:0:
182,192,67870,1,0,0:0:0:0:
109,192,67927,1,0,0:0:0:0:
36,192,67984,1,0,0:0:0:0:
109,192,68041,1,0,0:0:0:0:
182,192,68099,1,0,0:0:0:0:
256,192,68156,1,0,0:0:0:0:
329,192,68213,1,0,0:0:0:0:
402,192,68270,1,0,0:0:0:0:
475,192,68327,1,0,0:0:0:0:
402,192,68384,1,0,0:0:0:0:
475,192,68441,1,0,0:0:0:0:
402,192,68499,1,0,0:0:0:0:
329,192,68556,1,0,0:0:0:0:
256,192,68613,1,0,0:0:0:0:
475,192,68670,1,0,0:0:0:0:
402,192,68727,1,0,0:0:0:0:
329,192,68784,1,0,0:0:0:0:
256,192,68841,1,0,0:0:0:0:
475,192,68899,1,0,0:0:0:0:
402,192,68956,1,0,0:0:0:0:
329,192,69013,1,0,0:0:0:0:
256,192,69070,1,0,0:0:0:0:
36,192,69127,1,0,0:0:0:0:
109,192,69184,1,0,0:0:0:0:
182,192,69241,1,0,0:0:0:0:
256,192,69299,1,0,0:0:0:0:
36,192,69356,1,0,0:0:0:0:
109,192,69413,1,0,0:0:0:0:
182,192,69470,1,0,0:0:0:0:
256,192,69527,1,0,0:0:0:0:
36,192,69584,1,0,0:0:0:0:
109,192,69641,1,0,0:0:0:0:
182,192,69699,1,0,0:0:0:0:
256,192,69756,1,0,0:0:0:0:
109,192,69870,1,0,0:0:0:0:
182,192,69927,1,0,0:0:0:0:
256,192,69984,1,0,0:0:0:0:
329,192,70041,1,0,0:0:0:0:
109,192,70099,1,0,0:0:0:0:
182,192,70156,1,0,0:0:0:0:
256,192,70213,1,0,0:0:0:0:
329,192,70270,1,0,0:0:0:0:
256,192,70327,1,0,0:0:0:0:
182,192,70384,1,0,0:0:0:0:
109,192,70441,1,0,0:0:0:0:
402,192,70499,1,0,0:0:0:0:
329,192,70556,1,0,0:0:0:0:
256,192,70613,1,0,0:0:0:0:
182,192,70670,1,0,0:0:0:0:
402,192,70784,1,0,0:0:0:0:
329,192,70841,1,0,0:0:0:0:
256,192,70899,1,0,0:0:0:0:
182,192,70956,1,0,0:0:0:0:
402,192,71013,1,0,0:0:0:0:
329,192,71070,1,0,0:0:0:0:
256,192,71127,1,0,0:0:0:0:
182,192,71184,1,0,0:0:0:0:
256,192,71241,1,0,0:0:0:0:
329,192,71299,1,0,0:0:0:0:
402,192,71356,1,0,0:0:0:0:
109,192,71413,1,0,0:0:0:0:
182,192,71470,1,0,0:0:0:0:
256,192,71527,1,0,0:0:0:0:
329,192,71584,1,0,0:0:0:0:
402,192,71641,1,0,0:0:0:0:
329,192,71699,1,0,0:0:0:0:
256,192,71756,1,0,0:0:0:0:
182,192,71813,1,0,0:0:0:0:
109,192,71870,1,0,0:0:0:0:
182,192,71927,1,0,0:0:0:0:
256,192,71984,1,0,0:0:0:0:
329,192,72041,1,0,0:0:0:0:
402,192,72099,1,0,0:0:0:0:
329,192,72156,1,0,0:0:0:0:
256,192,72213,1,0,0:0:0:0:
182,192,72270,1,0,0:0:0:0:
109,192,72327,1,0,0:0:0:0:
182,192,72384,1,0,0:0:0:0:
256,192,72441,1,0,0:0:0:0:
329,192,72499,1,0,0:0:0:0:
402,192,72556,1,0,0:0:0:0:
329,192,72613,1,0,0:0:0:0:
256,192,72670,1,0,0:0:0:0:
182,192,72727,1,0,0:0:0:0:
109,192,72784,1,0,0:0:0:0:
182,192,72841,1,0,0:0:0:0:
256,192,72899,1,0,0:0:0:0:
329,192,72956,1,0,0:0:0:0:
402,192,73013,1,0,0:0:0:0:
329,192,73070,1,0,0:0:0:0:
256,192,73127,1,0,0:0:0:0:
182,192,73184,1,0,0:0:0:0:
109,192,73241,1,0,0:0:0:0:
329,192,73299,128,0,73641:0:0:0:0:
402,192,73299,128,0,73641:0:0:0:0:
475,192,73299,128,0,73641:0:0:0:0:
256,192,73641,1,0,0:0:0:0:
36,192,73641,128,0,73984:0:0:0:0:
109,192,73641,128,0,73984:0:0:0:0:
182,192,73641,128,0,73984:0:0:0:0:
329,192,73984,1,0,0:0:0:0:
402,192,73984,1,0,0:0:0:0:
475,192,73984,1,0,0:0:0:0:
256,192,74070,1,0,0:0:0:0:
182,192,74156,1,0,0:0:0:0:
109,192,74241,1,0,0:0:0:0:
329,192,74327,1,0,0:0:0:0:
402,192,74327,1,0,0:0:0:0:
256,192,74413,1,0,0:0:0:0:
109,192,74499,1,0,0:0:0:0:
182,192,74499,1,0,0:0:0:0:
256,192,74584,1,0,0:0:0:0:
329,192,74584,1,0,0:0:0:0:
182,192,74670,1,0,0:0:0:0:
109,192,74670,1,0,0:0:0:0:
36,192,74756,1,0,0:0:0:0:
475,192,74841,1,0,0:0:0:0:
402,192,74927,1,0,0:0:0:0:
256,192,75013,1,0,0:0:0:0:
329,192,75013,1,0,0:0:0:0:
402,192,75099,1,0,0:0:0:0:
475,192,75184,1,0,0:0:0:0:
256,192,75270,1,0,0:0:0:0:
329,192,75356,1,0,0:0:0:0:
182,192,75356,1,0,0:0:0:0:
256,192,75441,1,0,0:0:0:0:
329,192,75527,1,0,0:0:0:0:
402,192,75613,1,0,0:0:0:0:
475,192,75613,1,0,0:0:0:0:
329,192,75699,1,0,0:0:0:0:
256,192,75784,1,0,0:0:0:0:
329,192,75870,1,0,0:0:0:0:
402,192,75870,1,0,0:0:0:0:
475,192,75956,1,0,0:0:0:0:
36,192,76041,1,0,0:0:0:0:
182,192,76041,1,0,0:0:0:0:
256,192,76127,1,0,0:0:0:0:
329,192,76213,1,0,0:0:0:0:
109,192,76299,1,0,0:0:0:0:
182,192,76384,1,0,0:0:0:0:
256,192,76384,1,0,0:0:0:0:
36,192,76470,1,0,0:0:0:0:
329,192,76556,1,0,0:0:0:0:
256,192,76641,1,0,0:0:0:0:
182,192,76727,1,0,0:0:0:0:
402,192,76727,1,0,0:0:0:0:
329,192,76813,1,0,0:0:0:0:
256,192,76899,1,0,0:0:0:0:
182,192,76984,1,0,0:0:0:0:
329,192,77070,1,0,0:0:0:0:
256,192,77156,1,0,0:0:0:0:
329,192,77241,1,0,0:0:0:0:
402,192,77241,1,0,0:0:0:0:
182,192,77327,1,0,0:0:0:0:
256,192,77327,1,0,0:0:0:0:
329,192,77413,1,0,0:0:0:0:
402,192,77413,1,0,0:0:0:0:
109,192,77499,1,0,0:0:0:0:
182,192,77584,1,0,0:0:0:0:
36,192,77670,1,0,0:0:0:0:
109,192,77756,1,0,0:0:0:0:
256,192,77756,1,0,0:0:0:0:
182,192,77841,1,0,0:0:0:0:
109,192,77927,1,0,0:0:0:0:
182,192,78013,1,0,0:0:0:0:
256,192,78099,1,0,0:0:0:0:
329,192,78099,1,0,0:0:0:0:
182,192,78184,1,0,0:0:0:0:
402,192,78184,1,0,0:0:0:0:
256,192,78270,1,0,0:0:0:0:
329,192,78270,1,0,0:0:0:0:
36,192,78356,1,0,0:0:0:0:
109,192,78441,1,0,0:0:0:0:
182,192,78527,1,0,0:0:0:0:
256,192,78613,1,0,0:0:0:0:
182,192,78699,1,0,0:0:0:0:
36,192,78784,1,0,0:0:0:0:
109,192,78784,1,0,0:0:0:0:
182,192,78870,1,0,0:0:0:0:
329,192,78956,1,0,0:0:0:0:
256,192,79041,1,0,0:0:0:0:
329,192,79127,1,0,0:0:0:0:
182,192,79127,1,0,0:0:0:0:
109,192,79127,1,0,0:0:0:0:
402,192,79213,1,0,0:0:0:0:
475,192,79299,1,0,0:0:0:0:
256,192,79384,1,0,0:0:0:0:
329,192,79470,1,0,0:0:0:0:
402,192,79470,1,0,0:0:0:0:
182,192,79470,1,0,0:0:0:0:
256,192,79556,1,0,0:0:0:0:
329,192,79641,1,0,0:0:0:0:
402,192,79727,1,0,0:0:0:0:
36,192,79813,1,0,0:0:0:0:
109,192,79813,1,0,0:0:0:0:
182,192,79899,1,0,0:0:0:0:
109,192,79984,1,0,0:0:0:0:
256,192,79984,1,0,0:0:0:0:
36,192,80070,1,0,0:0:0:0:
182,192,80070,1,0,0:0:0:0:
109,192,80156,1,0,0:0:0:0:
256,192,80156,1,0,0:0:0:0:
182,192,80241,1,0,0:0:0:0:
402,192,80327,1,0,0:0:0:0:
329,192,80413,1,0,0:0:0:0:
256,192,80499,1,0,0:0:0:0:
402,192,80499,1,0,0:0:0:0:
475,192,80499,1,0,0:0:0:0:
329,192,80584,1,0,0:0:0:0:
475,192,80670,1,0,0:0:0:0:
402,192,80756,1,0,0:0:0:0:
256,192,80841,1,0,0:0:0:0:
329,192,80841,1,0,0:0:0:0:
475,192,80841,1,0,0:0:0:0:
402,192,80927,1,0,0:0:0:0:
329,192,81013,1,0,0:0:0:0:
256,192,81099,1,0,0:0:0:0:
402,192,81099,1,0,0:0:0:0:
36,192,81184,1,0,0:0:0:0:
109,192,81270,1,0,0:0:0:0:
182,192,81356,1,0,0:0:0:0:
256,192,81356,1,0,0:0:0:0:
402,192,81356,1,0,0:0:0:0:
329,192,81441,1,0,0:0:0:0:
256,192,81527,1,0,0:0:0:0:
402,192,81527,1,0,0:0:0:0:
36,192,81527,1,0,0:0:0:0:
109,192,81613,1,0,0:0:0:0:
182,192,81699,1,0,0:0:0:0:
402,192,81784,1,0,0:0:0:0:
256,192,81870,1,0,0:0:0:0:
329,192,81870,1,0,0:0:0:0:
475,192,81956,1,0,0:0:0:0:
329,192,82041,1,0,0:0:0:0:
402,192,82127,1,0,0:0:0:0:
475,192,82213,1,0,0:0:0:0:
256,192,82213,1,0,0:0:0:0:
329,192,82299,1,0,0:0:0:0:
402,192,82384,1,0,0:0:0:0:
475,192,82470,1,0,0:0:0:0:
256,192,82556,1,0,0:0:0:0:
329,192,82641,1,0,0:0:0:0:
182,192,82727,1,0,0:0:0:0:
256,192,82727,1,0,0:0:0:0:
402,192,82813,1,0,0:0:0:0:
475,192,82813,1,0,0:0:0:0:
256,192,82899,1,0,0:0:0:0:
182,192,82899,1,0,0:0:0:0:
329,192,82984,1,0,0:0:0:0:
256,192,83070,1,0,0:0:0:0:
402,192,83156,1,0,0:0:0:0:
329,192,83241,1,0,0:0:0:0:
182,192,83241,1,0,0:0:0:0:
109,192,83327,1,0,0:0:0:0:
182,192,83413,1,0,0:0:0:0:
109,192,83499,1,0,0:0:0:0:
36,192,83584,1,0,0:0:0:0:
256,192,83584,1,0,0:0:0:0:
109,192,83670,1,0,0:0:0:0:
182,192,83670,1,0,0:0:0:0:
36,192,83756,1,0,0:0:0:0:
256,192,83756,1,0,0:0:0:0:
329,192,83841,1,0,0:0:0:0:
402,192,83927,1,0,0:0:0:0:
475,192,84013,1,0,0:0:0:0:
402,192,84099,1,0,0:0:0:0:
329,192,84184,1,0,0:0:0:0:
256,192,84270,1,0,0:0:0:0:
182,192,84270,1,0,0:0:0:0:
402,192,84270,1,0,0:0:0:0:
329,192,84356,1,0,0:0:0:0:
36,192,84441,1,0,0:0:0:0:
109,192,84527,1,0,0:0:0:0:
36,192,84613,1,0,0:0:0:0:
182,192,84613,1,0,0:0:0:0:
256,192,84613,1,0,0:0:0:0:
109,192,84699,1,0,0:0:0:0:
182,192,84784,1,0,0:0:0:0:
256,192,84870,1,0,0:0:0:0:
329,192,84956,1,0,0:0:0:0:
402,192,84956,1,0,0:0:0:0:
256,192,85041,1,0,0:0:0:0:
109,192,85127,1,0,0:0:0:0:
182,192,85127,1,0,0:0:0:0:
475,192,85127,1,0,0:0:0:0:
402,192,85213,1,0,0:0:0:0:
256,192,85299,1,0,0:0:0:0:
329,192,85299,1,0,0:0:0:0:
475,192,85384,1,0,0:0:0:0:
402,192,85470,1,0,0:0:0:0:
329,192,85470,1,0,0:0:0:0:
256,192,85556,1,0,0:0:0:0:
329,192,85641,1,0,0:0:0:0:
475,192,85641,1,0,0:0:0:0:
402,192,85727,1,0,0:0:0:0:
475,192,85813,1,0,0:0:0:0:
182,192,85813,1,0,0:0:0:0:
256,192,85899,1,0,0:0:0:0:
329,192,85984,1,0,0:0:0:0:
402,192,85984,1,0,0:0:0:0:
109,192,86070,1,0,0:0:0:0:
182,192,86156,1,0,0:0:0:0:
256,192,86156,1,0,0:0:0:0:
329,192,86241,1,0,0:0:0:0:
256,192,86327,1,0,0:0:0:0:
109,192,86327,1,0,0:0:0:0:
182,192,86413,1,0,0:0:0:0:
256,192,86499,1,0,0:0:0:0:
329,192,86499,1,0,0:0:0:0:
36,192,86584,1,0,0:0:0:0:
109,192,86670,1,0,0:0:0:0:
256,192,86670,1,0,0:0:0:0:
182,192,86756,1,0,0:0:0:0:
256,192,86841,1,0,0:0:0:0:
329,192,86841,1,0,0:0:0:0:
402,192,86927,1,0,0:0:0:0:
329,192,87013,1,0,0:0:0:0:
475,192,87013,1,0,0:0:0:0:
36,192,87099,1,0,0:0:0:0:
109,192,87184,1,0,0:0:0:0:
182,192,87184,1,0,0:0:0:0:
36,192,87270,1,0,0:0:0:0:
182,192,87356,1,0,0:0:0:0:
256,192,87356,1,0,0:0:0:0:
402,192,87441,1,0,0:0:0:0:
329,192,87527,1,0,0:0:0:0:
475,192,87527,1,0,0:0:0:0:
256,192,87613,1,0,0:0:0:0:
329,192,87699,1,0,0:0:0:0:
475,192,87699,1,0,0:0:0:0:
402,192,87784,1,0,0:0:0:0:
475,192,87870,1,0,0:0:0:0:
109,192,87870,1,0,0:0:0:0:
182,192,87956,1,0,0:0:0:0:
256,192,88041,1,0,0:0:0:0:
329,192,88041,1,0,0:0:0:0:
36,192,88127,1,0,0:0:0:0:
109,192,88213,1,0,0:0:0:0:
182,192,88213,1,0,0:0:0:0:
256,192,88299,1,0,0:0:0:0:
329,192,88384,1,0,0:0:0:0:
402,192,88384,1,0,0:0:0:0:
256,192,88470,1,0,0:0:0:0:
182,192,88556,1,0,0:0:0:0:
329,192,88556,1,0,0:0:0:0:
402,192,88641,1,0,0:0:0:0:
256,192,88727,1,0,0:0:0:0:
329,192,88727,1,0,0:0:0:0:
182,192,88813,1,0,0:0:0:0:
109,192,88899,1,0,0:0:0:0:
36,192,88899,1,0,0:0:0:0:
182,192,88984,1,0,0:0:0:0:
109,192,89070,1,0,0:0:0:0:
256,192,89070,1,0,0:0:0:0:
36,192,89156,1,0,0:0:0:0:
402,192,89241,1,0,0:0:0:0:
475,192,89241,1,0,0:0:0:0:
329,192,89327,1,0,0:0:0:0:
256,192,89413,1,0,0:0:0:0:
402,192,89413,1,0,0:0:0:0:
475,192,89499,1,0,0:0:0:0:
329,192,89584,1,0,0:0:0:0:
402,192,89584,1,0,0:0:0:0:
182,192,89670,1,0,0:0:0:0:
329,192,89756,128,0,90099:0:0:0:0:
402,192,89756,128,0,90099:0:0:0:0:
475,192,89756,128,0,90099:0:0:0:0:
256,192,89756,128,0,90441:0:0:0:0:
36,192,90099,128,0,90441:0:0:0:0:
109,192,90099,128,0,90441:0:0:0:0:
182,192,90099,128,0,90441:0:0:0:0:
475,192,90441,1,0,0:0:0:0:
402,192,90484,1,0,0:0:0:0:
329,192,90527,1,0,0:0:0:0:
475,192,90570,1,0,0:0:0:0:
402,192,90613,1,0,0:0:0:0:
329,192,90656,1,0,0:0:0:0:
256,192,90699,1,0,0:0:0:0:
182,192,90741,1,0,0:0:0:0:
109,192,90784,1,0,0:0:0:0:
36,192,91127,1,0,0:0:0:0:
109,192,91170,1,0,0:0:0:0:
182,192,91213,1,0,0:0:0:0:
36,192,91256,1,0,0:0:0:0:
109,192,91299,1,0,0:0:0:0:
182,192,91341,1,0,0:0:0:0:
256,192,91384,1,0,0:0:0:0:
329,192,91427,1,0,0:0:0:0:
402,192,91470,1,0,0:0:0:0:
402,192,91813,1,0,0:0:0:0:
329,192,91856,1,0,0:0:0:0:
256,192,91899,1,0,0:0:0:0:
402,192,91941,1,0,0:0:0:0:
329,192,91984,1,0,0:0:0:0:
256,192,92027,1,0,0:0:0:0:
182,192,92070,1,0,0:0:0:0:
109,192,92113,1,0,0:0:0:0:
36,192,92156,1,0,0:0:0:0:
109,192,92499,1,0,0:0:0:0:
182,192,92541,1,0,0:0:0:0:
256,192,92584,1,0,0:0:0:0:
109,192,92627,1,0,0:0:0:0:
182,192,92670,1,0,0:0:0:0:
256,192,92713,1,0,0:0:0:0:
329,192,92756,1,0,0:0:0:0:
402,192,92799,1,0,0:0:0:0:
475,192,92841,1,0,0:0:0:0:
36,192,93184,1,0,0:0:0:0:
109,192,93184,1,0,0:0:0:0:
182,192,93184,1,0,0:0:0:0:
329,192,93184,1,0,0:0:0:0:
402,192,93184,1,0,0:0:0:0:
475,192,93184,1,0,0:0:0:0:
256,192,93270,1,0,0:0:0:0:
182,192,93356,1,0,0:0:0:0:
329,192,93356,1,0,0:0:0:0:
109,192,93441,1,0,0:0:0:0:
402,192,93441,1,0,0:0:0:0:
36,192,93527,1,0,0:0:0:0:
475,192,93527,1,0,0:0:0:0:
256,192,93527,1,0,0:0:0:0:
329,192,93613,1,0,0:0:0:0:
109,192,93699,1,0,0:0:0:0:
182,192,93784,1,0,0:0:0:0:
256,192,93870,1,0,0:0:0:0:
109,192,93870,1,0,0:0:0:0:
182,192,93927,1,0,0:0:0:0:
256,192,93984,1,0,0:0:0:0:
329,192,94041,1,0,0:0:0:0:
475,192,94099,1,0,0:0:0:0:
182,192,94099,1,0,0:0:0:0:
402,192,94156,1,0,0:0:0:0:
109,192,94156,1,0,0:0:0:0:
329,192,94213,1,0,0:0:0:0:
475,192,94213,1,0,0:0:0:0:
36,192,94213,1,0,0:0:0:0:
402,192,94270,1,0,0:0:0:0:
109,192,94270,1,0,0:0:0:0:
329,192,94327,1,0,0:0:0:0:
182,192,94327,1,0,0:0:0:0:
256,192,94384,1,0,0:0:0:0:
329,192,94441,1,0,0:0:0:0:
182,192,94441,1,0,0:0:0:0:
402,192,94499,1,0,0:0:0:0:
109,192,94499,1,0,0:0:0:0:
475,192,94556,1,0,0:0:0:0:
36,192,94556,1,0,0:0:0:0:
402,192,94613,1,0,0:0:0:0:
109,192,94613,1,0,0:0:0:0:
329,192,94670,1,0,0:0:0:0:
182,192,94670,1,0,0:0:0:0:
402,192,94727,1,0,0:0:0:0:
109,192,94727,1,0,0:0:0:0:
256,192,94813,1,0,0:0:0:0:
182,192,94899,1,0,0:0:0:0:
329,192,94899,1,0,0:0:0:0:
36,192,94984,1,0,0:0:0:0:
475,192,94984,1,0,0:0:0:0:
109,192,95070,1,0,0:0:0:0:
402,192,95070,1,0,0:0:0:0:
182,192,95156,1,0,0:0:0:0:
329,192,95156,1,0,0:0:0:0:
256,192,95241,1,0,0:0:0:0:
36,192,95241,1,0,0:0:0:0:
109,192,95241,1,0,0:0:0:0:
402,192,95241,1,0,0:0:0:0:
475,192,95241,1,0,0:0:0:0:
329,192,95299,1,0,0:0:0:0:
182,192,95299,1,0,0:0:0:0:
402,192,95356,1,0,0:0:0:0:
109,192,95356,1,0,0:0:0:0:
329,192,95413,1,0,0:0:0:0:
182,192,95413,1,0,0:0:0:0:
256,192,95470,1,0,0:0:0:0:
402,192,95584,1,0,0:0:0:0:
475,192,95584,1,0,0:0:0:0:
329,192,95641,1,0,0:0:0:0:
256,192,95699,1,0,0:0:0:0:
402,192,95756,1,0,0:0:0:0:
475,192,95841,1,0,0:0:0:0:
256,192,95927,1,0,0:0:0:0:
329,192,95927,1,0,0:0:0:0:
475,192,96013,1,0,0:0:0:0:
329,192,96099,1,0,0:0:0:0:
402,192,96184,1,0,0:0:0:0:
329,192,96270,1,0,0:0:0:0:
475,192,96270,1,0,0:0:0:0:
256,192,96356,1,0,0:0:0:0:
36,192,96441,1,0,0:0:0:0:
109,192,96527,1,0,0:0:0:0:
36,192,96613,1,0,0:0:0:0:
182,192,96613,1,0,0:0:0:0:
402,192,96670,1,0,0:0:0:0:
329,192,96727,1,0,0:0:0:0:
402,192,96784,1,0,0:0:0:0:
256,192,96870,1,0,0:0:0:0:
329,192,96956,1,0,0:0:0:0:
475,192,96956,1,0,0:0:0:0:
36,192,96956,1,0,0:0:0:0:
182,192,96956,1,0,0:0:0:0:
402,192,97013,1,0,0:0:0:0:
109,192,97013,1,0,0:0:0:0:
329,192,97070,1,0,0:0:0:0:
182,192,97070,1,0,0:0:0:0:
256,192,97127,1,0,0:0:0:0:
402,192,97213,1,0,0:0:0:0:
475,192,97299,1,0,0:0:0:0:
256,192,97299,1,0,0:0:0:0:
329,192,97384,1,0,0:0:0:0:
402,192,97470,1,0,0:0:0:0:
475,192,97556,1,0,0:0:0:0:
329,192,97641,1,0,0:0:0:0:
402,192,97641,1,0,0:0:0:0:
256,192,97727,1,0,0:0:0:0:
402,192,97813,1,0,0:0:0:0:
329,192,97899,1,0,0:0:0:0:
402,192,97984,1,0,0:0:0:0:
475,192,97984,1,0,0:0:0:0:
329,192,98070,1,0,0:0:0:0:
256,192,98156,1,0,0:0:0:0:
182,192,98241,1,0,0:0:0:0:
36,192,98327,1,0,0:0:0:0:
109,192,98327,1,0,0:0:0:0:
182,192,98384,1,0,0:0:0:0:
256,192,98441,1,0,0:0:0:0:
36,192,98499,1,0,0:0:0:0:
109,192,98584,1,0,0:0:0:0:
182,192,98670,1,0,0:0:0:0:
36,192,98670,1,0,0:0:0:0:
109,192,98756,1,0,0:0:0:0:
36,192,98841,1,0,0:0:0:0:
182,192,98927,1,0,0:0:0:0:
256,192,99013,1,0,0:0:0:0:
329,192,99013,1,0,0:0:0:0:
475,192,99013,1,0,0:0:0:0:
402,192,99099,1,0,0:0:0:0:
475,192,99184,1,0,0:0:0:0:
109,192,99270,1,0,0:0:0:0:
182,192,99356,1,0,0:0:0:0:
329,192,99356,1,0,0:0:0:0:
256,192,99413,1,0,0:0:0:0:
182,192,99470,1,0,0:0:0:0:
256,192,99527,1,0,0:0:0:0:
329,192,99584,1,0,0:0:0:0:
402,192,99613,1,0,0:0:0:0:
36,192,99699,1,0,0:0:0:0:
109,192,99699,1,0,0:0:0:0:
329,192,99699,1,0,0:0:0:0:
182,192,99756,1,0,0:0:0:0:
256,192,99813,1,0,0:0:0:0:
329,192,99870,1,0,0:0:0:0:
182,192,99956,1,0,0:0:0:0:
256,192,100041,1,0,0:0:0:0:
329,192,100041,1,0,0:0:0:0:
109,192,100127,1,0,0:0:0:0:
329,192,100213,1,0,0:0:0:0:
182,192,100299,1,0,0:0:0:0:
109,192,100384,1,0,0:0:0:0:
256,192,100384,1,0,0:0:0:0:
329,192,100470,1,0,0:0:0:0:
475,192,100556,1,0,0:0:0:0:
402,192,100641,1,0,0:0:0:0:
329,192,100727,1,0,0:0:0:0:
475,192,100727,1,0,0:0:0:0:
402,192,100784,1,0,0:0:0:0:
329,192,100841,1,0,0:0:0:0:
182,192,100899,1,0,0:0:0:0:
256,192,100984,1,0,0:0:0:0:
329,192,101070,1,0,0:0:0:0:
182,192,101070,1,0,0:0:0:0:
402,192,101127,1,0,0:0:0:0:
475,192,101184,1,0,0:0:0:0:
402,192,101241,1,0,0:0:0:0:
329,192,101299,1,0,0:0:0:0:
256,192,101356,1,0,0:0:0:0:
109,192,101413,1,0,0:0:0:0:
182,192,101413,1,0,0:0:0:0:
475,192,101470,1,0,0:0:0:0:
402,192,101527,1,0,0:0:0:0:
329,192,101584,1,0,0:0:0:0:
256,192,101641,1,0,0:0:0:0:
329,192,101699,1,0,0:0:0:0:
402,192,101756,1,0,0:0:0:0:
475,192,101756,1,0,0:0:0:0:
329,192,101813,1,0,0:0:0:0:
256,192,101870,1,0,0:0:0:0:
329,192,101927,1,0,0:0:0:0:
36,192,101984,1,0,0:0:0:0:
109,192,102041,1,0,0:0:0:0:
182,192,102099,1,0,0:0:0:0:
36,192,102099,1,0,0:0:0:0:
109,192,102156,1,0,0:0:0:0:
182,192,102213,1,0,0:0:0:0:
256,192,102270,1,0,0:0:0:0:
475,192,102327,1,0,0:0:0:0:
402,192,102384,1,0,0:0:0:0:
329,192,102441,1,0,0:0:0:0:
475,192,102441,1,0,0:0:0:0:
402,192,102499,1,0,0:0:0:0:
329,192,102556,1,0,0:0:0:0:
402,192,102613,1,0,0:0:0:0:
475,192,102670,1,0,0:0:0:0:
182,192,102727,1,0,0:0:0:0:
36,192,102784,1,0,0:0:0:0:
109,192,102784,1,0,0:0:0:0:
182,192,102899,1,0,0:0:0:0:
109,192,102956,1,0,0:0:0:0:
256,192,102956,1,0,0:0:0:0:
329,192,103013,1,0,0:0:0:0:
256,192,103127,1,0,0:0:0:0:
402,192,103127,1,0,0:0:0:0:
182,192,103127,1,0,0:0:0:0:
329,192,103184,1,0,0:0:0:0:
182,192,103241,1,0,0:0:0:0:
256,192,103241,1,0,0:0:0:0:
329,192,103299,1,0,0:0:0:0:
402,192,103356,1,0,0:0:0:0:
329,192,103413,1,0,0:0:0:0:
256,192,103470,1,0,0:0:0:0:
109,192,103470,1,0,0:0:0:0:
182,192,103527,1,0,0:0:0:0:
256,192,103584,1,0,0:0:0:0:
329,192,103641,1,0,0:0:0:0:
256,192,103699,1,0,0:0:0:0:
182,192,103756,1,0,0:0:0:0:
109,192,103813,1,0,0:0:0:0:
182,192,103870,1,0,0:0:0:0:
256,192,103927,1,0,0:0:0:0:
329,192,103984,1,0,0:0:0:0:
36,192,104156,1,0,0:0:0:0:
109,192,104156,1,0,0:0:0:0:
182,192,104156,1,0,0:0:0:0:
475,192,104156,1,0,0:0:0:0:
256,192,104156,1,0,0:0:0:0:
36,192,104327,1,0,0:0:0:0:
109,192,104327,1,0,0:0:0:0:
402,192,104327,1,0,0:0:0:0:
475,192,104327,1,0,0:0:0:0:
182,192,104327,1,0,0:0:0:0:
36,192,104499,1,0,0:0:0:0:
329,192,104499,1,0,0:0:0:0:
402,192,104499,1,0,0:0:0:0:
475,192,104499,1,0,0:0:0:0:
109,192,104499,1,0,0:0:0:0:
256,192,104670,1,0,0:0:0:0:
329,192,104670,1,0,0:0:0:0:
402,192,104670,1,0,0:0:0:0:
475,192,104670,1,0,0:0:0:0:
36,192,104670,1,0,0:0:0:0:
182,192,104841,1,0,0:0:0:0:
256,192,104841,1,0,0:0:0:0:
329,192,104841,1,0,0:0:0:0:
402,192,104841,1,0,0:0:0:0:
475,192,104841,1,0,0:0:0:0:
475,192,105013,1,0,0:0:0:0:
256,192,105013,1,0,0:0:0:0:
182,192,105013,1,0,0:0:0:0:
109,192,105013,1,0,0:0:0:0:
36,192,105013,1,0,0:0:0:0:
36,192,105184,1,0,0:0:0:0:
109,192,105184,1,0,0:0:0:0:
182,192,105184,1,0,0:0:0:0:
402,192,105184,1,0,0:0:0:0:
475,192,105184,1,0,0:0:0:0:
109,192,105356,1,0,0:0:0:0:
36,192,105356,1,0,0:0:0:0:
329,192,105356,1,0,0:0:0:0:
402,192,105356,1,0,0:0:0:0:
475,192,105356,1,0,0:0:0:0:
36,192,105527,1,0,0:0:0:0:
256,192,105527,1,0,0:0:0:0:
329,192,105527,1,0,0:0:0:0:
402,192,105527,1,0,0:0:0:0:
475,192,105527,1,0,0:0:0:0:
182,192,105699,1,0,0:0:0:0:
256,192,105699,1,0,0:0:0:0:
329,192,105699,1,0,0:0:0:0:
402,192,105699,1,0,0:0:0:0:
475,192,105699,1,0,0:0:0:0:
109,192,105870,1,0,0:0:0:0:
182,192,105927,1,0,0:0:0:0:
256,192,105984,1,0,0:0:0:0:
329,192,106041,1,0,0:0:0:0:
402,192,106156,1,0,0:0:0:0:
475,192,106213,1,0,0:0:0:0:
402,192,106270,1,0,0:0:0:0:
329,192,106327,1,0,0:0:0:0:
256,192,106384,1,0,0:0:0:0:
182,192,106441,1,0,0:0:0:0:
109,192,106499,1,0,0:0:0:0:
36,192,106556,1,0,0:0:0:0:
109,192,106613,1,0,0:0:0:0:
182,192,106670,1,0,0:0:0:0:
256,192,106727,1,0,0:0:0:0:
329,192,106784,1,0,0:0:0:0:
182,192,106784,1,0,0:0:0:0:
402,192,106841,1,0,0:0:0:0:
109,192,106841,1,0,0:0:0:0:
475,192,106899,1,0,0:0:0:0:
36,192,106899,1,0,0:0:0:0:
109,192,106956,1,0,0:0:0:0:
182,192,107013,1,0,0:0:0:0:
256,192,107070,1,0,0:0:0:0:
329,192,107127,1,0,0:0:0:0:
182,192,107127,1,0,0:0:0:0:
402,192,107184,1,0,0:0:0:0:
109,192,107184,1,0,0:0:0:0:
475,192,107241,1,0,0:0:0:0:
36,192,107241,1,0,0:0:0:0:
402,192,107299,1,0,0:0:0:0:
109,192,107299,1,0,0:0:0:0:
329,192,107356,1,0,0:0:0:0:
182,192,107356,1,0,0:0:0:0:
256,192,107413,1,0,0:0:0:0:
182,192,107470,1,0,0:0:0:0:
109,192,107527,1,0,0:0:0:0:
36,192,107584,1,0,0:0:0:0:
109,192,107641,1,0,0:0:0:0:
182,192,107699,1,0,0:0:0:0:
256,192,107756,1,0,0:0:0:0:
329,192,107813,1,0,0:0:0:0:
402,192,107870,1,0,0:0:0:0:
475,192,107927,1,0,0:0:0:0:
402,192,107984,1,0,0:0:0:0:
329,192,108041,1,0,0:0:0:0:
256,192,108099,1,0,0:0:0:0:
182,192,108156,1,0,0:0:0:0:
329,192,108156,1,0,0:0:0:0:
109,192,108213,1,0,0:0:0:0:
402,192,108213,1,0,0:0:0:0:
36,192,108270,1,0,0:0:0:0:
475,192,108270,1,0,0:0:0:0:
256,192,108270,1,0,0:0:0:0:
182,192,108356,1,0,0:0:0:0:
329,192,108356,1,0,0:0:0:0:
109,192,108441,1,0,0:0:0:0:
402,192,108441,1,0,0:0:0:0:
36,192,108527,1,0,0:0:0:0:
475,192,108527,1,0,0:0:0:0:
256,192,108613,1,0,0:0:0:0:
329,192,108699,1,0,0:0:0:0:
182,192,108699,1,0,0:0:0:0:
402,192,108784,1,0,0:0:0:0:
109,192,108784,1,0,0:0:0:0:
475,192,108870,1,0,0:0:0:0:
36,192,108870,1,0,0:0:0:0:
109,192,108956,1,0,0:0:0:0:
402,192,108956,1,0,0:0:0:0:
329,192,108956,128,0,109299:0:0:0:0:
182,192,108956,128,0,109299:0:0:0:0:
256,192,108956,128,0,109299:0:0:0:0:
402,192,109299,128,0,109641:0:0:0:0:
475,192,109299,128,0,109641:0:0:0:0:
36,192,109299,128,0,109641:0:0:0:0:
109,192,109299,128,0,109641:0:0:0:0:
182,192,109641,1,0,0:0:0:0:
256,192,109641,1,0,0:0:0:0:
329,192,109641,1,0,0:0:0:0:
36,192,109813,1,0,0:0:0:0:
109,192,109813,1,0,0:0:0:0:
182,192,109813,1,0,0:0:0:0:
402,192,109813,1,0,0:0:0:0:
475,192,109813,1,0,0:0:0:0:
256,192,109813,1,0,0:0:0:0:
36,192,109984,1,0,0:0:0:0:
109,192,109984,1,0,0:0:0:0:
182,192,109984,1,0,0:0:0:0:
256,192,109984,1,0,0:0:0:0:
475,192,109984,1,0,0:0:0:0:
329,192,109984,1,0,0:0:0:0:
36,192,110156,1,0,0:0:0:0:
109,192,110156,1,0,0:0:0:0:
182,192,110156,1,0,0:0:0:0:
256,192,110156,1,0,0:0:0:0:
329,192,110156,1,0,0:0:0:0:
402,192,110156,1,0,0:0:0:0:
36,192,110327,1,0,0:0:0:0:
109,192,110327,1,0,0:0:0:0:
329,192,110327,1,0,0:0:0:0:
402,192,110327,1,0,0:0:0:0:
475,192,110327,1,0,0:0:0:0:
256,192,110327,1,0,0:0:0:0:
36,192,110499,1,0,0:0:0:0:
256,192,110499,1,0,0:0:0:0:
329,192,110499,1,0,0:0:0:0:
402,192,110499,1,0,0:0:0:0:
475,192,110499,1,0,0:0:0:0:
182,192,110499,1,0,0:0:0:0:
182,192,110670,1,0,0:0:0:0:
256,192,110670,1,0,0:0:0:0:
329,192,110670,1,0,0:0:0:0:
402,192,110670,1,0,0:0:0:0:
475,192,110670,1,0,0:0:0:0:
109,192,110670,1,0,0:0:0:0:
329,192,110841,1,0,0:0:0:0:
256,192,110841,1,0,0:0:0:0:
182,192,110841,1,0,0:0:0:0:
109,192,110841,1,0,0:0:0:0:
36,192,110841,1,0,0:0:0:0:
475,192,110841,1,0,0:0:0:0:
36,192,111013,1,0,0:0:0:0:
109,192,111013,1,0,0:0:0:0:
182,192,111099,1,0,0:0:0:0:
256,192,111184,1,0,0:0:0:0:
329,192,111270,1,0,0:0:0:0:
402,192,111356,1,0,0:0:0:0:
475,192,111441,1,0,0:0:0:0:
402,192,111527,1,0,0:0:0:0:
329,192,111613,1,0,0:0:0:0:
256,192,111699,1,0,0:0:0:0:
182,192,111699,1,0,0:0:0:0:
109,192,112041,1,0,0:0:0:0:
182,192,112041,1,0,0:0:0:0:
256,192,112041,1,0,0:0:0:0:
329,192,112041,1,0,0:0:0:0:
402,192,112041,1,0,0:0:0:0:
109,192,112384,1,0,0:0:0:0:
182,192,112384,1,0,0:0:0:0:
256,192,112384,1,0,0:0:0:0:
329,192,112384,1,0,0:0:0:0:
402,192,112384,1,0,0:0:0:0:
475,192,112384,128,0,113756:0:0:0:0:
402,192,113756,1,0,0:0:0:0:
256,192,113756,1,0,0:0:0:0:
329,192,113756,1,0,0:0:0:0:
182,192,113756,128,0,117184:0:0:0:0:
109,192,113756,128,0,117184:0:0:0:0:
256,192,113927,128,0,117184:0:0:0:0:
329,192,113927,128,0,117184:0:0:0:0:
402,192,113927,1,0,0:0:0:0:
