osu file format v14

[General]
AudioFilename: LUCID.mp3
AudioLeadIn: 0
PreviewTime: -1
Countdown: 0
SampleSet: Soft
StackLeniency: 0.4
Mode: 3
LetterboxInBreaks: 0
SpecialStyle: 0
WidescreenStoryboard: 1

[Editor]
DistanceSpacing: 0.8
BeatDivisor: 4
GridSize: 8
TimelineZoom: 1

[Metadata]
Title:4key & 7key Fantasy Last. Vol.
TitleUnicode:4key & 7key Fantasy Last. Vol.
Artist:Final Mania Dimension
ArtistUnicode:Final Mania Dimension
Creator:Un-known
Version:yak_won - LUCID [4key Normal]
Source:
Tags:
BeatmapID:683949
BeatmapSetID:298447

[Difficulty]
HPDrainRate:6
CircleSize:4
OverallDifficulty:6
ApproachRate:5
SliderMultiplier:1.4
SliderTickRate:1

[Events]
//Background and Video events
0,0,"7.jpg",0,0
//Break Periods
//Storyboard Layer 0 (Background)
//Storyboard Layer 1 (Fail)
//Storyboard Layer 2 (Pass)
//Storyboard Layer 3 (Foreground)
//Storyboard Sound Samples

[TimingPoints]
1299,342.857142857143,4,2,0,30,1,0
8156,-100,4,2,0,30,0,1
13641,-100,4,2,0,30,0,0
73984,-100,4,2,0,30,0,1
79127,-100,4,2,0,30,0,0
79470,-100,4,2,0,30,0,1
84956,-100,4,2,0,30,0,0

[HitObjects]
64,192,1299,5,0,0:0:0:0:
320,192,1299,1,0,0:0:0:0:
320,192,2670,1,0,0:0:0:0:
448,192,2670,1,0,0:0:0:0:
64,192,2670,1,0,0:0:0:0:
192,192,3013,1,0,0:0:0:0:
64,192,3013,1,0,0:0:0:0:
64,192,3356,1,0,0:0:0:0:
448,192,3356,1,0,0:0:0:0:
192,192,3356,1,0,0:0:0:0:
192,192,3699,1,0,0:0:0:0:
448,192,3699,1,0,0:0:0:0:
64,192,4041,1,0,0:0:0:0:
448,192,4041,1,0,0:0:0:0:
320,192,4213,1,0,0:0:0:0:
192,192,4384,1,0,0:0:0:0:
64,192,4384,1,0,0:0:0:0:
448,192,4556,1,0,0:0:0:0:
320,192,4727,1,0,0:0:0:0:
192,192,4727,1,0,0:0:0:0:
64,192,4899,1,0,0:0:0:0:
192,192,5070,1,0,0:0:0:0:
320,192,5070,1,0,0:0:0:0:
448,192,5241,1,0,0:0:0:0:
320,192,5413,1,0,0:0:0:0:
64,192,5413,1,0,0:0:0:0:
64,192,5584,1,0,0:0:0:0:
192,192,5756,1,0,0:0:0:0:
448,192,5756,1,0,0:0:0:0:
320,192,5927,1,0,0:0:0:0:
448,192,6099,1,0,0:0:0:0:
64,192,6099,1,0,0:0:0:0:
192,192,6270,1,0,0:0:0:0:
320,192,6441,1,0,0:0:0:0:
448,192,6441,1,0,0:0:0:0:
192,192,6613,1,0,0:0:0:0:
64,192,6784,1,0,0:0:0:0:
448,192,6784,1,0,0:0:0:0:
320,192,6956,1,0,0:0:0:0:
192,192,7127,1,0,0:0:0:0:
64,192,7127,1,0,0:0:0:0:
320,192,7299,1,0,0:0:0:0:
448,192,7470,128,0,7813:0:0:0:0:
64,192,7813,1,0,0:0:0:0:
192,192,8156,1,0,0:0:0:0:
448,192,8156,1,0,0:0:0:0:
320,192,8499,1,0,0:0:0:0:
448,192,8499,1,0,0:0:0:0:
64,192,8670,1,0,0:0:0:0:
192,192,8756,1,0,0:0:0:0:
320,192,8841,1,0,0:0:0:0:
448,192,9184,1,0,0:0:0:0:
192,192,9184,1,0,0:0:0:0:
64,192,9527,1,0,0:0:0:0:
320,192,9527,1,0,0:0:0:0:
320,192,9784,1,0,0:0:0:0:
448,192,10041,1,0,0:0:0:0:
192,192,10213,1,0,0:0:0:0:
64,192,10213,1,0,0:0:0:0:
448,192,10556,1,0,0:0:0:0:
320,192,10899,1,0,0:0:0:0:
192,192,10899,1,0,0:0:0:0:
64,192,11241,1,0,0:0:0:0:
448,192,11241,1,0,0:0:0:0:
192,192,11413,1,0,0:0:0:0:
320,192,11499,1,0,0:0:0:0:
448,192,11584,1,0,0:0:0:0:
64,192,11927,1,0,0:0:0:0:
320,192,11927,1,0,0:0:0:0:
448,192,12270,1,0,0:0:0:0:
320,192,12356,1,0,0:0:0:0:
192,192,12441,1,0,0:0:0:0:
64,192,12613,1,0,0:0:0:0:
320,192,12613,1,0,0:0:0:0:
448,192,12956,1,0,0:0:0:0:
192,192,12956,1,0,0:0:0:0:
320,192,13299,1,0,0:0:0:0:
64,192,13299,1,0,0:0:0:0:
192,192,13641,1,0,0:0:0:0:
320,192,13641,1,0,0:0:0:0:
448,192,13813,1,0,0:0:0:0:
64,192,13984,1,0,0:0:0:0:
192,192,13984,1,0,0:0:0:0:
320,192,14156,1,0,0:0:0:0:
192,192,14327,1,0,0:0:0:0:
448,192,14327,1,0,0:0:0:0:
320,192,14499,1,0,0:0:0:0:
448,192,14670,1,0,0:0:0:0:
192,192,14670,1,0,0:0:0:0:
64,192,14841,1,0,0:0:0:0:
320,192,15013,1,0,0:0:0:0:
448,192,15013,1,0,0:0:0:0:
192,192,15184,1,0,0:0:0:0:
64,192,15356,1,0,0:0:0:0:
320,192,15356,1,0,0:0:0:0:
448,192,15527,1,0,0:0:0:0:
320,192,15699,1,0,0:0:0:0:
192,192,15699,1,0,0:0:0:0:
64,192,15870,1,0,0:0:0:0:
192,192,16041,1,0,0:0:0:0:
320,192,16041,1,0,0:0:0:0:
448,192,16213,1,0,0:0:0:0:
320,192,16384,1,0,0:0:0:0:
64,192,16384,1,0,0:0:0:0:
64,192,16556,1,0,0:0:0:0:
192,192,16727,1,0,0:0:0:0:
448,192,16727,1,0,0:0:0:0:
320,192,16899,1,0,0:0:0:0:
448,192,17070,1,0,0:0:0:0:
64,192,17070,1,0,0:0:0:0:
192,192,17241,1,0,0:0:0:0:
320,192,17413,1,0,0:0:0:0:
448,192,17413,1,0,0:0:0:0:
192,192,17584,1,0,0:0:0:0:
64,192,17756,1,0,0:0:0:0:
320,192,17756,1,0,0:0:0:0:
448,192,17927,1,0,0:0:0:0:
320,192,18099,1,0,0:0:0:0:
192,192,18270,1,0,0:0:0:0:
64,192,18441,128,0,18784:0:0:0:0:
448,192,18784,1,0,0:0:0:0:
192,192,19127,128,0,19813:0:0:0:0:
64,192,19127,1,0,0:0:0:0:
448,192,19813,128,0,20156:0:0:0:0:
320,192,19813,1,0,0:0:0:0:
320,192,20156,128,0,20499:0:0:0:0:
64,192,20156,1,0,0:0:0:0:
192,192,20499,128,0,21184:0:0:0:0:
448,192,20499,1,0,0:0:0:0:
320,192,21184,128,0,21527:0:0:0:0:
448,192,21184,1,0,0:0:0:0:
64,192,21527,128,0,21870:0:0:0:0:
192,192,21527,1,0,0:0:0:0:
448,192,21870,128,0,22556:0:0:0:0:
320,192,21870,1,0,0:0:0:0:
64,192,22556,128,0,22899:0:0:0:0:
192,192,22556,1,0,0:0:0:0:
192,192,22899,128,0,23241:0:0:0:0:
448,192,22899,1,0,0:0:0:0:
320,192,23241,128,0,23927:0:0:0:0:
64,192,23241,1,0,0:0:0:0:
64,192,23927,128,0,24270:0:0:0:0:
192,192,23927,1,0,0:0:0:0:
448,192,24270,128,0,24613:0:0:0:0:
320,192,24270,1,0,0:0:0:0:
192,192,24613,128,0,25299:0:0:0:0:
64,192,24613,1,0,0:0:0:0:
448,192,25299,128,0,25641:0:0:0:0:
320,192,25299,1,0,0:0:0:0:
320,192,25641,128,0,25984:0:0:0:0:
64,192,25641,1,0,0:0:0:0:
192,192,25984,128,0,26670:0:0:0:0:
448,192,25984,1,0,0:0:0:0:
320,192,26670,128,0,27013:0:0:0:0:
64,192,26670,1,0,0:0:0:0:
64,192,27013,128,0,27356:0:0:0:0:
448,192,27013,1,0,0:0:0:0:
448,192,27356,128,0,28041:0:0:0:0:
192,192,27356,1,0,0:0:0:0:
64,192,28041,128,0,28384:0:0:0:0:
192,192,28041,1,0,0:0:0:0:
192,192,28384,128,0,28727:0:0:0:0:
448,192,28384,1,0,0:0:0:0:
320,192,28727,128,0,29413:0:0:0:0:
64,192,28727,1,0,0:0:0:0:
64,192,29413,128,0,29756:0:0:0:0:
192,192,29413,1,0,0:0:0:0:
448,192,29756,128,0,30099:0:0:0:0:
320,192,29756,1,0,0:0:0:0:
64,192,30099,1,0,0:0:0:0:
192,192,30099,1,0,0:0:0:0:
320,192,30441,1,0,0:0:0:0:
448,192,30441,1,0,0:0:0:0:
192,192,30784,1,0,0:0:0:0:
320,192,30784,1,0,0:0:0:0:
64,192,31127,1,0,0:0:0:0:
448,192,31127,1,0,0:0:0:0:
320,192,31470,1,0,0:0:0:0:
448,192,31470,1,0,0:0:0:0:
192,192,31641,1,0,0:0:0:0:
64,192,31813,1,0,0:0:0:0:
448,192,31813,1,0,0:0:0:0:
320,192,31984,1,0,0:0:0:0:
192,192,32156,1,0,0:0:0:0:
64,192,32156,1,0,0:0:0:0:
320,192,32327,1,0,0:0:0:0:
448,192,32499,1,0,0:0:0:0:
192,192,32499,1,0,0:0:0:0:
320,192,32670,1,0,0:0:0:0:
64,192,32841,1,0,0:0:0:0:
448,192,32841,1,0,0:0:0:0:
192,192,33013,1,0,0:0:0:0:
320,192,33184,1,0,0:0:0:0:
64,192,33184,1,0,0:0:0:0:
448,192,33356,1,0,0:0:0:0:
192,192,33527,1,0,0:0:0:0:
64,192,33527,1,0,0:0:0:0:
320,192,33699,1,0,0:0:0:0:
192,192,33870,1,0,0:0:0:0:
448,192,33870,1,0,0:0:0:0:
64,192,34041,1,0,0:0:0:0:
320,192,34213,1,0,0:0:0:0:
448,192,34213,1,0,0:0:0:0:
192,192,34384,1,0,0:0:0:0:
448,192,34556,1,0,0:0:0:0:
64,192,34556,1,0,0:0:0:0:
320,192,34727,1,0,0:0:0:0:
64,192,34899,128,0,35241:0:0:0:0:
192,192,35241,1,0,0:0:0:0:
448,192,35584,128,0,36270:0:0:0:0:
64,192,36270,128,0,36613:0:0:0:0:
192,192,36613,128,0,36956:0:0:0:0:
448,192,36956,128,0,37641:0:0:0:0:
320,192,37641,128,0,38327:0:0:0:0:
64,192,38327,128,0,39699:0:0:0:0:
448,192,39699,128,0,40041:0:0:0:0:
192,192,40041,128,0,40384:0:0:0:0:
64,192,40384,128,0,40727:0:0:0:0:
320,192,40727,128,0,41070:0:0:0:0:
192,192,41070,128,0,41756:0:0:0:0:
320,192,41756,128,0,42099:0:0:0:0:
64,192,42099,128,0,42441:0:0:0:0:
320,192,42441,128,0,43127:0:0:0:0:
448,192,43127,128,0,43813:0:0:0:0:
192,192,43813,128,0,44841:0:0:0:0:
448,192,44841,128,0,45184:0:0:0:0:
320,192,45184,128,0,46556:0:0:0:0:
448,192,46556,128,0,47241:0:0:0:0:
192,192,46556,128,0,47241:0:0:0:0:
64,192,47241,128,0,47584:0:0:0:0:
320,192,47241,128,0,47584:0:0:0:0:
192,192,47584,128,0,47927:0:0:0:0:
448,192,47584,1,0,0:0:0:0:
448,192,47927,128,0,48613:0:0:0:0:
64,192,47927,128,0,48613:0:0:0:0:
320,192,48613,128,0,49299:0:0:0:0:
192,192,48613,1,0,0:0:0:0:
64,192,49299,128,0,50670:0:0:0:0:
192,192,49299,128,0,50670:0:0:0:0:
448,192,50670,128,0,51013:0:0:0:0:
320,192,50670,128,0,51013:0:0:0:0:
192,192,51013,128,0,51356:0:0:0:0:
64,192,51013,1,0,0:0:0:0:
64,192,51356,128,0,51699:0:0:0:0:
448,192,51356,128,0,51699:0:0:0:0:
320,192,51699,128,0,52041:0:0:0:0:
192,192,51699,1,0,0:0:0:0:
192,192,52041,128,0,52727:0:0:0:0:
64,192,52041,128,0,52727:0:0:0:0:
320,192,52727,128,0,53070:0:0:0:0:
448,192,52727,1,0,0:0:0:0:
64,192,53070,128,0,53413:0:0:0:0:
448,192,53070,128,0,53413:0:0:0:0:
320,192,53413,128,0,54099:0:0:0:0:
192,192,53413,1,0,0:0:0:0:
448,192,54099,128,0,54784:0:0:0:0:
64,192,54099,128,0,54784:0:0:0:0:
192,192,54784,128,0,55813:0:0:0:0:
320,192,54784,1,0,0:0:0:0:
448,192,55813,128,0,56156:0:0:0:0:
64,192,55813,128,0,56156:0:0:0:0:
320,192,56156,128,0,57527:0:0:0:0:
192,192,56156,128,0,57527:0:0:0:0:
64,192,57527,128,0,58213:0:0:0:0:
448,192,57527,1,0,0:0:0:0:
448,192,58213,128,0,58556:0:0:0:0:
192,192,58213,1,0,0:0:0:0:
320,192,58556,128,0,58899:0:0:0:0:
64,192,58556,1,0,0:0:0:0:
192,192,58899,128,0,59584:0:0:0:0:
448,192,58899,1,0,0:0:0:0:
320,192,59584,128,0,59927:0:0:0:0:
64,192,59584,1,0,0:0:0:0:
64,192,59927,128,0,60270:0:0:0:0:
448,192,59927,1,0,0:0:0:0:
448,192,60270,128,0,60956:0:0:0:0:
192,192,60270,1,0,0:0:0:0:
64,192,60956,128,0,61299:0:0:0:0:
320,192,60956,1,0,0:0:0:0:
192,192,61299,128,0,61641:0:0:0:0:
448,192,61299,1,0,0:0:0:0:
320,192,61641,128,0,62327:0:0:0:0:
64,192,61641,1,0,0:0:0:0:
64,192,62327,128,0,62670:0:0:0:0:
448,192,62327,1,0,0:0:0:0:
448,192,62670,128,0,63013:0:0:0:0:
192,192,62670,1,0,0:0:0:0:
192,192,63013,128,0,63699:0:0:0:0:
64,192,63013,1,0,0:0:0:0:
448,192,63699,128,0,64041:0:0:0:0:
320,192,63699,1,0,0:0:0:0:
320,192,64041,128,0,64384:0:0:0:0:
64,192,64041,1,0,0:0:0:0:
192,192,64384,128,0,65070:0:0:0:0:
448,192,64384,1,0,0:0:0:0:
320,192,65070,128,0,65413:0:0:0:0:
64,192,65070,1,0,0:0:0:0:
64,192,65413,128,0,65756:0:0:0:0:
448,192,65413,1,0,0:0:0:0:
448,192,65756,128,0,66441:0:0:0:0:
192,192,65756,1,0,0:0:0:0:
64,192,66441,128,0,66784:0:0:0:0:
320,192,66441,1,0,0:0:0:0:
192,192,66784,128,0,67127:0:0:0:0:
448,192,66784,1,0,0:0:0:0:
320,192,67127,128,0,67813:0:0:0:0:
64,192,67127,1,0,0:0:0:0:
64,192,67813,128,0,68156:0:0:0:0:
448,192,67813,1,0,0:0:0:0:
448,192,68156,128,0,68499:0:0:0:0:
192,192,68156,1,0,0:0:0:0:
192,192,68499,1,0,0:0:0:0:
320,192,68499,1,0,0:0:0:0:
448,192,68670,1,0,0:0:0:0:
64,192,68841,1,0,0:0:0:0:
192,192,68841,1,0,0:0:0:0:
320,192,69013,1,0,0:0:0:0:
192,192,69184,1,0,0:0:0:0:
448,192,69184,1,0,0:0:0:0:
320,192,69356,1,0,0:0:0:0:
448,192,69527,1,0,0:0:0:0:
192,192,69527,1,0,0:0:0:0:
64,192,69699,1,0,0:0:0:0:
320,192,69870,1,0,0:0:0:0:
448,192,69870,1,0,0:0:0:0:
192,192,70041,1,0,0:0:0:0:
64,192,70213,1,0,0:0:0:0:
320,192,70213,1,0,0:0:0:0:
448,192,70384,1,0,0:0:0:0:
320,192,70556,1,0,0:0:0:0:
192,192,70556,1,0,0:0:0:0:
64,192,70727,1,0,0:0:0:0:
192,192,70899,1,0,0:0:0:0:
320,192,70899,1,0,0:0:0:0:
448,192,71070,1,0,0:0:0:0:
320,192,71241,1,0,0:0:0:0:
192,192,71241,1,0,0:0:0:0:
64,192,71413,1,0,0:0:0:0:
192,192,71584,1,0,0:0:0:0:
448,192,71584,1,0,0:0:0:0:
320,192,71756,1,0,0:0:0:0:
448,192,71927,1,0,0:0:0:0:
64,192,71927,1,0,0:0:0:0:
192,192,72099,1,0,0:0:0:0:
320,192,72270,1,0,0:0:0:0:
448,192,72270,1,0,0:0:0:0:
192,192,72441,1,0,0:0:0:0:
64,192,72613,1,0,0:0:0:0:
320,192,72613,1,0,0:0:0:0:
448,192,72784,1,0,0:0:0:0:
320,192,72956,1,0,0:0:0:0:
64,192,72956,1,0,0:0:0:0:
192,192,73127,1,0,0:0:0:0:
64,192,73299,128,0,73641:0:0:0:0:
448,192,73641,1,0,0:0:0:0:
192,192,73984,1,0,0:0:0:0:
448,192,73984,1,0,0:0:0:0:
320,192,74327,1,0,0:0:0:0:
448,192,74327,1,0,0:0:0:0:
64,192,74499,1,0,0:0:0:0:
192,192,74584,1,0,0:0:0:0:
320,192,74670,1,0,0:0:0:0:
448,192,75013,1,0,0:0:0:0:
192,192,75013,1,0,0:0:0:0:
64,192,75356,1,0,0:0:0:0:
320,192,75356,1,0,0:0:0:0:
320,192,75613,1,0,0:0:0:0:
448,192,75870,1,0,0:0:0:0:
192,192,76041,1,0,0:0:0:0:
64,192,76041,1,0,0:0:0:0:
448,192,76384,1,0,0:0:0:0:
320,192,76384,1,0,0:0:0:0:
320,192,76727,1,0,0:0:0:0:
192,192,76727,1,0,0:0:0:0:
64,192,77070,1,0,0:0:0:0:
320,192,77070,1,0,0:0:0:0:
192,192,77241,1,0,0:0:0:0:
320,192,77327,1,0,0:0:0:0:
448,192,77413,1,0,0:0:0:0:
64,192,77756,1,0,0:0:0:0:
320,192,77756,1,0,0:0:0:0:
448,192,78099,1,0,0:0:0:0:
64,192,78099,1,0,0:0:0:0:
320,192,78184,1,0,0:0:0:0:
192,192,78270,1,0,0:0:0:0:
64,192,78441,1,0,0:0:0:0:
320,192,78441,1,0,0:0:0:0:
448,192,78784,1,0,0:0:0:0:
192,192,78784,1,0,0:0:0:0:
192,192,79127,1,0,0:0:0:0:
320,192,79127,1,0,0:0:0:0:
320,192,79470,1,0,0:0:0:0:
64,192,79470,1,0,0:0:0:0:
192,192,79813,1,0,0:0:0:0:
64,192,79813,1,0,0:0:0:0:
448,192,79984,1,0,0:0:0:0:
320,192,80070,1,0,0:0:0:0:
192,192,80156,1,0,0:0:0:0:
64,192,80499,1,0,0:0:0:0:
192,192,80499,1,0,0:0:0:0:
448,192,80841,1,0,0:0:0:0:
320,192,80841,1,0,0:0:0:0:
192,192,81099,1,0,0:0:0:0:
64,192,81356,1,0,0:0:0:0:
320,192,81527,1,0,0:0:0:0:
448,192,81527,1,0,0:0:0:0:
64,192,81870,1,0,0:0:0:0:
192,192,81870,1,0,0:0:0:0:
192,192,82213,1,0,0:0:0:0:
320,192,82213,1,0,0:0:0:0:
448,192,82556,1,0,0:0:0:0:
64,192,82556,1,0,0:0:0:0:
320,192,82727,1,0,0:0:0:0:
192,192,82813,1,0,0:0:0:0:
64,192,82899,1,0,0:0:0:0:
448,192,83241,1,0,0:0:0:0:
192,192,83241,1,0,0:0:0:0:
64,192,83584,1,0,0:0:0:0:
192,192,83670,1,0,0:0:0:0:
320,192,83756,1,0,0:0:0:0:
448,192,83927,1,0,0:0:0:0:
192,192,83927,1,0,0:0:0:0:
64,192,84270,1,0,0:0:0:0:
320,192,84270,1,0,0:0:0:0:
192,192,84613,1,0,0:0:0:0:
448,192,84613,1,0,0:0:0:0:
320,192,84956,1,0,0:0:0:0:
192,192,84956,1,0,0:0:0:0:
448,192,85127,1,0,0:0:0:0:
64,192,85299,1,0,0:0:0:0:
192,192,85299,1,0,0:0:0:0:
320,192,85470,1,0,0:0:0:0:
192,192,85641,1,0,0:0:0:0:
448,192,85641,1,0,0:0:0:0:
320,192,85813,1,0,0:0:0:0:
448,192,85984,1,0,0:0:0:0:
192,192,85984,1,0,0:0:0:0:
64,192,86156,1,0,0:0:0:0:
320,192,86327,1,0,0:0:0:0:
448,192,86327,1,0,0:0:0:0:
192,192,86499,1,0,0:0:0:0:
64,192,86670,1,0,0:0:0:0:
320,192,86670,1,0,0:0:0:0:
448,192,86841,1,0,0:0:0:0:
320,192,87013,1,0,0:0:0:0:
192,192,87013,1,0,0:0:0:0:
64,192,87184,1,0,0:0:0:0:
192,192,87356,1,0,0:0:0:0:
320,192,87356,1,0,0:0:0:0:
448,192,87527,1,0,0:0:0:0:
320,192,87699,1,0,0:0:0:0:
192,192,87699,1,0,0:0:0:0:
64,192,87870,1,0,0:0:0:0:
192,192,88041,1,0,0:0:0:0:
448,192,88041,1,0,0:0:0:0:
320,192,88213,1,0,0:0:0:0:
448,192,88384,1,0,0:0:0:0:
64,192,88384,1,0,0:0:0:0:
192,192,88556,1,0,0:0:0:0:
320,192,88727,1,0,0:0:0:0:
448,192,88727,1,0,0:0:0:0:
192,192,88899,1,0,0:0:0:0:
64,192,89070,1,0,0:0:0:0:
320,192,89070,1,0,0:0:0:0:
448,192,89241,1,0,0:0:0:0:
320,192,89413,1,0,0:0:0:0:
64,192,89413,1,0,0:0:0:0:
192,192,89584,1,0,0:0:0:0:
64,192,89756,128,0,90099:0:0:0:0:
448,192,90099,1,0,0:0:0:0:
64,192,90441,1,0,0:0:0:0:
192,192,90527,1,0,0:0:0:0:
320,192,90613,1,0,0:0:0:0:
448,192,90699,1,0,0:0:0:0:
448,192,91127,1,0,0:0:0:0:
320,192,91213,1,0,0:0:0:0:
192,192,91299,1,0,0:0:0:0:
64,192,91384,1,0,0:0:0:0:
448,192,91813,1,0,0:0:0:0:
320,192,91899,1,0,0:0:0:0:
192,192,91984,1,0,0:0:0:0:
64,192,92070,1,0,0:0:0:0:
64,192,92499,1,0,0:0:0:0:
192,192,92584,1,0,0:0:0:0:
320,192,92670,1,0,0:0:0:0:
448,192,92756,1,0,0:0:0:0:
192,192,93184,128,0,93870:0:0:0:0:
64,192,93184,1,0,0:0:0:0:
448,192,93870,128,0,94213:0:0:0:0:
320,192,93870,1,0,0:0:0:0:
320,192,94213,128,0,94556:0:0:0:0:
64,192,94213,1,0,0:0:0:0:
192,192,94556,128,0,95241:0:0:0:0:
448,192,94556,1,0,0:0:0:0:
320,192,95241,128,0,95584:0:0:0:0:
448,192,95241,1,0,0:0:0:0:
64,192,95584,128,0,95927:0:0:0:0:
192,192,95584,1,0,0:0:0:0:
448,192,95927,128,0,96613:0:0:0:0:
320,192,95927,1,0,0:0:0:0:
64,192,96613,128,0,96956:0:0:0:0:
320,192,96613,1,0,0:0:0:0:
192,192,96956,128,0,97299:0:0:0:0:
448,192,96956,1,0,0:0:0:0:
320,192,97299,128,0,97984:0:0:0:0:
64,192,97299,1,0,0:0:0:0:
64,192,97984,128,0,98327:0:0:0:0:
192,192,97984,1,0,0:0:0:0:
448,192,98327,128,0,98670:0:0:0:0:
320,192,98327,1,0,0:0:0:0:
192,192,98670,128,0,99356:0:0:0:0:
64,192,98670,1,0,0:0:0:0:
448,192,99356,128,0,99699:0:0:0:0:
320,192,99356,1,0,0:0:0:0:
320,192,99699,128,0,100041:0:0:0:0:
64,192,99699,1,0,0:0:0:0:
192,192,100041,128,0,100727:0:0:0:0:
448,192,100041,1,0,0:0:0:0:
320,192,100727,128,0,101070:0:0:0:0:
64,192,100727,1,0,0:0:0:0:
64,192,101070,128,0,101413:0:0:0:0:
192,192,101070,1,0,0:0:0:0:
448,192,101413,128,0,102099:0:0:0:0:
320,192,101413,1,0,0:0:0:0:
64,192,102099,128,0,102441:0:0:0:0:
192,192,102099,1,0,0:0:0:0:
192,192,102441,128,0,102784:0:0:0:0:
448,192,102441,1,0,0:0:0:0:
320,192,102784,128,0,103470:0:0:0:0:
64,192,102784,1,0,0:0:0:0:
448,192,103470,128,0,104156:0:0:0:0:
192,192,103470,1,0,0:0:0:0:
64,192,104156,1,0,0:0:0:0:
192,192,104156,1,0,0:0:0:0:
448,192,104499,1,0,0:0:0:0:
320,192,104499,1,0,0:0:0:0:
192,192,104841,1,0,0:0:0:0:
320,192,104841,1,0,0:0:0:0:
64,192,105184,1,0,0:0:0:0:
448,192,105184,1,0,0:0:0:0:
320,192,105527,1,0,0:0:0:0:
448,192,105527,1,0,0:0:0:0:
192,192,105699,1,0,0:0:0:0:
64,192,105870,1,0,0:0:0:0:
448,192,105870,1,0,0:0:0:0:
320,192,106041,1,0,0:0:0:0:
192,192,106213,1,0,0:0:0:0:
64,192,106213,1,0,0:0:0:0:
320,192,106384,1,0,0:0:0:0:
448,192,106556,1,0,0:0:0:0:
192,192,106556,1,0,0:0:0:0:
320,192,106727,1,0,0:0:0:0:
64,192,106899,1,0,0:0:0:0:
448,192,106899,1,0,0:0:0:0:
192,192,107070,1,0,0:0:0:0:
320,192,107241,1,0,0:0:0:0:
64,192,107241,1,0,0:0:0:0:
448,192,107413,1,0,0:0:0:0:
192,192,107584,1,0,0:0:0:0:
64,192,107584,1,0,0:0:0:0:
320,192,107756,1,0,0:0:0:0:
192,192,107927,1,0,0:0:0:0:
448,192,107927,1,0,0:0:0:0:
64,192,108099,1,0,0:0:0:0:
320,192,108270,1,0,0:0:0:0:
448,192,108270,1,0,0:0:0:0:
192,192,108441,1,0,0:0:0:0:
448,192,108613,1,0,0:0:0:0:
64,192,108613,1,0,0:0:0:0:
320,192,108784,1,0,0:0:0:0:
64,192,108956,128,0,109299:0:0:0:0:
192,192,109299,1,0,0:0:0:0:
320,192,109641,1,0,0:0:0:0:
448,192,109641,1,0,0:0:0:0:
192,192,109984,1,0,0:0:0:0:
320,192,109984,1,0,0:0:0:0:
64,192,110327,1,0,0:0:0:0:
320,192,110327,1,0,0:0:0:0:
192,192,110670,1,0,0:0:0:0:
448,192,110670,1,0,0:0:0:0:
448,192,111013,1,0,0:0:0:0:
320,192,111184,1,0,0:0:0:0:
64,192,111356,1,0,0:0:0:0:
192,192,111527,1,0,0:0:0:0:
320,192,111699,1,0,0:0:0:0:
64,192,112041,1,0,0:0:0:0:
448,192,112041,1,0,0:0:0:0:
192,192,112384,128,0,113756:0:0:0:0:
320,192,112384,128,0,113756:0:0:0:0:
64,192,113756,1,0,0:0:0:0:
448,192,113756,1,0,0:0:0:0:
320,192,113927,128,0,117184:0:0:0:0:
448,192,113927,128,0,117184:0:0:0:0:
64,192,113927,1,0,0:0:0:0:
192,192,113927,1,0,0:0:0:0:
