osu file format v14

[General]
AudioFilename: LUCID.mp3
AudioLeadIn: 0
PreviewTime: -1
Countdown: 0
SampleSet: None
StackLeniency: 0.4
Mode: 3
LetterboxInBreaks: 0
SpecialStyle: 0
WidescreenStoryboard: 1

[Editor]
DistanceSpacing: 0.8
BeatDivisor: 4
GridSize: 8
TimelineZoom: 1.159999

[Metadata]
Title:4key & 7key Fantasy Last. Vol.
TitleUnicode:4key & 7key Fantasy Last. Vol.
Artist:Final Mania Dimension
ArtistUnicode:Final Mania Dimension
Creator:Un-known
Version:yak_won - LUCID [4key Hard]
Source:
Tags:
BeatmapID:706245
BeatmapSetID:298447

[Difficulty]
HPDrainRate:7
CircleSize:4
OverallDifficulty:7
ApproachRate:5
SliderMultiplier:1.4
SliderTickRate:1

[Events]
//Background and Video events
0,0,"7.jpg",0,0
//Break Periods
//Storyboard Layer 0 (Background)
//Storyboard Layer 1 (Fail)
//Storyboard Layer 2 (Pass)
//Storyboard Layer 3 (Foreground)
//Storyboard Sound Samples

[TimingPoints]
1299,342.857142857143,4,2,0,30,1,0
8156,-100,4,2,0,30,0,1
13641,-100,4,2,0,30,0,0
73984,-100,4,2,0,30,0,1
79127,-100,4,2,0,30,0,0
79470,-100,4,2,0,30,0,1
84956,-100,4,2,0,30,0,0

[HitObjects]
64,192,1299,5,0,0:0:0:0:
320,192,1470,1,0,0:0:0:0:
192,192,1641,1,0,0:0:0:0:
448,192,1641,1,0,0:0:0:0:
64,192,1727,1,0,0:0:0:0:
192,192,1813,1,0,0:0:0:0:
320,192,1899,1,0,0:0:0:0:
448,192,1984,1,0,0:0:0:0:
192,192,2070,1,0,0:0:0:0:
320,192,2156,1,0,0:0:0:0:
64,192,2156,1,0,0:0:0:0:
192,192,2327,1,0,0:0:0:0:
448,192,2327,1,0,0:0:0:0:
64,192,2670,1,0,0:0:0:0:
192,192,2670,1,0,0:0:0:0:
448,192,2670,1,0,0:0:0:0:
320,192,2841,1,0,0:0:0:0:
448,192,2841,1,0,0:0:0:0:
320,192,3013,1,0,0:0:0:0:
448,192,3013,1,0,0:0:0:0:
64,192,3013,1,0,0:0:0:0:
192,192,3184,1,0,0:0:0:0:
64,192,3356,1,0,0:0:0:0:
192,192,3356,1,0,0:0:0:0:
320,192,3356,1,0,0:0:0:0:
448,192,3527,1,0,0:0:0:0:
448,192,3699,1,0,0:0:0:0:
320,192,3699,1,0,0:0:0:0:
192,192,3699,1,0,0:0:0:0:
64,192,3870,1,0,0:0:0:0:
320,192,4041,1,0,0:0:0:0:
192,192,4127,1,0,0:0:0:0:
64,192,4213,1,0,0:0:0:0:
320,192,4299,1,0,0:0:0:0:
192,192,4384,1,0,0:0:0:0:
320,192,4470,1,0,0:0:0:0:
448,192,4556,1,0,0:0:0:0:
192,192,4641,1,0,0:0:0:0:
320,192,4727,1,0,0:0:0:0:
64,192,4813,1,0,0:0:0:0:
192,192,4899,1,0,0:0:0:0:
320,192,4984,1,0,0:0:0:0:
448,192,5070,1,0,0:0:0:0:
192,192,5156,1,0,0:0:0:0:
320,192,5241,1,0,0:0:0:0:
192,192,5327,1,0,0:0:0:0:
64,192,5413,1,0,0:0:0:0:
192,192,5499,1,0,0:0:0:0:
320,192,5584,1,0,0:0:0:0:
448,192,5670,1,0,0:0:0:0:
192,192,5756,1,0,0:0:0:0:
320,192,5841,1,0,0:0:0:0:
192,192,5927,1,0,0:0:0:0:
64,192,6013,1,0,0:0:0:0:
448,192,6099,1,0,0:0:0:0:
320,192,6184,1,0,0:0:0:0:
192,192,6270,1,0,0:0:0:0:
64,192,6356,1,0,0:0:0:0:
320,192,6441,1,0,0:0:0:0:
192,192,6527,1,0,0:0:0:0:
64,192,6613,1,0,0:0:0:0:
192,192,6699,1,0,0:0:0:0:
448,192,6784,1,0,0:0:0:0:
320,192,6870,1,0,0:0:0:0:
448,192,6956,1,0,0:0:0:0:
320,192,7041,1,0,0:0:0:0:
64,192,7127,1,0,0:0:0:0:
320,192,7213,1,0,0:0:0:0:
192,192,7299,1,0,0:0:0:0:
64,192,7384,1,0,0:0:0:0:
320,192,7470,128,0,7813:0:0:0:0:
448,192,7470,128,0,7813:0:0:0:0:
192,192,7470,1,0,0:0:0:0:
64,192,7813,128,0,8156:0:0:0:0:
320,192,8156,1,0,0:0:0:0:
448,192,8156,1,0,0:0:0:0:
192,192,8241,1,0,0:0:0:0:
64,192,8327,1,0,0:0:0:0:
320,192,8413,1,0,0:0:0:0:
448,192,8499,1,0,0:0:0:0:
192,192,8584,1,0,0:0:0:0:
64,192,8670,1,0,0:0:0:0:
320,192,8670,1,0,0:0:0:0:
192,192,8756,1,0,0:0:0:0:
320,192,8841,1,0,0:0:0:0:
448,192,8841,1,0,0:0:0:0:
64,192,8927,1,0,0:0:0:0:
320,192,9013,1,0,0:0:0:0:
192,192,9099,1,0,0:0:0:0:
320,192,9184,1,0,0:0:0:0:
448,192,9270,1,0,0:0:0:0:
320,192,9356,1,0,0:0:0:0:
64,192,9441,1,0,0:0:0:0:
192,192,9527,1,0,0:0:0:0:
320,192,9613,1,0,0:0:0:0:
448,192,9699,1,0,0:0:0:0:
192,192,9784,1,0,0:0:0:0:
320,192,9870,1,0,0:0:0:0:
192,192,9956,1,0,0:0:0:0:
64,192,10041,1,0,0:0:0:0:
448,192,10127,1,0,0:0:0:0:
320,192,10213,1,0,0:0:0:0:
192,192,10299,5,0,0:0:0:0:
64,192,10384,1,0,0:0:0:0:
320,192,10470,1,0,0:0:0:0:
192,192,10556,1,0,0:0:0:0:
320,192,10641,1,0,0:0:0:0:
448,192,10727,1,0,0:0:0:0:
320,192,10813,1,0,0:0:0:0:
64,192,10899,1,0,0:0:0:0:
320,192,10984,1,0,0:0:0:0:
192,192,11070,1,0,0:0:0:0:
320,192,11156,1,0,0:0:0:0:
448,192,11241,1,0,0:0:0:0:
320,192,11327,1,0,0:0:0:0:
64,192,11413,5,0,0:0:0:0:
192,192,11413,1,0,0:0:0:0:
320,192,11499,1,0,0:0:0:0:
192,192,11584,1,0,0:0:0:0:
448,192,11584,1,0,0:0:0:0:
64,192,11670,1,0,0:0:0:0:
192,192,11756,1,0,0:0:0:0:
320,192,11841,1,0,0:0:0:0:
192,192,11927,1,0,0:0:0:0:
448,192,12013,1,0,0:0:0:0:
320,192,12099,1,0,0:0:0:0:
192,192,12184,1,0,0:0:0:0:
64,192,12270,5,0,0:0:0:0:
448,192,12270,1,0,0:0:0:0:
192,192,12356,1,0,0:0:0:0:
320,192,12441,1,0,0:0:0:0:
448,192,12441,1,0,0:0:0:0:
64,192,12527,1,0,0:0:0:0:
320,192,12613,1,0,0:0:0:0:
192,192,12699,1,0,0:0:0:0:
320,192,12784,1,0,0:0:0:0:
448,192,12870,1,0,0:0:0:0:
320,192,12956,1,0,0:0:0:0:
192,192,13041,1,0,0:0:0:0:
64,192,13127,1,0,0:0:0:0:
192,192,13213,1,0,0:0:0:0:
320,192,13299,128,0,13641:0:0:0:0:
64,192,13299,128,0,13641:0:0:0:0:
192,192,13641,1,0,0:0:0:0:
448,192,13727,1,0,0:0:0:0:
192,192,13813,1,0,0:0:0:0:
320,192,13899,1,0,0:0:0:0:
192,192,13984,1,0,0:0:0:0:
448,192,13984,1,0,0:0:0:0:
64,192,14070,1,0,0:0:0:0:
320,192,14156,1,0,0:0:0:0:
192,192,14241,1,0,0:0:0:0:
320,192,14327,1,0,0:0:0:0:
448,192,14413,1,0,0:0:0:0:
192,192,14499,1,0,0:0:0:0:
320,192,14584,1,0,0:0:0:0:
64,192,14670,1,0,0:0:0:0:
192,192,14670,1,0,0:0:0:0:
448,192,14756,1,0,0:0:0:0:
192,192,14841,1,0,0:0:0:0:
64,192,14927,1,0,0:0:0:0:
192,192,15013,1,0,0:0:0:0:
448,192,15099,1,0,0:0:0:0:
320,192,15184,1,0,0:0:0:0:
192,192,15270,1,0,0:0:0:0:
64,192,15356,1,0,0:0:0:0:
448,192,15356,1,0,0:0:0:0:
320,192,15441,1,0,0:0:0:0:
192,192,15527,1,0,0:0:0:0:
64,192,15613,1,0,0:0:0:0:
320,192,15699,1,0,0:0:0:0:
192,192,15784,1,0,0:0:0:0:
448,192,15870,1,0,0:0:0:0:
320,192,15956,1,0,0:0:0:0:
192,192,16041,1,0,0:0:0:0:
448,192,16041,1,0,0:0:0:0:
64,192,16127,1,0,0:0:0:0:
320,192,16213,1,0,0:0:0:0:
192,192,16299,1,0,0:0:0:0:
320,192,16384,1,0,0:0:0:0:
448,192,16470,1,0,0:0:0:0:
192,192,16556,1,0,0:0:0:0:
320,192,16641,1,0,0:0:0:0:
192,192,16727,1,0,0:0:0:0:
64,192,16727,1,0,0:0:0:0:
448,192,16813,1,0,0:0:0:0:
320,192,16899,1,0,0:0:0:0:
64,192,16984,1,0,0:0:0:0:
192,192,17070,1,0,0:0:0:0:
320,192,17156,1,0,0:0:0:0:
192,192,17241,1,0,0:0:0:0:
448,192,17327,1,0,0:0:0:0:
320,192,17413,1,0,0:0:0:0:
192,192,17413,1,0,0:0:0:0:
64,192,17499,1,0,0:0:0:0:
448,192,17584,1,0,0:0:0:0:
320,192,17670,1,0,0:0:0:0:
192,192,17756,1,0,0:0:0:0:
64,192,17841,1,0,0:0:0:0:
192,192,17927,1,0,0:0:0:0:
320,192,18013,1,0,0:0:0:0:
64,192,18099,1,0,0:0:0:0:
448,192,18099,1,0,0:0:0:0:
320,192,18184,1,0,0:0:0:0:
192,192,18270,1,0,0:0:0:0:
64,192,18356,1,0,0:0:0:0:
320,192,18441,128,0,18784:0:0:0:0:
448,192,18441,128,0,18784:0:0:0:0:
192,192,18784,128,0,19127:0:0:0:0:
64,192,18784,128,0,19127:0:0:0:0:
448,192,19127,1,0,0:0:0:0:
320,192,19213,1,0,0:0:0:0:
192,192,19299,1,0,0:0:0:0:
448,192,19384,1,0,0:0:0:0:
192,192,19470,1,0,0:0:0:0:
64,192,19556,1,0,0:0:0:0:
320,192,19641,1,0,0:0:0:0:
192,192,19727,1,0,0:0:0:0:
64,192,19813,1,0,0:0:0:0:
192,192,19870,1,0,0:0:0:0:
320,192,19927,1,0,0:0:0:0:
448,192,19984,1,0,0:0:0:0:
320,192,20070,1,0,0:0:0:0:
448,192,20156,1,0,0:0:0:0:
320,192,20213,1,0,0:0:0:0:
192,192,20270,1,0,0:0:0:0:
64,192,20327,1,0,0:0:0:0:
192,192,20413,1,0,0:0:0:0:
320,192,20499,1,0,0:0:0:0:
448,192,20584,1,0,0:0:0:0:
192,192,20670,1,0,0:0:0:0:
320,192,20756,1,0,0:0:0:0:
448,192,20841,1,0,0:0:0:0:
64,192,20927,1,0,0:0:0:0:
192,192,21013,1,0,0:0:0:0:
320,192,21099,1,0,0:0:0:0:
192,192,21184,1,0,0:0:0:0:
320,192,21241,1,0,0:0:0:0:
448,192,21299,1,0,0:0:0:0:
192,192,21356,1,0,0:0:0:0:
64,192,21441,1,0,0:0:0:0:
320,192,21527,1,0,0:0:0:0:
192,192,21584,1,0,0:0:0:0:
64,192,21641,1,0,0:0:0:0:
320,192,21699,1,0,0:0:0:0:
448,192,21784,1,0,0:0:0:0:
320,192,21870,1,0,0:0:0:0:
64,192,21956,1,0,0:0:0:0:
192,192,22041,1,0,0:0:0:0:
320,192,22127,1,0,0:0:0:0:
448,192,22213,1,0,0:0:0:0:
64,192,22299,1,0,0:0:0:0:
320,192,22384,1,0,0:0:0:0:
192,192,22470,1,0,0:0:0:0:
64,192,22556,1,0,0:0:0:0:
192,192,22613,1,0,0:0:0:0:
320,192,22670,1,0,0:0:0:0:
192,192,22727,1,0,0:0:0:0:
320,192,22813,1,0,0:0:0:0:
448,192,22899,1,0,0:0:0:0:
320,192,22956,1,0,0:0:0:0:
192,192,23013,1,0,0:0:0:0:
64,192,23070,1,0,0:0:0:0:
320,192,23156,1,0,0:0:0:0:
64,192,23241,1,0,0:0:0:0:
192,192,23327,1,0,0:0:0:0:
320,192,23413,1,0,0:0:0:0:
448,192,23499,1,0,0:0:0:0:
192,192,23584,1,0,0:0:0:0:
64,192,23670,1,0,0:0:0:0:
320,192,23756,1,0,0:0:0:0:
448,192,23841,1,0,0:0:0:0:
320,192,23927,1,0,0:0:0:0:
192,192,23984,1,0,0:0:0:0:
64,192,24041,1,0,0:0:0:0:
320,192,24099,1,0,0:0:0:0:
448,192,24184,1,0,0:0:0:0:
192,192,24270,1,0,0:0:0:0:
320,192,24327,1,0,0:0:0:0:
448,192,24384,1,0,0:0:0:0:
192,192,24441,1,0,0:0:0:0:
64,192,24527,1,0,0:0:0:0:
192,192,24613,1,0,0:0:0:0:
320,192,24699,1,0,0:0:0:0:
64,192,24784,1,0,0:0:0:0:
192,192,24870,1,0,0:0:0:0:
448,192,24956,1,0,0:0:0:0:
320,192,25041,1,0,0:0:0:0:
192,192,25127,1,0,0:0:0:0:
64,192,25213,1,0,0:0:0:0:
448,192,25299,1,0,0:0:0:0:
320,192,25356,1,0,0:0:0:0:
192,192,25413,1,0,0:0:0:0:
320,192,25470,1,0,0:0:0:0:
448,192,25556,1,0,0:0:0:0:
64,192,25641,1,0,0:0:0:0:
192,192,25699,1,0,0:0:0:0:
320,192,25756,1,0,0:0:0:0:
448,192,25813,1,0,0:0:0:0:
320,192,25899,1,0,0:0:0:0:
192,192,25984,1,0,0:0:0:0:
64,192,26070,1,0,0:0:0:0:
448,192,26156,1,0,0:0:0:0:
192,192,26241,1,0,0:0:0:0:
320,192,26327,1,0,0:0:0:0:
448,192,26413,1,0,0:0:0:0:
192,192,26499,1,0,0:0:0:0:
320,192,26584,1,0,0:0:0:0:
448,192,26670,1,0,0:0:0:0:
320,192,26727,1,0,0:0:0:0:
192,192,26784,1,0,0:0:0:0:
448,192,26841,1,0,0:0:0:0:
320,192,26927,1,0,0:0:0:0:
64,192,27013,1,0,0:0:0:0:
192,192,27070,1,0,0:0:0:0:
320,192,27127,1,0,0:0:0:0:
448,192,27184,1,0,0:0:0:0:
320,192,27270,1,0,0:0:0:0:
64,192,27356,1,0,0:0:0:0:
448,192,27441,1,0,0:0:0:0:
192,192,27527,1,0,0:0:0:0:
64,192,27613,1,0,0:0:0:0:
320,192,27699,1,0,0:0:0:0:
192,192,27784,1,0,0:0:0:0:
64,192,27870,1,0,0:0:0:0:
320,192,27956,1,0,0:0:0:0:
64,192,28041,1,0,0:0:0:0:
192,192,28099,1,0,0:0:0:0:
320,192,28156,1,0,0:0:0:0:
448,192,28213,1,0,0:0:0:0:
192,192,28299,1,0,0:0:0:0:
448,192,28384,1,0,0:0:0:0:
320,192,28441,1,0,0:0:0:0:
192,192,28499,1,0,0:0:0:0:
64,192,28727,1,0,0:0:0:0:
448,192,28727,1,0,0:0:0:0:
320,192,28984,1,0,0:0:0:0:
64,192,28984,1,0,0:0:0:0:
192,192,29070,1,0,0:0:0:0:
448,192,29070,1,0,0:0:0:0:
320,192,29241,1,0,0:0:0:0:
448,192,29241,1,0,0:0:0:0:
64,192,29413,1,0,0:0:0:0:
192,192,29413,1,0,0:0:0:0:
320,192,29499,1,0,0:0:0:0:
192,192,29584,1,0,0:0:0:0:
448,192,29670,1,0,0:0:0:0:
192,192,29756,1,0,0:0:0:0:
64,192,29756,1,0,0:0:0:0:
320,192,29841,1,0,0:0:0:0:
192,192,29927,1,0,0:0:0:0:
64,192,30013,1,0,0:0:0:0:
320,192,30099,1,0,0:0:0:0:
448,192,30099,1,0,0:0:0:0:
192,192,30270,1,0,0:0:0:0:
64,192,30270,1,0,0:0:0:0:
320,192,30441,1,0,0:0:0:0:
448,192,30441,1,0,0:0:0:0:
192,192,30613,1,0,0:0:0:0:
64,192,30613,1,0,0:0:0:0:
320,192,30784,1,0,0:0:0:0:
448,192,30784,1,0,0:0:0:0:
192,192,30956,1,0,0:0:0:0:
64,192,30956,1,0,0:0:0:0:
320,192,31127,1,0,0:0:0:0:
448,192,31127,1,0,0:0:0:0:
192,192,31299,1,0,0:0:0:0:
64,192,31299,1,0,0:0:0:0:
320,192,31470,1,0,0:0:0:0:
192,192,31556,1,0,0:0:0:0:
64,192,31641,1,0,0:0:0:0:
320,192,31727,1,0,0:0:0:0:
192,192,31813,1,0,0:0:0:0:
320,192,31899,1,0,0:0:0:0:
448,192,31984,1,0,0:0:0:0:
192,192,32070,1,0,0:0:0:0:
320,192,32156,1,0,0:0:0:0:
64,192,32241,1,0,0:0:0:0:
192,192,32327,1,0,0:0:0:0:
320,192,32413,1,0,0:0:0:0:
448,192,32499,1,0,0:0:0:0:
192,192,32584,1,0,0:0:0:0:
320,192,32670,1,0,0:0:0:0:
192,192,32756,1,0,0:0:0:0:
64,192,32841,1,0,0:0:0:0:
192,192,32927,1,0,0:0:0:0:
320,192,33013,1,0,0:0:0:0:
448,192,33099,1,0,0:0:0:0:
192,192,33184,1,0,0:0:0:0:
320,192,33270,1,0,0:0:0:0:
192,192,33356,1,0,0:0:0:0:
64,192,33441,1,0,0:0:0:0:
448,192,33527,1,0,0:0:0:0:
320,192,33613,1,0,0:0:0:0:
192,192,33699,1,0,0:0:0:0:
64,192,33784,1,0,0:0:0:0:
320,192,33870,1,0,0:0:0:0:
192,192,33956,1,0,0:0:0:0:
64,192,34041,1,0,0:0:0:0:
192,192,34127,1,0,0:0:0:0:
448,192,34213,1,0,0:0:0:0:
320,192,34299,1,0,0:0:0:0:
448,192,34384,1,0,0:0:0:0:
320,192,34470,1,0,0:0:0:0:
64,192,34556,1,0,0:0:0:0:
320,192,34641,1,0,0:0:0:0:
192,192,34727,1,0,0:0:0:0:
448,192,34813,1,0,0:0:0:0:
64,192,34899,128,0,35241:0:0:0:0:
320,192,34899,128,0,35241:0:0:0:0:
192,192,35241,128,0,35584:0:0:0:0:
448,192,35241,1,0,0:0:0:0:
64,192,35584,128,0,36270:0:0:0:0:
448,192,36270,128,0,36613:0:0:0:0:
320,192,36613,128,0,36956:0:0:0:0:
192,192,36956,128,0,37641:0:0:0:0:
448,192,37641,128,0,38327:0:0:0:0:
320,192,38327,128,0,39699:0:0:0:0:
448,192,39699,128,0,40041:0:0:0:0:
320,192,40041,128,0,40384:0:0:0:0:
192,192,40384,128,0,40727:0:0:0:0:
320,192,40727,128,0,41070:0:0:0:0:
64,192,41070,128,0,41756:0:0:0:0:
192,192,41756,128,0,42099:0:0:0:0:
448,192,42099,128,0,42441:0:0:0:0:
320,192,42441,128,0,43127:0:0:0:0:
448,192,43127,128,0,43813:0:0:0:0:
192,192,43813,128,0,44841:0:0:0:0:
320,192,44841,128,0,45184:0:0:0:0:
448,192,45184,128,0,46556:0:0:0:0:
64,192,46556,128,0,47156:0:0:0:0:
192,192,46556,128,0,47156:0:0:0:0:
192,192,47241,128,0,47499:0:0:0:0:
320,192,47241,128,0,47499:0:0:0:0:
320,192,47584,128,0,47841:0:0:0:0:
448,192,47584,128,0,47841:0:0:0:0:
64,192,47927,128,0,48527:0:0:0:0:
192,192,47927,128,0,48527:0:0:0:0:
320,192,48613,128,0,49213:0:0:0:0:
448,192,48613,128,0,49213:0:0:0:0:
64,192,49299,128,0,50584:0:0:0:0:
192,192,49299,128,0,50584:0:0:0:0:
64,192,50670,128,0,50927:0:0:0:0:
448,192,50670,128,0,50927:0:0:0:0:
320,192,51013,128,0,51270:0:0:0:0:
64,192,51013,128,0,51270:0:0:0:0:
64,192,51356,128,0,51613:0:0:0:0:
192,192,51356,128,0,51613:0:0:0:0:
64,192,51699,128,0,51956:0:0:0:0:
320,192,51699,128,0,51956:0:0:0:0:
192,192,52041,128,0,52641:0:0:0:0:
448,192,52041,128,0,52641:0:0:0:0:
320,192,52727,128,0,52984:0:0:0:0:
448,192,52727,128,0,52984:0:0:0:0:
192,192,53070,128,0,53327:0:0:0:0:
320,192,53070,128,0,53327:0:0:0:0:
64,192,53413,128,0,54013:0:0:0:0:
448,192,53413,128,0,54013:0:0:0:0:
320,192,54099,128,0,54699:0:0:0:0:
448,192,54099,128,0,54699:0:0:0:0:
192,192,54784,128,0,55727:0:0:0:0:
448,192,54784,128,0,55727:0:0:0:0:
64,192,55813,128,0,56070:0:0:0:0:
320,192,55813,128,0,56070:0:0:0:0:
192,192,56156,128,0,57441:0:0:0:0:
448,192,56156,128,0,57441:0:0:0:0:
320,192,57527,1,0,0:0:0:0:
64,192,57613,1,0,0:0:0:0:
192,192,57699,1,0,0:0:0:0:
448,192,57784,1,0,0:0:0:0:
192,192,57870,1,0,0:0:0:0:
64,192,57956,1,0,0:0:0:0:
320,192,58041,1,0,0:0:0:0:
192,192,58127,1,0,0:0:0:0:
64,192,58213,1,0,0:0:0:0:
192,192,58270,1,0,0:0:0:0:
320,192,58327,1,0,0:0:0:0:
448,192,58384,1,0,0:0:0:0:
320,192,58470,1,0,0:0:0:0:
448,192,58556,1,0,0:0:0:0:
320,192,58613,1,0,0:0:0:0:
192,192,58670,1,0,0:0:0:0:
64,192,58727,1,0,0:0:0:0:
192,192,58813,1,0,0:0:0:0:
320,192,58899,1,0,0:0:0:0:
448,192,58984,1,0,0:0:0:0:
192,192,59070,1,0,0:0:0:0:
320,192,59156,1,0,0:0:0:0:
448,192,59241,1,0,0:0:0:0:
64,192,59327,1,0,0:0:0:0:
192,192,59413,1,0,0:0:0:0:
320,192,59499,1,0,0:0:0:0:
192,192,59584,1,0,0:0:0:0:
320,192,59641,1,0,0:0:0:0:
448,192,59699,1,0,0:0:0:0:
192,192,59756,1,0,0:0:0:0:
64,192,59841,1,0,0:0:0:0:
320,192,59927,1,0,0:0:0:0:
192,192,59984,1,0,0:0:0:0:
64,192,60041,1,0,0:0:0:0:
320,192,60099,1,0,0:0:0:0:
448,192,60184,1,0,0:0:0:0:
320,192,60270,1,0,0:0:0:0:
64,192,60356,1,0,0:0:0:0:
192,192,60441,1,0,0:0:0:0:
320,192,60527,1,0,0:0:0:0:
448,192,60613,1,0,0:0:0:0:
64,192,60699,1,0,0:0:0:0:
320,192,60784,1,0,0:0:0:0:
192,192,60870,1,0,0:0:0:0:
64,192,60956,1,0,0:0:0:0:
192,192,61013,1,0,0:0:0:0:
320,192,61070,1,0,0:0:0:0:
192,192,61127,1,0,0:0:0:0:
320,192,61213,1,0,0:0:0:0:
448,192,61299,1,0,0:0:0:0:
320,192,61356,1,0,0:0:0:0:
192,192,61413,1,0,0:0:0:0:
64,192,61470,1,0,0:0:0:0:
320,192,61556,1,0,0:0:0:0:
64,192,61641,1,0,0:0:0:0:
192,192,61727,1,0,0:0:0:0:
320,192,61813,1,0,0:0:0:0:
448,192,61899,1,0,0:0:0:0:
192,192,61984,1,0,0:0:0:0:
64,192,62070,1,0,0:0:0:0:
320,192,62156,1,0,0:0:0:0:
448,192,62241,1,0,0:0:0:0:
320,192,62327,1,0,0:0:0:0:
192,192,62384,1,0,0:0:0:0:
64,192,62441,1,0,0:0:0:0:
320,192,62499,1,0,0:0:0:0:
448,192,62584,1,0,0:0:0:0:
192,192,62670,1,0,0:0:0:0:
320,192,62727,1,0,0:0:0:0:
448,192,62784,1,0,0:0:0:0:
192,192,62841,1,0,0:0:0:0:
64,192,62927,1,0,0:0:0:0:
192,192,63013,1,0,0:0:0:0:
320,192,63099,1,0,0:0:0:0:
64,192,63184,1,0,0:0:0:0:
192,192,63270,1,0,0:0:0:0:
448,192,63356,1,0,0:0:0:0:
320,192,63441,1,0,0:0:0:0:
192,192,63527,1,0,0:0:0:0:
64,192,63613,1,0,0:0:0:0:
448,192,63699,1,0,0:0:0:0:
320,192,63756,1,0,0:0:0:0:
192,192,63813,1,0,0:0:0:0:
320,192,63870,1,0,0:0:0:0:
448,192,63956,1,0,0:0:0:0:
64,192,64041,1,0,0:0:0:0:
192,192,64099,1,0,0:0:0:0:
320,192,64156,1,0,0:0:0:0:
448,192,64213,1,0,0:0:0:0:
320,192,64299,1,0,0:0:0:0:
192,192,64384,1,0,0:0:0:0:
64,192,64470,1,0,0:0:0:0:
448,192,64556,1,0,0:0:0:0:
192,192,64641,1,0,0:0:0:0:
320,192,64727,1,0,0:0:0:0:
448,192,64813,1,0,0:0:0:0:
192,192,64899,1,0,0:0:0:0:
320,192,64984,1,0,0:0:0:0:
448,192,65070,1,0,0:0:0:0:
320,192,65127,1,0,0:0:0:0:
192,192,65184,1,0,0:0:0:0:
448,192,65241,1,0,0:0:0:0:
320,192,65327,1,0,0:0:0:0:
64,192,65413,1,0,0:0:0:0:
192,192,65470,1,0,0:0:0:0:
320,192,65527,1,0,0:0:0:0:
448,192,65584,1,0,0:0:0:0:
320,192,65670,1,0,0:0:0:0:
64,192,65756,1,0,0:0:0:0:
448,192,65841,1,0,0:0:0:0:
192,192,65927,1,0,0:0:0:0:
64,192,66013,5,0,0:0:0:0:
320,192,66099,1,0,0:0:0:0:
192,192,66184,1,0,0:0:0:0:
64,192,66270,1,0,0:0:0:0:
320,192,66356,1,0,0:0:0:0:
64,192,66441,1,0,0:0:0:0:
192,192,66499,1,0,0:0:0:0:
320,192,66556,1,0,0:0:0:0:
448,192,66613,1,0,0:0:0:0:
192,192,66699,1,0,0:0:0:0:
448,192,66784,1,0,0:0:0:0:
320,192,66841,1,0,0:0:0:0:
192,192,66899,1,0,0:0:0:0:
192,192,67127,5,0,0:0:0:0:
320,192,67127,1,0,0:0:0:0:
320,192,67299,1,0,0:0:0:0:
192,192,67299,1,0,0:0:0:0:
192,192,67470,1,0,0:0:0:0:
64,192,67470,1,0,0:0:0:0:
448,192,67470,1,0,0:0:0:0:
448,192,67641,1,0,0:0:0:0:
64,192,67641,1,0,0:0:0:0:
192,192,67727,1,0,0:0:0:0:
320,192,67813,1,0,0:0:0:0:
192,192,67899,1,0,0:0:0:0:
320,192,67984,1,0,0:0:0:0:
448,192,68070,1,0,0:0:0:0:
192,192,68156,1,0,0:0:0:0:
64,192,68156,1,0,0:0:0:0:
320,192,68241,1,0,0:0:0:0:
192,192,68327,1,0,0:0:0:0:
64,192,68413,1,0,0:0:0:0:
320,192,68499,1,0,0:0:0:0:
192,192,68584,1,0,0:0:0:0:
64,192,68670,1,0,0:0:0:0:
320,192,68756,1,0,0:0:0:0:
192,192,68841,1,0,0:0:0:0:
320,192,68927,1,0,0:0:0:0:
448,192,69013,1,0,0:0:0:0:
192,192,69099,1,0,0:0:0:0:
320,192,69184,1,0,0:0:0:0:
64,192,69270,1,0,0:0:0:0:
192,192,69356,1,0,0:0:0:0:
320,192,69441,1,0,0:0:0:0:
448,192,69527,1,0,0:0:0:0:
192,192,69613,1,0,0:0:0:0:
320,192,69699,1,0,0:0:0:0:
192,192,69784,1,0,0:0:0:0:
64,192,69870,1,0,0:0:0:0:
192,192,69956,1,0,0:0:0:0:
320,192,70041,1,0,0:0:0:0:
448,192,70127,1,0,0:0:0:0:
192,192,70213,1,0,0:0:0:0:
320,192,70299,1,0,0:0:0:0:
192,192,70384,1,0,0:0:0:0:
64,192,70470,1,0,0:0:0:0:
448,192,70556,1,0,0:0:0:0:
320,192,70641,1,0,0:0:0:0:
192,192,70727,1,0,0:0:0:0:
64,192,70813,1,0,0:0:0:0:
320,192,70899,1,0,0:0:0:0:
192,192,70984,1,0,0:0:0:0:
64,192,71070,1,0,0:0:0:0:
192,192,71156,1,0,0:0:0:0:
448,192,71241,1,0,0:0:0:0:
320,192,71327,1,0,0:0:0:0:
192,192,71413,1,0,0:0:0:0:
320,192,71499,1,0,0:0:0:0:
64,192,71584,1,0,0:0:0:0:
320,192,71670,1,0,0:0:0:0:
192,192,71756,1,0,0:0:0:0:
448,192,71841,1,0,0:0:0:0:
64,192,71927,1,0,0:0:0:0:
320,192,72013,1,0,0:0:0:0:
192,192,72099,1,0,0:0:0:0:
320,192,72184,1,0,0:0:0:0:
448,192,72270,1,0,0:0:0:0:
320,192,72356,1,0,0:0:0:0:
64,192,72441,1,0,0:0:0:0:
192,192,72527,1,0,0:0:0:0:
320,192,72613,1,0,0:0:0:0:
448,192,72699,1,0,0:0:0:0:
192,192,72784,1,0,0:0:0:0:
320,192,72870,1,0,0:0:0:0:
192,192,72956,1,0,0:0:0:0:
64,192,73041,1,0,0:0:0:0:
448,192,73127,1,0,0:0:0:0:
320,192,73213,1,0,0:0:0:0:
448,192,73299,128,0,73641:0:0:0:0:
192,192,73299,128,0,73641:0:0:0:0:
320,192,73641,128,0,73984:0:0:0:0:
448,192,73984,1,0,0:0:0:0:
64,192,73984,1,0,0:0:0:0:
192,192,74070,1,0,0:0:0:0:
64,192,74156,1,0,0:0:0:0:
320,192,74241,1,0,0:0:0:0:
448,192,74327,1,0,0:0:0:0:
192,192,74413,1,0,0:0:0:0:
64,192,74499,1,0,0:0:0:0:
320,192,74499,1,0,0:0:0:0:
192,192,74584,1,0,0:0:0:0:
320,192,74670,1,0,0:0:0:0:
448,192,74670,1,0,0:0:0:0:
64,192,74756,1,0,0:0:0:0:
320,192,74841,1,0,0:0:0:0:
192,192,74927,1,0,0:0:0:0:
320,192,75013,1,0,0:0:0:0:
448,192,75099,1,0,0:0:0:0:
320,192,75184,1,0,0:0:0:0:
64,192,75270,1,0,0:0:0:0:
192,192,75356,1,0,0:0:0:0:
320,192,75441,1,0,0:0:0:0:
448,192,75527,1,0,0:0:0:0:
192,192,75613,1,0,0:0:0:0:
320,192,75699,1,0,0:0:0:0:
192,192,75784,1,0,0:0:0:0:
64,192,75870,1,0,0:0:0:0:
448,192,75956,1,0,0:0:0:0:
320,192,76041,1,0,0:0:0:0:
192,192,76127,5,0,0:0:0:0:
64,192,76213,1,0,0:0:0:0:
320,192,76299,1,0,0:0:0:0:
192,192,76384,1,0,0:0:0:0:
320,192,76470,1,0,0:0:0:0:
448,192,76556,1,0,0:0:0:0:
320,192,76641,1,0,0:0:0:0:
64,192,76727,1,0,0:0:0:0:
320,192,76813,1,0,0:0:0:0:
192,192,76899,1,0,0:0:0:0:
320,192,76984,1,0,0:0:0:0:
448,192,77070,1,0,0:0:0:0:
320,192,77156,1,0,0:0:0:0:
64,192,77241,5,0,0:0:0:0:
192,192,77241,1,0,0:0:0:0:
320,192,77327,1,0,0:0:0:0:
192,192,77413,1,0,0:0:0:0:
448,192,77413,1,0,0:0:0:0:
64,192,77499,1,0,0:0:0:0:
192,192,77584,1,0,0:0:0:0:
320,192,77670,1,0,0:0:0:0:
192,192,77756,1,0,0:0:0:0:
448,192,77841,1,0,0:0:0:0:
320,192,77927,1,0,0:0:0:0:
192,192,78013,1,0,0:0:0:0:
64,192,78099,5,0,0:0:0:0:
448,192,78099,1,0,0:0:0:0:
192,192,78184,1,0,0:0:0:0:
320,192,78270,1,0,0:0:0:0:
448,192,78270,1,0,0:0:0:0:
64,192,78356,1,0,0:0:0:0:
320,192,78441,1,0,0:0:0:0:
192,192,78527,1,0,0:0:0:0:
320,192,78613,1,0,0:0:0:0:
448,192,78699,1,0,0:0:0:0:
320,192,78784,1,0,0:0:0:0:
192,192,78870,1,0,0:0:0:0:
64,192,78956,1,0,0:0:0:0:
192,192,79041,1,0,0:0:0:0:
320,192,79127,128,0,79470:0:0:0:0:
448,192,79127,128,0,79470:0:0:0:0:
64,192,79470,1,0,0:0:0:0:
192,192,79556,1,0,0:0:0:0:
320,192,79641,1,0,0:0:0:0:
192,192,79727,1,0,0:0:0:0:
64,192,79813,1,0,0:0:0:0:
320,192,79899,1,0,0:0:0:0:
192,192,79984,1,0,0:0:0:0:
448,192,79984,1,0,0:0:0:0:
320,192,80070,1,0,0:0:0:0:
64,192,80156,1,0,0:0:0:0:
192,192,80156,1,0,0:0:0:0:
448,192,80241,1,0,0:0:0:0:
192,192,80327,1,0,0:0:0:0:
320,192,80413,1,0,0:0:0:0:
192,192,80499,1,0,0:0:0:0:
64,192,80584,1,0,0:0:0:0:
192,192,80670,1,0,0:0:0:0:
448,192,80756,1,0,0:0:0:0:
320,192,80841,1,0,0:0:0:0:
192,192,80927,1,0,0:0:0:0:
64,192,81013,1,0,0:0:0:0:
320,192,81099,1,0,0:0:0:0:
192,192,81184,1,0,0:0:0:0:
320,192,81270,1,0,0:0:0:0:
448,192,81356,1,0,0:0:0:0:
64,192,81441,1,0,0:0:0:0:
192,192,81527,1,0,0:0:0:0:
320,192,81613,5,0,0:0:0:0:
448,192,81699,1,0,0:0:0:0:
192,192,81784,1,0,0:0:0:0:
320,192,81870,1,0,0:0:0:0:
192,192,81956,1,0,0:0:0:0:
64,192,82041,1,0,0:0:0:0:
192,192,82127,1,0,0:0:0:0:
448,192,82213,1,0,0:0:0:0:
192,192,82299,1,0,0:0:0:0:
320,192,82384,1,0,0:0:0:0:
192,192,82470,1,0,0:0:0:0:
64,192,82556,1,0,0:0:0:0:
192,192,82641,1,0,0:0:0:0:
448,192,82727,5,0,0:0:0:0:
320,192,82727,1,0,0:0:0:0:
192,192,82813,1,0,0:0:0:0:
64,192,82899,1,0,0:0:0:0:
320,192,82899,1,0,0:0:0:0:
448,192,82984,1,0,0:0:0:0:
320,192,83070,1,0,0:0:0:0:
192,192,83156,1,0,0:0:0:0:
320,192,83241,1,0,0:0:0:0:
64,192,83327,1,0,0:0:0:0:
192,192,83413,1,0,0:0:0:0:
320,192,83499,1,0,0:0:0:0:
448,192,83584,5,0,0:0:0:0:
64,192,83584,1,0,0:0:0:0:
320,192,83670,1,0,0:0:0:0:
64,192,83756,1,0,0:0:0:0:
192,192,83756,1,0,0:0:0:0:
448,192,83841,5,0,0:0:0:0:
192,192,83927,1,0,0:0:0:0:
320,192,84013,1,0,0:0:0:0:
192,192,84099,1,0,0:0:0:0:
64,192,84184,1,0,0:0:0:0:
192,192,84270,1,0,0:0:0:0:
320,192,84356,1,0,0:0:0:0:
448,192,84441,1,0,0:0:0:0:
320,192,84527,1,0,0:0:0:0:
64,192,84613,128,0,84956:0:0:0:0:
192,192,84613,128,0,84956:0:0:0:0:
320,192,84956,1,0,0:0:0:0:
448,192,85041,1,0,0:0:0:0:
192,192,85127,1,0,0:0:0:0:
320,192,85213,1,0,0:0:0:0:
448,192,85299,1,0,0:0:0:0:
192,192,85299,1,0,0:0:0:0:
64,192,85384,1,0,0:0:0:0:
320,192,85470,1,0,0:0:0:0:
192,192,85556,1,0,0:0:0:0:
320,192,85641,1,0,0:0:0:0:
448,192,85727,1,0,0:0:0:0:
192,192,85813,1,0,0:0:0:0:
320,192,85899,1,0,0:0:0:0:
64,192,85984,1,0,0:0:0:0:
192,192,85984,1,0,0:0:0:0:
448,192,86070,1,0,0:0:0:0:
192,192,86156,1,0,0:0:0:0:
64,192,86241,1,0,0:0:0:0:
192,192,86327,1,0,0:0:0:0:
448,192,86413,1,0,0:0:0:0:
320,192,86499,1,0,0:0:0:0:
192,192,86584,1,0,0:0:0:0:
64,192,86670,1,0,0:0:0:0:
448,192,86670,1,0,0:0:0:0:
320,192,86756,1,0,0:0:0:0:
192,192,86841,1,0,0:0:0:0:
64,192,86927,1,0,0:0:0:0:
320,192,87013,1,0,0:0:0:0:
192,192,87099,1,0,0:0:0:0:
448,192,87184,1,0,0:0:0:0:
320,192,87270,1,0,0:0:0:0:
448,192,87356,1,0,0:0:0:0:
192,192,87356,1,0,0:0:0:0:
64,192,87441,1,0,0:0:0:0:
320,192,87527,1,0,0:0:0:0:
192,192,87613,1,0,0:0:0:0:
320,192,87699,1,0,0:0:0:0:
448,192,87784,1,0,0:0:0:0:
192,192,87870,1,0,0:0:0:0:
320,192,87956,1,0,0:0:0:0:
64,192,88041,1,0,0:0:0:0:
192,192,88041,1,0,0:0:0:0:
448,192,88127,1,0,0:0:0:0:
320,192,88213,1,0,0:0:0:0:
64,192,88299,1,0,0:0:0:0:
192,192,88384,1,0,0:0:0:0:
320,192,88470,1,0,0:0:0:0:
192,192,88556,1,0,0:0:0:0:
448,192,88641,1,0,0:0:0:0:
192,192,88727,1,0,0:0:0:0:
320,192,88727,1,0,0:0:0:0:
64,192,88813,1,0,0:0:0:0:
448,192,88899,1,0,0:0:0:0:
320,192,88984,1,0,0:0:0:0:
192,192,89070,1,0,0:0:0:0:
64,192,89156,1,0,0:0:0:0:
192,192,89241,1,0,0:0:0:0:
320,192,89327,1,0,0:0:0:0:
64,192,89413,1,0,0:0:0:0:
448,192,89413,1,0,0:0:0:0:
320,192,89499,1,0,0:0:0:0:
192,192,89584,1,0,0:0:0:0:
64,192,89670,1,0,0:0:0:0:
320,192,89756,128,0,90099:0:0:0:0:
448,192,89756,128,0,90099:0:0:0:0:
192,192,90099,128,0,90441:0:0:0:0:
64,192,90441,1,0,0:0:0:0:
448,192,90441,1,0,0:0:0:0:
320,192,90527,1,0,0:0:0:0:
64,192,90613,1,0,0:0:0:0:
448,192,90613,1,0,0:0:0:0:
192,192,90699,1,0,0:0:0:0:
320,192,90784,1,0,0:0:0:0:
64,192,90784,1,0,0:0:0:0:
448,192,90784,1,0,0:0:0:0:
448,192,91127,1,0,0:0:0:0:
320,192,91127,1,0,0:0:0:0:
64,192,91213,1,0,0:0:0:0:
448,192,91299,1,0,0:0:0:0:
192,192,91299,1,0,0:0:0:0:
320,192,91384,1,0,0:0:0:0:
64,192,91470,1,0,0:0:0:0:
448,192,91470,1,0,0:0:0:0:
192,192,91470,1,0,0:0:0:0:
320,192,91813,1,0,0:0:0:0:
448,192,91813,1,0,0:0:0:0:
192,192,91899,1,0,0:0:0:0:
64,192,91984,1,0,0:0:0:0:
320,192,91984,1,0,0:0:0:0:
448,192,92070,1,0,0:0:0:0:
192,192,92156,1,0,0:0:0:0:
64,192,92156,1,0,0:0:0:0:
320,192,92156,1,0,0:0:0:0:
448,192,92499,1,0,0:0:0:0:
64,192,92499,1,0,0:0:0:0:
320,192,92584,1,0,0:0:0:0:
192,192,92670,1,0,0:0:0:0:
64,192,92670,1,0,0:0:0:0:
448,192,92756,1,0,0:0:0:0:
320,192,92841,1,0,0:0:0:0:
192,192,92841,1,0,0:0:0:0:
64,192,92841,1,0,0:0:0:0:
448,192,93184,1,0,0:0:0:0:
320,192,93270,1,0,0:0:0:0:
192,192,93356,1,0,0:0:0:0:
448,192,93441,1,0,0:0:0:0:
192,192,93527,1,0,0:0:0:0:
64,192,93613,1,0,0:0:0:0:
320,192,93699,1,0,0:0:0:0:
192,192,93784,1,0,0:0:0:0:
64,192,93870,1,0,0:0:0:0:
192,192,93927,1,0,0:0:0:0:
320,192,93984,1,0,0:0:0:0:
448,192,94041,1,0,0:0:0:0:
320,192,94127,1,0,0:0:0:0:
448,192,94213,1,0,0:0:0:0:
320,192,94270,1,0,0:0:0:0:
192,192,94327,1,0,0:0:0:0:
64,192,94384,1,0,0:0:0:0:
192,192,94470,1,0,0:0:0:0:
320,192,94556,1,0,0:0:0:0:
448,192,94641,1,0,0:0:0:0:
192,192,94727,1,0,0:0:0:0:
320,192,94813,1,0,0:0:0:0:
448,192,94899,1,0,0:0:0:0:
64,192,94984,1,0,0:0:0:0:
192,192,95070,1,0,0:0:0:0:
320,192,95156,1,0,0:0:0:0:
192,192,95241,1,0,0:0:0:0:
320,192,95299,1,0,0:0:0:0:
448,192,95356,1,0,0:0:0:0:
192,192,95413,1,0,0:0:0:0:
64,192,95499,1,0,0:0:0:0:
320,192,95584,1,0,0:0:0:0:
192,192,95641,1,0,0:0:0:0:
64,192,95699,1,0,0:0:0:0:
320,192,95756,1,0,0:0:0:0:
448,192,95841,1,0,0:0:0:0:
320,192,95927,1,0,0:0:0:0:
64,192,96013,1,0,0:0:0:0:
192,192,96099,1,0,0:0:0:0:
320,192,96184,1,0,0:0:0:0:
448,192,96270,1,0,0:0:0:0:
64,192,96356,1,0,0:0:0:0:
320,192,96441,1,0,0:0:0:0:
192,192,96527,1,0,0:0:0:0:
64,192,96613,1,0,0:0:0:0:
192,192,96670,1,0,0:0:0:0:
320,192,96727,1,0,0:0:0:0:
192,192,96784,1,0,0:0:0:0:
320,192,96870,1,0,0:0:0:0:
448,192,96956,1,0,0:0:0:0:
320,192,97013,1,0,0:0:0:0:
192,192,97070,1,0,0:0:0:0:
64,192,97127,1,0,0:0:0:0:
320,192,97213,1,0,0:0:0:0:
64,192,97299,1,0,0:0:0:0:
192,192,97384,1,0,0:0:0:0:
320,192,97470,1,0,0:0:0:0:
448,192,97556,1,0,0:0:0:0:
192,192,97641,1,0,0:0:0:0:
64,192,97727,1,0,0:0:0:0:
320,192,97813,1,0,0:0:0:0:
448,192,97899,1,0,0:0:0:0:
320,192,97984,1,0,0:0:0:0:
192,192,98041,1,0,0:0:0:0:
64,192,98099,1,0,0:0:0:0:
320,192,98156,1,0,0:0:0:0:
448,192,98241,1,0,0:0:0:0:
192,192,98327,1,0,0:0:0:0:
320,192,98384,1,0,0:0:0:0:
448,192,98441,1,0,0:0:0:0:
192,192,98499,1,0,0:0:0:0:
64,192,98584,1,0,0:0:0:0:
192,192,98670,1,0,0:0:0:0:
320,192,98756,1,0,0:0:0:0:
64,192,98841,1,0,0:0:0:0:
192,192,98927,1,0,0:0:0:0:
448,192,99013,1,0,0:0:0:0:
320,192,99099,1,0,0:0:0:0:
192,192,99184,1,0,0:0:0:0:
64,192,99270,1,0,0:0:0:0:
448,192,99356,1,0,0:0:0:0:
320,192,99413,1,0,0:0:0:0:
192,192,99470,1,0,0:0:0:0:
320,192,99527,1,0,0:0:0:0:
448,192,99613,1,0,0:0:0:0:
64,192,99699,1,0,0:0:0:0:
192,192,99756,1,0,0:0:0:0:
320,192,99813,1,0,0:0:0:0:
448,192,99870,1,0,0:0:0:0:
320,192,99956,1,0,0:0:0:0:
192,192,100041,1,0,0:0:0:0:
64,192,100127,1,0,0:0:0:0:
448,192,100213,1,0,0:0:0:0:
192,192,100299,1,0,0:0:0:0:
320,192,100384,1,0,0:0:0:0:
448,192,100470,1,0,0:0:0:0:
192,192,100556,1,0,0:0:0:0:
320,192,100641,1,0,0:0:0:0:
448,192,100727,1,0,0:0:0:0:
320,192,100784,1,0,0:0:0:0:
192,192,100841,1,0,0:0:0:0:
448,192,100899,1,0,0:0:0:0:
320,192,100984,1,0,0:0:0:0:
64,192,101070,1,0,0:0:0:0:
192,192,101127,1,0,0:0:0:0:
320,192,101184,1,0,0:0:0:0:
448,192,101241,1,0,0:0:0:0:
320,192,101327,1,0,0:0:0:0:
64,192,101413,1,0,0:0:0:0:
448,192,101499,1,0,0:0:0:0:
192,192,101584,1,0,0:0:0:0:
64,192,101670,1,0,0:0:0:0:
320,192,101756,1,0,0:0:0:0:
192,192,101841,1,0,0:0:0:0:
64,192,101927,1,0,0:0:0:0:
320,192,102013,1,0,0:0:0:0:
64,192,102099,1,0,0:0:0:0:
192,192,102156,1,0,0:0:0:0:
320,192,102213,1,0,0:0:0:0:
448,192,102270,1,0,0:0:0:0:
192,192,102356,1,0,0:0:0:0:
448,192,102441,1,0,0:0:0:0:
320,192,102499,1,0,0:0:0:0:
192,192,102556,1,0,0:0:0:0:
64,192,102784,1,0,0:0:0:0:
448,192,102784,1,0,0:0:0:0:
448,192,102956,1,0,0:0:0:0:
64,192,102956,1,0,0:0:0:0:
320,192,103127,1,0,0:0:0:0:
448,192,103127,1,0,0:0:0:0:
64,192,103299,1,0,0:0:0:0:
192,192,103384,1,0,0:0:0:0:
320,192,103470,1,0,0:0:0:0:
448,192,103556,1,0,0:0:0:0:
