osu file format v14

[General]
AudioFilename: Suzaku - Vanessa.mp3
AudioLeadIn: 0
PreviewTime: 66887
Countdown: 0
SampleSet: Soft
StackLeniency: 0.7
Mode: 3
LetterboxInBreaks: 1
SpecialStyle: 0
WidescreenStoryboard: 1

[Editor]
DistanceSpacing: 0.6
BeatDivisor: 3
GridSize: 4
TimelineZoom: 2.3

[Metadata]
Title:4key & 7key Fantasy Last. Vol.
TitleUnicode:4key & 7key Fantasy Last. Vol.
Artist:Final Mania Dimension
ArtistUnicode:Final Mania Dimension
Creator:Un-known
Version:Suzaku - Vanessa [7key Maximum] [Z3nx]
Source:
Tags:
BeatmapID:675036
BeatmapSetID:298447

[Difficulty]
HPDrainRate:8.7
CircleSize:7
OverallDifficulty:6
ApproachRate:5
SliderMultiplier:1.4
SliderTickRate:1

[Events]
//Background and Video events
0,0,"1.jpg",0,0
//Break Periods
//Storyboard Layer 0 (Background)
//Storyboard Layer 1 (Fail)
//Storyboard Layer 2 (Pass)
//Storyboard Layer 3 (Foreground)
//Storyboard Sound Samples

[TimingPoints]
725,324.324324324324,4,2,0,30,1,0
13697,-100,4,2,0,30,0,1
23752,-100,4,2,0,30,0,0
24076,-100,4,2,0,30,0,1
34454,-100,4,2,0,30,0,0
66887,-100,4,2,0,30,0,1
76941,-100,4,2,0,30,0,0
77265,-100,4,2,0,30,0,1
87643,-100,4,2,0,30,0,0

[HitObjects]
475,192,725,5,0,0:0:0:0:
402,192,725,1,0,0:0:0:0:
256,192,725,1,0,0:0:0:0:
109,192,725,1,0,0:0:0:0:
36,192,725,1,0,0:0:0:0:
329,192,1373,1,0,0:0:0:0:
182,192,1373,1,0,0:0:0:0:
256,192,1697,1,0,0:0:0:0:
329,192,2022,1,0,0:0:0:0:
182,192,2022,1,0,0:0:0:0:
256,192,2346,1,0,0:0:0:0:
329,192,2670,1,0,0:0:0:0:
182,192,2670,1,0,0:0:0:0:
256,192,2995,1,0,0:0:0:0:
256,192,3157,1,0,0:0:0:0:
256,192,3238,1,0,0:0:0:0:
402,192,3319,1,0,0:0:0:0:
109,192,3319,1,0,0:0:0:0:
256,192,3643,1,0,0:0:0:0:
109,192,3968,1,0,0:0:0:0:
402,192,3968,1,0,0:0:0:0:
256,192,4292,1,0,0:0:0:0:
109,192,4616,1,0,0:0:0:0:
402,192,4616,1,0,0:0:0:0:
256,192,4941,1,0,0:0:0:0:
402,192,5265,1,0,0:0:0:0:
109,192,5265,1,0,0:0:0:0:
256,192,5589,1,0,0:0:0:0:
329,192,5806,1,0,0:0:0:0:
109,192,5914,1,0,0:0:0:0:
402,192,5914,1,0,0:0:0:0:
329,192,5914,1,0,0:0:0:0:
182,192,5914,128,0,6130:0:0:0:0:
329,192,6130,1,0,0:0:0:0:
329,192,6238,128,0,6454:0:0:0:0:
182,192,6454,1,0,0:0:0:0:
182,192,6562,128,0,6779:0:0:0:0:
109,192,6562,1,0,0:0:0:0:
36,192,6562,1,0,0:0:0:0:
329,192,6779,1,0,0:0:0:0:
329,192,6887,128,0,7103:0:0:0:0:
182,192,7103,1,0,0:0:0:0:
109,192,7103,1,0,0:0:0:0:
36,192,7103,1,0,0:0:0:0:
182,192,7211,128,0,7427:0:0:0:0:
109,192,7211,1,0,0:0:0:0:
36,192,7211,1,0,0:0:0:0:
329,192,7427,1,0,0:0:0:0:
329,192,7535,128,0,7752:0:0:0:0:
182,192,7752,1,0,0:0:0:0:
182,192,7860,128,0,8076:0:0:0:0:
109,192,7860,1,0,0:0:0:0:
36,192,7860,1,0,0:0:0:0:
329,192,8076,1,0,0:0:0:0:
329,192,8184,128,0,8400:0:0:0:0:
182,192,8400,1,0,0:0:0:0:
109,192,8400,1,0,0:0:0:0:
36,192,8400,1,0,0:0:0:0:
36,192,8508,128,0,8724:0:0:0:0:
329,192,8508,128,0,8724:0:0:0:0:
109,192,8616,128,0,8833:0:0:0:0:
402,192,8616,128,0,8833:0:0:0:0:
182,192,8724,128,0,8941:0:0:0:0:
475,192,8724,128,0,8941:0:0:0:0:
36,192,8833,128,0,9049:0:0:0:0:
329,192,8833,128,0,9049:0:0:0:0:
109,192,8941,128,0,9157:0:0:0:0:
402,192,8941,128,0,9157:0:0:0:0:
182,192,9049,128,0,9265:0:0:0:0:
475,192,9049,128,0,9265:0:0:0:0:
36,192,9157,128,0,9373:0:0:0:0:
329,192,9157,128,0,9373:0:0:0:0:
109,192,9265,128,0,9481:0:0:0:0:
402,192,9265,128,0,9481:0:0:0:0:
182,192,9373,128,0,9589:0:0:0:0:
475,192,9373,128,0,9589:0:0:0:0:
36,192,9481,128,0,9806:0:0:0:0:
329,192,9481,128,0,9697:0:0:0:0:
109,192,9589,128,0,9806:0:0:0:0:
402,192,9589,128,0,9806:0:0:0:0:
182,192,9697,128,0,9806:0:0:0:0:
475,192,9697,128,0,9806:0:0:0:0:
329,192,9806,128,0,10022:0:0:0:0:
109,192,9914,128,0,10130:0:0:0:0:
36,192,9914,128,0,10130:0:0:0:0:
402,192,10022,128,0,10238:0:0:0:0:
475,192,10022,128,0,10238:0:0:0:0:
182,192,10130,128,0,10346:0:0:0:0:
256,192,10130,1,0,0:0:0:0:
329,192,10238,128,0,10454:0:0:0:0:
109,192,10346,128,0,10562:0:0:0:0:
36,192,10346,128,0,10562:0:0:0:0:
402,192,10454,128,0,10670:0:0:0:0:
475,192,10454,128,0,10670:0:0:0:0:
256,192,10454,1,0,0:0:0:0:
182,192,10562,128,0,10779:0:0:0:0:
329,192,10670,128,0,10887:0:0:0:0:
109,192,10779,128,0,10995:0:0:0:0:
36,192,10779,128,0,10995:0:0:0:0:
256,192,10779,1,0,0:0:0:0:
402,192,10887,128,0,11103:0:0:0:0:
475,192,10887,128,0,11103:0:0:0:0:
329,192,11103,1,0,0:0:0:0:
256,192,11103,1,0,0:0:0:0:
182,192,11103,1,0,0:0:0:0:
109,192,11103,1,0,0:0:0:0:
36,192,11103,1,0,0:0:0:0:
182,192,11427,1,0,0:0:0:0:
109,192,11427,1,0,0:0:0:0:
36,192,11427,1,0,0:0:0:0:
256,192,11427,1,0,0:0:0:0:
109,192,11752,1,0,0:0:0:0:
36,192,11752,1,0,0:0:0:0:
182,192,11752,128,0,12400:0:0:0:0:
109,192,12400,1,0,0:0:0:0:
36,192,12400,1,0,0:0:0:0:
402,192,12508,1,0,0:0:0:0:
329,192,12508,1,0,0:0:0:0:
182,192,12616,1,0,0:0:0:0:
109,192,12616,1,0,0:0:0:0:
475,192,12724,1,0,0:0:0:0:
402,192,12724,1,0,0:0:0:0:
109,192,12833,1,0,0:0:0:0:
36,192,12833,1,0,0:0:0:0:
329,192,12941,1,0,0:0:0:0:
256,192,12941,1,0,0:0:0:0:
182,192,13049,1,0,0:0:0:0:
109,192,13049,1,0,0:0:0:0:
475,192,13157,1,0,0:0:0:0:
402,192,13157,1,0,0:0:0:0:
256,192,13265,1,0,0:0:0:0:
329,192,13265,1,0,0:0:0:0:
109,192,13373,1,0,0:0:0:0:
36,192,13373,1,0,0:0:0:0:
182,192,13373,1,0,0:0:0:0:
402,192,13481,1,0,0:0:0:0:
475,192,13481,1,0,0:0:0:0:
256,192,13589,1,0,0:0:0:0:
329,192,13589,1,0,0:0:0:0:
475,192,13697,128,0,13914:0:0:0:0:
402,192,13697,128,0,13914:0:0:0:0:
36,192,13697,1,0,0:0:0:0:
109,192,13697,1,0,0:0:0:0:
329,192,13914,1,0,0:0:0:0:
256,192,13914,1,0,0:0:0:0:
402,192,14022,128,0,14238:0:0:0:0:
475,192,14022,128,0,14238:0:0:0:0:
36,192,14022,1,0,0:0:0:0:
182,192,14022,1,0,0:0:0:0:
256,192,14238,1,0,0:0:0:0:
329,192,14238,1,0,0:0:0:0:
402,192,14346,128,0,14562:0:0:0:0:
475,192,14346,128,0,14562:0:0:0:0:
109,192,14346,1,0,0:0:0:0:
182,192,14346,1,0,0:0:0:0:
329,192,14562,1,0,0:0:0:0:
256,192,14562,1,0,0:0:0:0:
402,192,14670,128,0,14887:0:0:0:0:
475,192,14670,128,0,14887:0:0:0:0:
109,192,14670,1,0,0:0:0:0:
36,192,14670,1,0,0:0:0:0:
256,192,14887,1,0,0:0:0:0:
329,192,14887,1,0,0:0:0:0:
402,192,14995,128,0,15211:0:0:0:0:
475,192,14995,128,0,15211:0:0:0:0:
109,192,14995,1,0,0:0:0:0:
182,192,14995,1,0,0:0:0:0:
256,192,15211,1,0,0:0:0:0:
329,192,15211,1,0,0:0:0:0:
402,192,15319,128,0,15535:0:0:0:0:
475,192,15319,128,0,15535:0:0:0:0:
36,192,15319,1,0,0:0:0:0:
182,192,15319,1,0,0:0:0:0:
329,192,15535,1,0,0:0:0:0:
256,192,15535,1,0,0:0:0:0:
402,192,15643,128,0,15860:0:0:0:0:
475,192,15643,128,0,15860:0:0:0:0:
36,192,15643,1,0,0:0:0:0:
109,192,15643,1,0,0:0:0:0:
182,192,15752,1,0,0:0:0:0:
329,192,15860,1,0,0:0:0:0:
256,192,15860,1,0,0:0:0:0:
109,192,15860,1,0,0:0:0:0:
36,192,15860,1,0,0:0:0:0:
402,192,15968,128,0,16184:0:0:0:0:
475,192,15968,128,0,16184:0:0:0:0:
182,192,15968,1,0,0:0:0:0:
109,192,16076,1,0,0:0:0:0:
36,192,16076,1,0,0:0:0:0:
329,192,16184,1,0,0:0:0:0:
256,192,16184,1,0,0:0:0:0:
182,192,16184,1,0,0:0:0:0:
475,192,16292,1,0,0:0:0:0:
402,192,16292,1,0,0:0:0:0:
109,192,16292,128,0,16508:0:0:0:0:
36,192,16292,128,0,16508:0:0:0:0:
182,192,16508,1,0,0:0:0:0:
256,192,16508,1,0,0:0:0:0:
109,192,16616,128,0,16833:0:0:0:0:
475,192,16616,1,0,0:0:0:0:
36,192,16616,128,0,16833:0:0:0:0:
329,192,16616,1,0,0:0:0:0:
256,192,16833,1,0,0:0:0:0:
182,192,16833,1,0,0:0:0:0:
109,192,16941,128,0,17157:0:0:0:0:
36,192,16941,128,0,17157:0:0:0:0:
402,192,16941,1,0,0:0:0:0:
475,192,16941,1,0,0:0:0:0:
182,192,17157,1,0,0:0:0:0:
256,192,17157,1,0,0:0:0:0:
36,192,17265,128,0,17481:0:0:0:0:
109,192,17265,128,0,17481:0:0:0:0:
402,192,17265,1,0,0:0:0:0:
329,192,17265,1,0,0:0:0:0:
256,192,17481,1,0,0:0:0:0:
182,192,17481,1,0,0:0:0:0:
36,192,17589,128,0,17806:0:0:0:0:
402,192,17589,1,0,0:0:0:0:
109,192,17589,128,0,17806:0:0:0:0:
475,192,17589,128,0,17914:0:0:0:0:
256,192,17806,1,0,0:0:0:0:
182,192,17806,1,0,0:0:0:0:
36,192,17914,128,0,18130:0:0:0:0:
402,192,17914,1,0,0:0:0:0:
109,192,17914,128,0,18130:0:0:0:0:
329,192,17914,1,0,0:0:0:0:
182,192,18130,1,0,0:0:0:0:
256,192,18130,1,0,0:0:0:0:
402,192,18238,1,0,0:0:0:0:
36,192,18238,128,0,18454:0:0:0:0:
109,192,18238,128,0,18454:0:0:0:0:
475,192,18238,1,0,0:0:0:0:
329,192,18346,1,0,0:0:0:0:
256,192,18454,1,0,0:0:0:0:
182,192,18454,1,0,0:0:0:0:
475,192,18454,1,0,0:0:0:0:
402,192,18454,1,0,0:0:0:0:
36,192,18562,128,0,18779:0:0:0:0:
109,192,18562,128,0,18779:0:0:0:0:
329,192,18562,1,0,0:0:0:0:
475,192,18670,1,0,0:0:0:0:
402,192,18670,1,0,0:0:0:0:
256,192,18779,1,0,0:0:0:0:
329,192,18779,1,0,0:0:0:0:
182,192,18779,1,0,0:0:0:0:
475,192,18887,1,0,0:0:0:0:
402,192,18887,1,0,0:0:0:0:
109,192,18887,128,0,19103:0:0:0:0:
36,192,18887,128,0,19103:0:0:0:0:
256,192,18995,1,0,0:0:0:0:
182,192,18995,1,0,0:0:0:0:
402,192,19103,1,0,0:0:0:0:
329,192,19103,1,0,0:0:0:0:
182,192,19211,128,0,19427:0:0:0:0:
109,192,19211,128,0,19427:0:0:0:0:
475,192,19319,1,0,0:0:0:0:
402,192,19319,1,0,0:0:0:0:
329,192,19427,1,0,0:0:0:0:
256,192,19427,1,0,0:0:0:0:
475,192,19535,128,0,19752:0:0:0:0:
402,192,19535,128,0,19752:0:0:0:0:
109,192,19643,1,0,0:0:0:0:
36,192,19643,1,0,0:0:0:0:
329,192,19752,1,0,0:0:0:0:
256,192,19752,1,0,0:0:0:0:
182,192,19860,128,0,20076:0:0:0:0:
109,192,19860,128,0,20076:0:0:0:0:
475,192,19968,1,0,0:0:0:0:
402,192,19968,1,0,0:0:0:0:
329,192,20076,1,0,0:0:0:0:
256,192,20076,1,0,0:0:0:0:
475,192,20184,128,0,20400:0:0:0:0:
402,192,20184,128,0,20400:0:0:0:0:
182,192,20292,1,0,0:0:0:0:
109,192,20292,1,0,0:0:0:0:
329,192,20400,1,0,0:0:0:0:
256,192,20400,1,0,0:0:0:0:
109,192,20508,128,0,20724:0:0:0:0:
36,192,20508,128,0,20724:0:0:0:0:
402,192,20616,1,0,0:0:0:0:
329,192,20616,1,0,0:0:0:0:
256,192,20724,1,0,0:0:0:0:
182,192,20724,1,0,0:0:0:0:
475,192,20833,128,0,21049:0:0:0:0:
402,192,20833,128,0,21049:0:0:0:0:
182,192,20941,1,0,0:0:0:0:
109,192,20941,1,0,0:0:0:0:
329,192,21049,1,0,0:0:0:0:
256,192,21049,1,0,0:0:0:0:
109,192,21157,128,0,21373:0:0:0:0:
36,192,21157,128,0,21373:0:0:0:0:
475,192,21265,1,0,0:0:0:0:
402,192,21265,1,0,0:0:0:0:
329,192,21373,1,0,0:0:0:0:
256,192,21373,1,0,0:0:0:0:
475,192,21481,128,0,21697:0:0:0:0:
402,192,21481,128,0,21697:0:0:0:0:
109,192,21589,1,0,0:0:0:0:
36,192,21589,1,0,0:0:0:0:
329,192,21697,1,0,0:0:0:0:
256,192,21697,1,0,0:0:0:0:
36,192,21806,128,0,22022:0:0:0:0:
109,192,21806,128,0,22022:0:0:0:0:
475,192,21914,1,0,0:0:0:0:
402,192,21914,1,0,0:0:0:0:
256,192,22022,1,0,0:0:0:0:
329,192,22022,1,0,0:0:0:0:
329,192,22130,1,0,0:0:0:0:
256,192,22130,1,0,0:0:0:0:
182,192,22238,1,0,0:0:0:0:
109,192,22238,1,0,0:0:0:0:
402,192,22346,1,0,0:0:0:0:
329,192,22346,1,0,0:0:0:0:
402,192,22454,1,0,0:0:0:0:
329,192,22454,1,0,0:0:0:0:
36,192,22562,1,0,0:0:0:0:
109,192,22562,1,0,0:0:0:0:
329,192,22670,1,0,0:0:0:0:
256,192,22670,1,0,0:0:0:0:
475,192,22779,1,0,0:0:0:0:
402,192,22779,1,0,0:0:0:0:
182,192,22887,1,0,0:0:0:0:
109,192,22887,1,0,0:0:0:0:
475,192,22995,1,0,0:0:0:0:
329,192,22995,1,0,0:0:0:0:
182,192,23103,1,0,0:0:0:0:
36,192,23103,1,0,0:0:0:0:
402,192,23211,1,0,0:0:0:0:
256,192,23211,1,0,0:0:0:0:
109,192,23319,1,0,0:0:0:0:
36,192,23319,1,0,0:0:0:0:
475,192,23427,1,0,0:0:0:0:
329,192,23427,1,0,0:0:0:0:
256,192,23535,1,0,0:0:0:0:
109,192,23535,1,0,0:0:0:0:
402,192,23535,1,0,0:0:0:0:
182,192,23643,1,0,0:0:0:0:
329,192,23643,1,0,0:0:0:0:
402,192,23752,1,0,0:0:0:0:
109,192,23752,1,0,0:0:0:0:
36,192,23752,1,0,0:0:0:0:
182,192,23860,1,0,0:0:0:0:
329,192,23860,1,0,0:0:0:0:
109,192,23968,1,0,0:0:0:0:
402,192,23968,1,0,0:0:0:0:
256,192,23968,1,0,0:0:0:0:
182,192,24076,1,0,0:0:0:0:
36,192,24076,1,0,0:0:0:0:
475,192,24076,1,0,0:0:0:0:
329,192,24076,1,0,0:0:0:0:
256,192,24292,1,0,0:0:0:0:
402,192,24292,1,0,0:0:0:0:
182,192,24400,1,0,0:0:0:0:
36,192,24400,1,0,0:0:0:0:
475,192,24400,1,0,0:0:0:0:
329,192,24400,1,0,0:0:0:0:
402,192,24616,1,0,0:0:0:0:
256,192,24616,1,0,0:0:0:0:
109,192,24724,1,0,0:0:0:0:
36,192,24724,1,0,0:0:0:0:
475,192,24724,1,0,0:0:0:0:
329,192,24724,1,0,0:0:0:0:
256,192,24941,1,0,0:0:0:0:
402,192,24941,1,0,0:0:0:0:
182,192,25049,1,0,0:0:0:0:
109,192,25049,1,0,0:0:0:0:
475,192,25049,1,0,0:0:0:0:
329,192,25049,1,0,0:0:0:0:
402,192,25265,1,0,0:0:0:0:
256,192,25265,1,0,0:0:0:0:
109,192,25373,1,0,0:0:0:0:
36,192,25373,1,0,0:0:0:0:
475,192,25373,1,0,0:0:0:0:
329,192,25373,1,0,0:0:0:0:
402,192,25589,1,0,0:0:0:0:
256,192,25589,1,0,0:0:0:0:
182,192,25697,1,0,0:0:0:0:
36,192,25697,1,0,0:0:0:0:
475,192,25697,1,0,0:0:0:0:
329,192,25697,1,0,0:0:0:0:
256,192,25914,1,0,0:0:0:0:
402,192,25914,1,0,0:0:0:0:
109,192,26022,1,0,0:0:0:0:
36,192,26022,1,0,0:0:0:0:
475,192,26022,1,0,0:0:0:0:
329,192,26022,1,0,0:0:0:0:
182,192,26130,1,0,0:0:0:0:
256,192,26238,1,0,0:0:0:0:
402,192,26238,1,0,0:0:0:0:
109,192,26238,1,0,0:0:0:0:
36,192,26238,1,0,0:0:0:0:
182,192,26346,1,0,0:0:0:0:
475,192,26346,1,0,0:0:0:0:
329,192,26346,1,0,0:0:0:0:
36,192,26454,1,0,0:0:0:0:
402,192,26562,1,0,0:0:0:0:
256,192,26562,1,0,0:0:0:0:
109,192,26562,1,0,0:0:0:0:
475,192,26670,1,0,0:0:0:0:
329,192,26670,1,0,0:0:0:0:
182,192,26670,1,0,0:0:0:0:
36,192,26670,1,0,0:0:0:0:
109,192,26887,1,0,0:0:0:0:
256,192,26887,1,0,0:0:0:0:
475,192,26995,1,0,0:0:0:0:
329,192,26995,1,0,0:0:0:0:
182,192,26995,1,0,0:0:0:0:
36,192,26995,1,0,0:0:0:0:
109,192,27211,1,0,0:0:0:0:
256,192,27211,1,0,0:0:0:0:
402,192,27319,1,0,0:0:0:0:
475,192,27319,1,0,0:0:0:0:
182,192,27319,1,0,0:0:0:0:
36,192,27319,1,0,0:0:0:0:
256,192,27535,1,0,0:0:0:0:
109,192,27535,1,0,0:0:0:0:
402,192,27643,1,0,0:0:0:0:
329,192,27643,1,0,0:0:0:0:
182,192,27643,1,0,0:0:0:0:
36,192,27643,1,0,0:0:0:0:
256,192,27860,1,0,0:0:0:0:
109,192,27860,1,0,0:0:0:0:
402,192,27968,1,0,0:0:0:0:
475,192,27968,1,0,0:0:0:0:
182,192,27968,1,0,0:0:0:0:
36,192,27968,1,0,0:0:0:0:
109,192,28184,1,0,0:0:0:0:
256,192,28184,1,0,0:0:0:0:
475,192,28292,1,0,0:0:0:0:
329,192,28292,1,0,0:0:0:0:
182,192,28292,1,0,0:0:0:0:
36,192,28292,1,0,0:0:0:0:
109,192,28508,1,0,0:0:0:0:
256,192,28508,1,0,0:0:0:0:
475,192,28616,1,0,0:0:0:0:
182,192,28616,1,0,0:0:0:0:
36,192,28616,1,0,0:0:0:0:
329,192,28724,1,0,0:0:0:0:
109,192,28833,1,0,0:0:0:0:
256,192,28833,1,0,0:0:0:0:
475,192,28833,1,0,0:0:0:0:
402,192,28941,1,0,0:0:0:0:
182,192,28941,1,0,0:0:0:0:
36,192,28941,1,0,0:0:0:0:
329,192,29049,1,0,0:0:0:0:
109,192,29157,1,0,0:0:0:0:
256,192,29157,1,0,0:0:0:0:
402,192,29157,1,0,0:0:0:0:
182,192,29265,1,0,0:0:0:0:
329,192,29265,1,0,0:0:0:0:
475,192,29265,1,0,0:0:0:0:
36,192,29265,128,0,29481:0:0:0:0:
402,192,29373,1,0,0:0:0:0:
256,192,29373,1,0,0:0:0:0:
329,192,29481,1,0,0:0:0:0:
182,192,29481,1,0,0:0:0:0:
475,192,29589,128,0,29806:0:0:0:0:
36,192,29589,1,0,0:0:0:0:
256,192,29589,1,0,0:0:0:0:
109,192,29697,1,0,0:0:0:0:
182,192,29697,1,0,0:0:0:0:
402,192,29806,1,0,0:0:0:0:
256,192,29806,1,0,0:0:0:0:
36,192,29914,128,0,30130:0:0:0:0:
475,192,29914,1,0,0:0:0:0:
329,192,29914,1,0,0:0:0:0:
182,192,29914,1,0,0:0:0:0:
402,192,30022,1,0,0:0:0:0:
256,192,30022,1,0,0:0:0:0:
329,192,30130,1,0,0:0:0:0:
182,192,30130,1,0,0:0:0:0:
36,192,30238,1,0,0:0:0:0:
475,192,30238,128,0,30454:0:0:0:0:
256,192,30238,1,0,0:0:0:0:
109,192,30238,1,0,0:0:0:0:
402,192,30346,1,0,0:0:0:0:
182,192,30346,1,0,0:0:0:0:
329,192,30454,1,0,0:0:0:0:
256,192,30454,1,0,0:0:0:0:
182,192,30562,128,0,30670:0:0:0:0:
402,192,30562,1,0,0:0:0:0:
475,192,30562,1,0,0:0:0:0:
36,192,30562,128,0,30670:0:0:0:0:
109,192,30670,128,0,30779:0:0:0:0:
256,192,30670,128,0,30779:0:0:0:0:
182,192,30779,128,0,30887:0:0:0:0:
329,192,30779,128,0,30887:0:0:0:0:
109,192,30887,128,0,30995:0:0:0:0:
256,192,30887,128,0,30995:0:0:0:0:
475,192,30887,1,0,0:0:0:0:
36,192,30887,1,0,0:0:0:0:
182,192,30995,128,0,31103:0:0:0:0:
329,192,30995,128,0,31103:0:0:0:0:
256,192,31103,128,0,31211:0:0:0:0:
402,192,31103,128,0,31211:0:0:0:0:
36,192,31211,1,0,0:0:0:0:
109,192,31211,1,0,0:0:0:0:
475,192,31211,128,0,31319:0:0:0:0:
329,192,31211,128,0,31319:0:0:0:0:
402,192,31319,128,0,31427:0:0:0:0:
256,192,31319,128,0,31427:0:0:0:0:
182,192,31427,128,0,31535:0:0:0:0:
329,192,31427,128,0,31535:0:0:0:0:
36,192,31535,1,0,0:0:0:0:
402,192,31535,128,0,31643:0:0:0:0:
256,192,31535,128,0,31643:0:0:0:0:
475,192,31535,1,0,0:0:0:0:
329,192,31643,128,0,31752:0:0:0:0:
182,192,31643,128,0,31752:0:0:0:0:
256,192,31752,128,0,31860:0:0:0:0:
109,192,31752,128,0,31860:0:0:0:0:
36,192,31860,128,0,32184:0:0:0:0:
182,192,31860,1,0,0:0:0:0:
109,192,31968,128,0,32184:0:0:0:0:
256,192,31968,1,0,0:0:0:0:
182,192,32076,128,0,32184:0:0:0:0:
475,192,32076,1,0,0:0:0:0:
475,192,32184,128,0,32508:0:0:0:0:
329,192,32184,1,0,0:0:0:0:
402,192,32292,128,0,32508:0:0:0:0:
256,192,32292,1,0,0:0:0:0:
329,192,32400,128,0,32508:0:0:0:0:
36,192,32400,1,0,0:0:0:0:
182,192,32508,1,0,0:0:0:0:
36,192,32508,128,0,32833:0:0:0:0:
256,192,32616,1,0,0:0:0:0:
109,192,32616,128,0,32833:0:0:0:0:
182,192,32724,128,0,32833:0:0:0:0:
475,192,32724,1,0,0:0:0:0:
329,192,32833,1,0,0:0:0:0:
475,192,32833,128,0,33157:0:0:0:0:
256,192,32941,1,0,0:0:0:0:
402,192,32941,128,0,33157:0:0:0:0:
329,192,33049,128,0,33157:0:0:0:0:
36,192,33049,1,0,0:0:0:0:
182,192,33157,1,0,0:0:0:0:
36,192,33157,1,0,0:0:0:0:
182,192,33265,1,0,0:0:0:0:
475,192,33373,1,0,0:0:0:0:
402,192,33373,1,0,0:0:0:0:
475,192,33481,1,0,0:0:0:0:
182,192,33481,1,0,0:0:0:0:
109,192,33481,1,0,0:0:0:0:
109,192,33589,1,0,0:0:0:0:
402,192,33697,1,0,0:0:0:0:
329,192,33697,1,0,0:0:0:0:
329,192,33806,1,0,0:0:0:0:
36,192,33806,1,0,0:0:0:0:
109,192,33860,1,0,0:0:0:0:
182,192,33914,1,0,0:0:0:0:
36,192,33968,1,0,0:0:0:0:
329,192,33968,1,0,0:0:0:0:
109,192,34022,1,0,0:0:0:0:
402,192,34022,1,0,0:0:0:0:
182,192,34076,1,0,0:0:0:0:
475,192,34076,1,0,0:0:0:0:
329,192,34130,1,0,0:0:0:0:
402,192,34184,1,0,0:0:0:0:
475,192,34238,1,0,0:0:0:0:
182,192,34238,1,0,0:0:0:0:
109,192,34292,1,0,0:0:0:0:
36,192,34346,1,0,0:0:0:0:
329,192,34346,1,0,0:0:0:0:
256,192,34400,1,0,0:0:0:0:
182,192,34454,1,0,0:0:0:0:
475,192,34454,1,0,0:0:0:0:
402,192,34454,1,0,0:0:0:0:
109,192,34454,1,0,0:0:0:0:
182,192,34670,1,0,0:0:0:0:
329,192,34670,1,0,0:0:0:0:
36,192,34779,1,0,0:0:0:0:
475,192,34779,1,0,0:0:0:0:
402,192,35103,1,0,0:0:0:0:
256,192,35103,1,0,0:0:0:0:
109,192,35103,1,0,0:0:0:0:
475,192,35427,1,0,0:0:0:0:
36,192,35427,1,0,0:0:0:0:
182,192,35643,1,0,0:0:0:0:
329,192,35643,1,0,0:0:0:0:
36,192,35752,1,0,0:0:0:0:
256,192,35752,1,0,0:0:0:0:
475,192,35752,1,0,0:0:0:0:
402,192,35752,1,0,0:0:0:0:
109,192,35752,1,0,0:0:0:0:
182,192,35968,1,0,0:0:0:0:
329,192,35968,1,0,0:0:0:0:
36,192,36076,1,0,0:0:0:0:
475,192,36076,1,0,0:0:0:0:
329,192,36292,1,0,0:0:0:0:
182,192,36292,1,0,0:0:0:0:
36,192,36400,1,0,0:0:0:0:
475,192,36400,1,0,0:0:0:0:
402,192,36400,1,0,0:0:0:0:
256,192,36400,1,0,0:0:0:0:
109,192,36400,1,0,0:0:0:0:
329,192,36508,1,0,0:0:0:0:
182,192,36508,1,0,0:0:0:0:
256,192,36616,1,0,0:0:0:0:
402,192,36724,1,0,0:0:0:0:
109,192,36724,1,0,0:0:0:0:
329,192,36833,1,0,0:0:0:0:
182,192,36833,1,0,0:0:0:0:
36,192,36941,1,0,0:0:0:0:
475,192,36941,1,0,0:0:0:0:
402,192,37049,1,0,0:0:0:0:
256,192,37049,1,0,0:0:0:0:
109,192,37049,1,0,0:0:0:0:
329,192,37049,1,0,0:0:0:0:
182,192,37049,1,0,0:0:0:0:
182,192,37265,1,0,0:0:0:0:
329,192,37265,1,0,0:0:0:0:
402,192,37373,1,0,0:0:0:0:
109,192,37373,1,0,0:0:0:0:
256,192,37697,1,0,0:0:0:0:
109,192,37697,1,0,0:0:0:0:
36,192,37697,1,0,0:0:0:0:
475,192,37697,1,0,0:0:0:0:
402,192,37697,1,0,0:0:0:0:
402,192,38022,1,0,0:0:0:0:
109,192,38022,1,0,0:0:0:0:
329,192,38238,1,0,0:0:0:0:
182,192,38238,1,0,0:0:0:0:
256,192,38346,1,0,0:0:0:0:
109,192,38346,1,0,0:0:0:0:
36,192,38346,1,0,0:0:0:0:
402,192,38346,1,0,0:0:0:0:
475,192,38346,1,0,0:0:0:0:
182,192,38562,1,0,0:0:0:0:
329,192,38562,1,0,0:0:0:0:
109,192,38670,1,0,0:0:0:0:
402,192,38670,1,0,0:0:0:0:
329,192,38887,1,0,0:0:0:0:
182,192,38887,1,0,0:0:0:0:
109,192,38995,1,0,0:0:0:0:
36,192,38995,1,0,0:0:0:0:
256,192,38995,1,0,0:0:0:0:
402,192,38995,1,0,0:0:0:0:
475,192,38995,1,0,0:0:0:0:
329,192,39103,1,0,0:0:0:0:
182,192,39103,1,0,0:0:0:0:
402,192,39211,1,0,0:0:0:0:
256,192,39211,1,0,0:0:0:0:
329,192,39319,1,0,0:0:0:0:
182,192,39319,1,0,0:0:0:0:
256,192,39427,1,0,0:0:0:0:
109,192,39427,1,0,0:0:0:0:
475,192,39535,1,0,0:0:0:0:
182,192,39535,1,0,0:0:0:0:
402,192,39535,1,0,0:0:0:0:
475,192,39643,1,0,0:0:0:0:
402,192,39643,1,0,0:0:0:0:
109,192,39643,1,0,0:0:0:0:
36,192,39643,1,0,0:0:0:0:
329,192,39752,1,0,0:0:0:0:
256,192,39752,1,0,0:0:0:0:
182,192,39860,1,0,0:0:0:0:
109,192,39860,1,0,0:0:0:0:
402,192,39968,1,0,0:0:0:0:
329,192,39968,1,0,0:0:0:0:
256,192,40076,1,0,0:0:0:0:
182,192,40076,1,0,0:0:0:0:
109,192,40184,1,0,0:0:0:0:
36,192,40184,1,0,0:0:0:0:
475,192,40292,1,0,0:0:0:0:
402,192,40292,1,0,0:0:0:0:
109,192,40292,1,0,0:0:0:0:
36,192,40292,1,0,0:0:0:0:
329,192,40400,1,0,0:0:0:0:
256,192,40400,1,0,0:0:0:0:
182,192,40508,1,0,0:0:0:0:
109,192,40508,1,0,0:0:0:0:
402,192,40616,1,0,0:0:0:0:
329,192,40616,1,0,0:0:0:0:
256,192,40724,1,0,0:0:0:0:
182,192,40724,1,0,0:0:0:0:
109,192,40833,1,0,0:0:0:0:
36,192,40833,1,0,0:0:0:0:
475,192,40941,1,0,0:0:0:0:
402,192,40941,1,0,0:0:0:0:
109,192,40941,1,0,0:0:0:0:
36,192,40941,1,0,0:0:0:0:
256,192,41049,1,0,0:0:0:0:
182,192,41049,1,0,0:0:0:0:
475,192,41157,1,0,0:0:0:0:
402,192,41157,1,0,0:0:0:0:
109,192,41265,1,0,0:0:0:0:
36,192,41265,1,0,0:0:0:0:
329,192,41373,1,0,0:0:0:0:
256,192,41373,1,0,0:0:0:0:
109,192,41481,1,0,0:0:0:0:
36,192,41481,1,0,0:0:0:0:
475,192,41589,1,0,0:0:0:0:
402,192,41589,1,0,0:0:0:0:
109,192,41589,1,0,0:0:0:0:
36,192,41589,1,0,0:0:0:0:
329,192,41697,1,0,0:0:0:0:
256,192,41697,1,0,0:0:0:0:
475,192,41806,1,0,0:0:0:0:
402,192,41806,1,0,0:0:0:0:
109,192,41914,1,0,0:0:0:0:
36,192,41914,1,0,0:0:0:0:
256,192,42022,1,0,0:0:0:0:
182,192,42022,1,0,0:0:0:0:
475,192,42076,1,0,0:0:0:0:
402,192,42076,1,0,0:0:0:0:
109,192,42130,1,0,0:0:0:0:
36,192,42130,1,0,0:0:0:0:
475,192,42184,1,0,0:0:0:0:
402,192,42184,1,0,0:0:0:0:
109,192,42238,1,0,0:0:0:0:
36,192,42238,1,0,0:0:0:0:
256,192,42346,1,0,0:0:0:0:
182,192,42346,1,0,0:0:0:0:
402,192,42454,1,0,0:0:0:0:
329,192,42454,1,0,0:0:0:0:
182,192,42562,1,0,0:0:0:0:
109,192,42562,1,0,0:0:0:0:
256,192,42670,1,0,0:0:0:0:
329,192,42670,1,0,0:0:0:0:
475,192,42779,1,0,0:0:0:0:
402,192,42779,1,0,0:0:0:0:
109,192,42887,1,0,0:0:0:0:
36,192,42887,1,0,0:0:0:0:
475,192,42887,1,0,0:0:0:0:
402,192,42887,1,0,0:0:0:0:
182,192,42995,1,0,0:0:0:0:
256,192,42995,1,0,0:0:0:0:
402,192,43103,1,0,0:0:0:0:
329,192,43103,1,0,0:0:0:0:
182,192,43211,1,0,0:0:0:0:
109,192,43211,1,0,0:0:0:0:
329,192,43319,1,0,0:0:0:0:
256,192,43319,1,0,0:0:0:0:
475,192,43427,1,0,0:0:0:0:
402,192,43427,1,0,0:0:0:0:
475,192,43535,1,0,0:0:0:0:
402,192,43535,1,0,0:0:0:0:
109,192,43535,1,0,0:0:0:0:
36,192,43535,1,0,0:0:0:0:
256,192,43643,1,0,0:0:0:0:
182,192,43643,1,0,0:0:0:0:
475,192,43752,1,0,0:0:0:0:
402,192,43752,1,0,0:0:0:0:
109,192,43860,1,0,0:0:0:0:
36,192,43860,1,0,0:0:0:0:
256,192,43968,1,0,0:0:0:0:
329,192,43968,1,0,0:0:0:0:
109,192,44076,1,0,0:0:0:0:
36,192,44076,1,0,0:0:0:0:
109,192,44184,1,0,0:0:0:0:
36,192,44184,1,0,0:0:0:0:
475,192,44184,1,0,0:0:0:0:
402,192,44184,1,0,0:0:0:0:
329,192,44292,1,0,0:0:0:0:
256,192,44292,1,0,0:0:0:0:
475,192,44400,1,0,0:0:0:0:
402,192,44400,1,0,0:0:0:0:
109,192,44508,1,0,0:0:0:0:
36,192,44508,1,0,0:0:0:0:
329,192,44616,1,0,0:0:0:0:
256,192,44616,1,0,0:0:0:0:
475,192,44724,1,0,0:0:0:0:
402,192,44724,1,0,0:0:0:0:
256,192,44833,1,0,0:0:0:0:
36,192,44833,1,0,0:0:0:0:
182,192,44833,1,0,0:0:0:0:
475,192,44833,1,0,0:0:0:0:
402,192,44833,1,0,0:0:0:0:
329,192,45049,1,0,0:0:0:0:
182,192,45049,1,0,0:0:0:0:
36,192,45157,1,0,0:0:0:0:
475,192,45157,1,0,0:0:0:0:
256,192,45157,1,0,0:0:0:0:
329,192,45373,1,0,0:0:0:0:
182,192,45373,1,0,0:0:0:0:
109,192,45481,1,0,0:0:0:0:
402,192,45481,1,0,0:0:0:0:
256,192,45481,1,0,0:0:0:0:
475,192,45806,1,0,0:0:0:0:
36,192,45806,1,0,0:0:0:0:
256,192,45806,1,0,0:0:0:0:
329,192,46022,1,0,0:0:0:0:
182,192,46022,1,0,0:0:0:0:
109,192,46130,1,0,0:0:0:0:
402,192,46130,1,0,0:0:0:0:
36,192,46130,1,0,0:0:0:0:
256,192,46130,1,0,0:0:0:0:
475,192,46130,1,0,0:0:0:0:
329,192,46346,1,0,0:0:0:0:
182,192,46346,1,0,0:0:0:0:
475,192,46454,1,0,0:0:0:0:
36,192,46454,1,0,0:0:0:0:
256,192,46454,1,0,0:0:0:0:
182,192,46670,1,0,0:0:0:0:
329,192,46670,1,0,0:0:0:0:
475,192,46779,1,0,0:0:0:0:
256,192,46779,1,0,0:0:0:0:
402,192,46779,1,0,0:0:0:0:
109,192,46779,1,0,0:0:0:0:
36,192,46779,1,0,0:0:0:0:
182,192,46887,1,0,0:0:0:0:
329,192,46887,1,0,0:0:0:0:
256,192,46995,1,0,0:0:0:0:
109,192,47103,1,0,0:0:0:0:
402,192,47103,1,0,0:0:0:0:
182,192,47211,1,0,0:0:0:0:
329,192,47211,1,0,0:0:0:0:
36,192,47319,1,0,0:0:0:0:
475,192,47319,1,0,0:0:0:0:
402,192,47427,1,0,0:0:0:0:
109,192,47427,1,0,0:0:0:0:
256,192,47427,1,0,0:0:0:0:
329,192,47427,1,0,0:0:0:0:
182,192,47427,1,0,0:0:0:0:
182,192,47643,1,0,0:0:0:0:
329,192,47643,1,0,0:0:0:0:
402,192,47752,1,0,0:0:0:0:
109,192,47752,1,0,0:0:0:0:
256,192,47752,1,0,0:0:0:0:
329,192,47968,1,0,0:0:0:0:
182,192,47968,1,0,0:0:0:0:
109,192,48076,1,0,0:0:0:0:
36,192,48076,1,0,0:0:0:0:
256,192,48076,1,0,0:0:0:0:
475,192,48076,1,0,0:0:0:0:
402,192,48076,1,0,0:0:0:0:
109,192,48400,1,0,0:0:0:0:
402,192,48400,1,0,0:0:0:0:
256,192,48400,1,0,0:0:0:0:
182,192,48616,1,0,0:0:0:0:
329,192,48616,1,0,0:0:0:0:
109,192,48724,1,0,0:0:0:0:
402,192,48724,1,0,0:0:0:0:
36,192,48724,1,0,0:0:0:0:
475,192,48724,1,0,0:0:0:0:
256,192,48724,1,0,0:0:0:0:
329,192,48941,1,0,0:0:0:0:
182,192,48941,1,0,0:0:0:0:
402,192,49049,1,0,0:0:0:0:
109,192,49049,1,0,0:0:0:0:
256,192,49049,1,0,0:0:0:0:
329,192,49265,1,0,0:0:0:0:
182,192,49265,1,0,0:0:0:0:
475,192,49373,1,0,0:0:0:0:
36,192,49373,1,0,0:0:0:0:
402,192,49373,1,0,0:0:0:0:
256,192,49373,1,0,0:0:0:0:
109,192,49373,1,0,0:0:0:0:
329,192,49481,1,0,0:0:0:0:
182,192,49481,1,0,0:0:0:0:
402,192,49589,1,0,0:0:0:0:
256,192,49589,1,0,0:0:0:0:
329,192,49697,1,0,0:0:0:0:
182,192,49697,1,0,0:0:0:0:
256,192,49806,1,0,0:0:0:0:
109,192,49806,1,0,0:0:0:0:
475,192,49914,1,0,0:0:0:0:
182,192,49914,1,0,0:0:0:0:
402,192,49914,1,0,0:0:0:0:
402,192,50022,1,0,0:0:0:0:
475,192,50022,1,0,0:0:0:0:
109,192,50022,1,0,0:0:0:0:
36,192,50022,1,0,0:0:0:0:
329,192,50130,1,0,0:0:0:0:
256,192,50130,1,0,0:0:0:0:
182,192,50238,1,0,0:0:0:0:
109,192,50238,1,0,0:0:0:0:
402,192,50346,1,0,0:0:0:0:
329,192,50346,1,0,0:0:0:0:
182,192,50454,1,0,0:0:0:0:
256,192,50454,1,0,0:0:0:0:
36,192,50562,1,0,0:0:0:0:
109,192,50562,1,0,0:0:0:0:
475,192,50562,1,0,0:0:0:0:
402,192,50562,1,0,0:0:0:0:
109,192,50670,1,0,0:0:0:0:
475,192,50670,1,0,0:0:0:0:
36,192,50670,1,0,0:0:0:0:
402,192,50670,1,0,0:0:0:0:
256,192,50779,1,0,0:0:0:0:
329,192,50779,1,0,0:0:0:0:
182,192,50887,1,0,0:0:0:0:
109,192,50887,1,0,0:0:0:0:
402,192,50995,1,0,0:0:0:0:
329,192,50995,1,0,0:0:0:0:
256,192,51103,1,0,0:0:0:0:
182,192,51103,1,0,0:0:0:0:
109,192,51211,1,0,0:0:0:0:
36,192,51211,1,0,0:0:0:0:
475,192,51211,1,0,0:0:0:0:
402,192,51211,1,0,0:0:0:0:
109,192,51319,1,0,0:0:0:0:
475,192,51319,1,0,0:0:0:0:
402,192,51319,1,0,0:0:0:0:
36,192,51319,1,0,0:0:0:0:
256,192,51427,1,0,0:0:0:0:
182,192,51427,1,0,0:0:0:0:
475,192,51535,1,0,0:0:0:0:
402,192,51535,1,0,0:0:0:0:
109,192,51643,1,0,0:0:0:0:
36,192,51643,1,0,0:0:0:0:
256,192,51752,1,0,0:0:0:0:
329,192,51752,1,0,0:0:0:0:
36,192,51860,1,0,0:0:0:0:
109,192,51860,1,0,0:0:0:0:
475,192,51860,1,0,0:0:0:0:
402,192,51860,1,0,0:0:0:0:
36,192,51968,1,0,0:0:0:0:
109,192,51968,1,0,0:0:0:0:
475,192,51968,1,0,0:0:0:0:
402,192,51968,1,0,0:0:0:0:
256,192,52076,1,0,0:0:0:0:
329,192,52076,1,0,0:0:0:0:
475,192,52184,1,0,0:0:0:0:
402,192,52184,1,0,0:0:0:0:
109,192,52292,1,0,0:0:0:0:
36,192,52292,1,0,0:0:0:0:
256,192,52400,1,0,0:0:0:0:
182,192,52400,1,0,0:0:0:0:
475,192,52454,1,0,0:0:0:0:
402,192,52454,1,0,0:0:0:0:
36,192,52508,1,0,0:0:0:0:
109,192,52508,1,0,0:0:0:0:
402,192,52562,1,0,0:0:0:0:
475,192,52562,1,0,0:0:0:0:
109,192,52616,1,0,0:0:0:0:
36,192,52616,1,0,0:0:0:0:
182,192,52724,1,0,0:0:0:0:
256,192,52724,1,0,0:0:0:0:
329,192,52833,1,0,0:0:0:0:
402,192,52833,1,0,0:0:0:0:
182,192,52941,1,0,0:0:0:0:
109,192,52941,1,0,0:0:0:0:
256,192,53049,1,0,0:0:0:0:
329,192,53049,1,0,0:0:0:0:
475,192,53157,1,0,0:0:0:0:
402,192,53157,1,0,0:0:0:0:
109,192,53157,1,0,0:0:0:0:
36,192,53157,1,0,0:0:0:0:
402,192,53265,1,0,0:0:0:0:
36,192,53265,1,0,0:0:0:0:
475,192,53265,1,0,0:0:0:0:
109,192,53265,1,0,0:0:0:0:
256,192,53373,1,0,0:0:0:0:
182,192,53373,1,0,0:0:0:0:
402,192,53481,1,0,0:0:0:0:
329,192,53481,1,0,0:0:0:0:
182,192,53589,1,0,0:0:0:0:
109,192,53589,1,0,0:0:0:0:
329,192,53697,1,0,0:0:0:0:
256,192,53697,1,0,0:0:0:0:
475,192,53806,1,0,0:0:0:0:
402,192,53806,1,0,0:0:0:0:
109,192,53806,1,0,0:0:0:0:
36,192,53806,1,0,0:0:0:0:
475,192,53914,1,0,0:0:0:0:
109,192,53914,1,0,0:0:0:0:
402,192,53914,1,0,0:0:0:0:
36,192,53914,1,0,0:0:0:0:
256,192,54022,1,0,0:0:0:0:
182,192,54022,1,0,0:0:0:0:
402,192,54130,1,0,0:0:0:0:
475,192,54130,1,0,0:0:0:0:
329,192,54130,1,0,0:0:0:0:
182,192,54238,1,0,0:0:0:0:
109,192,54238,1,0,0:0:0:0:
36,192,54238,1,0,0:0:0:0:
402,192,54346,1,0,0:0:0:0:
329,192,54346,1,0,0:0:0:0:
109,192,54454,1,0,0:0:0:0:
36,192,54454,1,0,0:0:0:0:
475,192,54562,1,0,0:0:0:0:
329,192,54562,1,0,0:0:0:0:
182,192,54562,1,0,0:0:0:0:
402,192,54670,1,0,0:0:0:0:
256,192,54670,1,0,0:0:0:0:
329,192,54779,1,0,0:0:0:0:
182,192,54779,1,0,0:0:0:0:
256,192,54887,1,0,0:0:0:0:
109,192,54887,1,0,0:0:0:0:
475,192,54887,1,0,0:0:0:0:
402,192,54887,1,0,0:0:0:0:
36,192,54887,1,0,0:0:0:0:
329,192,54995,1,0,0:0:0:0:
182,192,54995,1,0,0:0:0:0:
256,192,55103,1,0,0:0:0:0:
109,192,55103,1,0,0:0:0:0:
182,192,55211,1,0,0:0:0:0:
36,192,55211,1,0,0:0:0:0:
475,192,55211,1,0,0:0:0:0:
402,192,55211,1,0,0:0:0:0:
329,192,55211,1,0,0:0:0:0:
36,192,55535,1,0,0:0:0:0:
182,192,55535,1,0,0:0:0:0:
475,192,55535,1,0,0:0:0:0:
329,192,55535,1,0,0:0:0:0:
36,192,55860,1,0,0:0:0:0:
109,192,55860,1,0,0:0:0:0:
475,192,55860,1,0,0:0:0:0:
402,192,55860,1,0,0:0:0:0:
36,192,56184,1,0,0:0:0:0:
182,192,56184,1,0,0:0:0:0:
475,192,56184,1,0,0:0:0:0:
329,192,56184,1,0,0:0:0:0:
182,192,56400,1,0,0:0:0:0:
329,192,56400,1,0,0:0:0:0:
256,192,56400,1,0,0:0:0:0:
475,192,56508,1,0,0:0:0:0:
402,192,56508,1,0,0:0:0:0:
36,192,56508,1,0,0:0:0:0:
109,192,56508,1,0,0:0:0:0:
329,192,56616,1,0,0:0:0:0:
182,192,56616,1,0,0:0:0:0:
109,192,56724,1,0,0:0:0:0:
36,192,56724,1,0,0:0:0:0:
475,192,56724,1,0,0:0:0:0:
402,192,56724,1,0,0:0:0:0:
329,192,56833,1,0,0:0:0:0:
182,192,56833,1,0,0:0:0:0:
36,192,57049,1,0,0:0:0:0:
182,192,57049,1,0,0:0:0:0:
329,192,57049,1,0,0:0:0:0:
475,192,57049,1,0,0:0:0:0:
36,192,57481,1,0,0:0:0:0:
182,192,57481,1,0,0:0:0:0:
329,192,57481,1,0,0:0:0:0:
475,192,57481,1,0,0:0:0:0:
36,192,57697,1,0,0:0:0:0:
182,192,57697,1,0,0:0:0:0:
475,192,57697,1,0,0:0:0:0:
329,192,57697,1,0,0:0:0:0:
109,192,57806,1,0,0:0:0:0:
402,192,57806,1,0,0:0:0:0:
256,192,57806,1,0,0:0:0:0:
109,192,58022,1,0,0:0:0:0:
402,192,58022,1,0,0:0:0:0:
256,192,58022,1,0,0:0:0:0:
36,192,58130,1,0,0:0:0:0:
475,192,58130,1,0,0:0:0:0:
182,192,58130,1,0,0:0:0:0:
329,192,58130,1,0,0:0:0:0:
36,192,58454,1,0,0:0:0:0:
182,192,58454,1,0,0:0:0:0:
329,192,58454,1,0,0:0:0:0:
475,192,58454,1,0,0:0:0:0:
36,192,58779,1,0,0:0:0:0:
182,192,58779,1,0,0:0:0:0:
329,192,58779,1,0,0:0:0:0:
475,192,58779,1,0,0:0:0:0:
36,192,58995,1,0,0:0:0:0:
182,192,58995,1,0,0:0:0:0:
475,192,58995,1,0,0:0:0:0:
329,192,58995,1,0,0:0:0:0:
109,192,59103,1,0,0:0:0:0:
402,192,59103,1,0,0:0:0:0:
256,192,59103,1,0,0:0:0:0:
109,192,59319,1,0,0:0:0:0:
256,192,59319,1,0,0:0:0:0:
402,192,59319,1,0,0:0:0:0:
36,192,59427,1,0,0:0:0:0:
475,192,59427,1,0,0:0:0:0:
329,192,59427,1,0,0:0:0:0:
182,192,59427,1,0,0:0:0:0:
475,192,59535,1,0,0:0:0:0:
329,192,59535,1,0,0:0:0:0:
256,192,59643,1,0,0:0:0:0:
109,192,59643,1,0,0:0:0:0:
36,192,59752,1,0,0:0:0:0:
182,192,59752,1,0,0:0:0:0:
329,192,59752,1,0,0:0:0:0:
475,192,59752,1,0,0:0:0:0:
182,192,59968,1,0,0:0:0:0:
329,192,59968,1,0,0:0:0:0:
36,192,60076,1,0,0:0:0:0:
475,192,60076,1,0,0:0:0:0:
109,192,60076,1,0,0:0:0:0:
402,192,60076,1,0,0:0:0:0:
182,192,60292,1,0,0:0:0:0:
329,192,60292,1,0,0:0:0:0:
36,192,60400,1,0,0:0:0:0:
109,192,60400,1,0,0:0:0:0:
402,192,60400,1,0,0:0:0:0:
475,192,60400,1,0,0:0:0:0:
256,192,60400,1,0,0:0:0:0:
329,192,60616,1,0,0:0:0:0:
182,192,60616,1,0,0:0:0:0:
402,192,60724,1,0,0:0:0:0:
256,192,60724,1,0,0:0:0:0:
475,192,60724,1,0,0:0:0:0:
182,192,60833,1,0,0:0:0:0:
36,192,60833,1,0,0:0:0:0:
475,192,60941,1,0,0:0:0:0:
329,192,60941,1,0,0:0:0:0:
256,192,61049,1,0,0:0:0:0:
109,192,61049,1,0,0:0:0:0:
329,192,61265,1,0,0:0:0:0:
182,192,61265,1,0,0:0:0:0:
475,192,61373,1,0,0:0:0:0:
256,192,61373,1,0,0:0:0:0:
402,192,61373,1,0,0:0:0:0:
329,192,61589,1,0,0:0:0:0:
256,192,61589,1,0,0:0:0:0:
182,192,61697,1,0,0:0:0:0:
109,192,61697,1,0,0:0:0:0:
36,192,61697,1,0,0:0:0:0:
109,192,61806,1,0,0:0:0:0:
36,192,61806,1,0,0:0:0:0:
475,192,61914,1,0,0:0:0:0:
402,192,61914,1,0,0:0:0:0:
475,192,62022,1,0,0:0:0:0:
402,192,62022,1,0,0:0:0:0:
329,192,62022,1,0,0:0:0:0:
402,192,62238,1,0,0:0:0:0:
256,192,62238,1,0,0:0:0:0:
109,192,62238,1,0,0:0:0:0:
109,192,62346,1,0,0:0:0:0:
256,192,62346,1,0,0:0:0:0:
402,192,62346,1,0,0:0:0:0:
182,192,62562,1,0,0:0:0:0:
36,192,62562,1,0,0:0:0:0:
329,192,62562,1,0,0:0:0:0:
475,192,62562,1,0,0:0:0:0:
182,192,62670,1,0,0:0:0:0:
36,192,62670,1,0,0:0:0:0:
329,192,62670,1,0,0:0:0:0:
475,192,62670,1,0,0:0:0:0:
402,192,62779,1,0,0:0:0:0:
329,192,62887,1,0,0:0:0:0:
109,192,62995,1,0,0:0:0:0:
36,192,62995,1,0,0:0:0:0:
109,192,63103,1,0,0:0:0:0:
475,192,63211,1,0,0:0:0:0:
402,192,63211,1,0,0:0:0:0:
402,192,63319,1,0,0:0:0:0:
182,192,63319,1,0,0:0:0:0:
36,192,63319,1,0,0:0:0:0:
182,192,63427,1,0,0:0:0:0:
475,192,63535,1,0,0:0:0:0:
329,192,63535,1,0,0:0:0:0:
329,192,63643,1,0,0:0:0:0:
109,192,63643,1,0,0:0:0:0:
36,192,63643,1,0,0:0:0:0:
109,192,63752,1,0,0:0:0:0:
475,192,63860,1,0,0:0:0:0:
402,192,63860,1,0,0:0:0:0:
402,192,63968,1,0,0:0:0:0:
182,192,63968,1,0,0:0:0:0:
36,192,63968,1,0,0:0:0:0:
182,192,64076,1,0,0:0:0:0:
475,192,64184,1,0,0:0:0:0:
329,192,64184,1,0,0:0:0:0:
109,192,64292,1,0,0:0:0:0:
36,192,64292,1,0,0:0:0:0:
402,192,64292,1,0,0:0:0:0:
475,192,64292,1,0,0:0:0:0:
256,192,64292,1,0,0:0:0:0:
475,192,64400,1,0,0:0:0:0:
402,192,64400,1,0,0:0:0:0:
109,192,64400,1,0,0:0:0:0:
36,192,64400,1,0,0:0:0:0:
256,192,64400,1,0,0:0:0:0:
109,192,64508,1,0,0:0:0:0:
36,192,64508,1,0,0:0:0:0:
475,192,64508,1,0,0:0:0:0:
402,192,64508,1,0,0:0:0:0:
256,192,64508,1,0,0:0:0:0:
109,192,64616,1,0,0:0:0:0:
36,192,64616,1,0,0:0:0:0:
475,192,64616,1,0,0:0:0:0:
402,192,64616,1,0,0:0:0:0:
256,192,64616,1,0,0:0:0:0:
109,192,64724,1,0,0:0:0:0:
36,192,64724,1,0,0:0:0:0:
475,192,64724,1,0,0:0:0:0:
402,192,64724,1,0,0:0:0:0:
256,192,64724,1,0,0:0:0:0:
109,192,64833,1,0,0:0:0:0:
36,192,64833,1,0,0:0:0:0:
475,192,64833,1,0,0:0:0:0:
402,192,64833,1,0,0:0:0:0:
256,192,64833,1,0,0:0:0:0:
182,192,64941,1,0,0:0:0:0:
36,192,64941,1,0,0:0:0:0:
475,192,64941,1,0,0:0:0:0:
329,192,64941,1,0,0:0:0:0:
182,192,65049,1,0,0:0:0:0:
36,192,65049,1,0,0:0:0:0:
329,192,65049,1,0,0:0:0:0:
475,192,65049,1,0,0:0:0:0:
182,192,65157,1,0,0:0:0:0:
36,192,65157,1,0,0:0:0:0:
329,192,65157,1,0,0:0:0:0:
475,192,65157,1,0,0:0:0:0:
182,192,65265,1,0,0:0:0:0:
36,192,65265,1,0,0:0:0:0:
329,192,65265,1,0,0:0:0:0:
475,192,65265,1,0,0:0:0:0:
182,192,65373,1,0,0:0:0:0:
36,192,65373,1,0,0:0:0:0:
329,192,65373,1,0,0:0:0:0:
475,192,65373,1,0,0:0:0:0:
182,192,65481,1,0,0:0:0:0:
36,192,65481,1,0,0:0:0:0:
329,192,65481,1,0,0:0:0:0:
475,192,65481,1,0,0:0:0:0:
475,192,65589,1,0,0:0:0:0:
402,192,65589,1,0,0:0:0:0:
109,192,65589,1,0,0:0:0:0:
36,192,65589,1,0,0:0:0:0:
256,192,65589,1,0,0:0:0:0:
329,192,65697,1,0,0:0:0:0:
182,192,65697,1,0,0:0:0:0:
109,192,65806,1,0,0:0:0:0:
256,192,65806,1,0,0:0:0:0:
36,192,65914,1,0,0:0:0:0:
402,192,65914,1,0,0:0:0:0:
256,192,66022,1,0,0:0:0:0:
109,192,66022,1,0,0:0:0:0:
329,192,66130,1,0,0:0:0:0:
182,192,66130,1,0,0:0:0:0:
256,192,66238,1,0,0:0:0:0:
109,192,66238,1,0,0:0:0:0:
329,192,66346,1,0,0:0:0:0:
182,192,66346,1,0,0:0:0:0:
402,192,66454,1,0,0:0:0:0:
256,192,66454,1,0,0:0:0:0:
475,192,66562,1,0,0:0:0:0:
109,192,66562,1,0,0:0:0:0:
36,192,66562,1,0,0:0:0:0:
402,192,66670,1,0,0:0:0:0:
256,192,66670,1,0,0:0:0:0:
329,192,66779,1,0,0:0:0:0:
182,192,66779,1,0,0:0:0:0:
109,192,66779,1,0,0:0:0:0:
36,192,66779,1,0,0:0:0:0:
256,192,66887,1,0,0:0:0:0:
109,192,66887,1,0,0:0:0:0:
36,192,66887,1,0,0:0:0:0:
475,192,66887,1,0,0:0:0:0:
402,192,66887,1,0,0:0:0:0:
475,192,67103,1,0,0:0:0:0:
402,192,67103,1,0,0:0:0:0:
256,192,67211,1,0,0:0:0:0:
109,192,67211,1,0,0:0:0:0:
36,192,67211,1,0,0:0:0:0:
475,192,67211,1,0,0:0:0:0:
402,192,67211,1,0,0:0:0:0:
109,192,67427,1,0,0:0:0:0:
36,192,67427,1,0,0:0:0:0:
402,192,67535,1,0,0:0:0:0:
109,192,67535,1,0,0:0:0:0:
36,192,67535,1,0,0:0:0:0:
475,192,67535,1,0,0:0:0:0:
256,192,67535,1,0,0:0:0:0:
475,192,67752,1,0,0:0:0:0:
402,192,67752,1,0,0:0:0:0:
109,192,67860,1,0,0:0:0:0:
475,192,67860,1,0,0:0:0:0:
402,192,67860,1,0,0:0:0:0:
36,192,67860,1,0,0:0:0:0:
256,192,67860,1,0,0:0:0:0:
109,192,68076,1,0,0:0:0:0:
36,192,68076,1,0,0:0:0:0:
36,192,68184,1,0,0:0:0:0:
475,192,68184,1,0,0:0:0:0:
109,192,68184,1,0,0:0:0:0:
402,192,68184,1,0,0:0:0:0:
256,192,68184,1,0,0:0:0:0:
475,192,68400,1,0,0:0:0:0:
402,192,68400,1,0,0:0:0:0:
402,192,68508,1,0,0:0:0:0:
36,192,68508,1,0,0:0:0:0:
475,192,68508,1,0,0:0:0:0:
256,192,68508,1,0,0:0:0:0:
109,192,68508,1,0,0:0:0:0:
109,192,68724,1,0,0:0:0:0:
36,192,68724,1,0,0:0:0:0:
402,192,68833,1,0,0:0:0:0:
256,192,68833,1,0,0:0:0:0:
109,192,68833,1,0,0:0:0:0:
36,192,68833,1,0,0:0:0:0:
475,192,68833,1,0,0:0:0:0:
329,192,68941,1,0,0:0:0:0:
182,192,68941,1,0,0:0:0:0:
475,192,69049,1,0,0:0:0:0:
402,192,69049,1,0,0:0:0:0:
109,192,69157,1,0,0:0:0:0:
475,192,69157,1,0,0:0:0:0:
402,192,69157,1,0,0:0:0:0:
36,192,69157,1,0,0:0:0:0:
182,192,69157,1,0,0:0:0:0:
329,192,69265,1,0,0:0:0:0:
256,192,69265,1,0,0:0:0:0:
109,192,69373,1,0,0:0:0:0:
36,192,69373,1,0,0:0:0:0:
36,192,69481,1,0,0:0:0:0:
475,192,69481,1,0,0:0:0:0:
109,192,69481,1,0,0:0:0:0:
402,192,69481,1,0,0:0:0:0:
329,192,69481,1,0,0:0:0:0:
402,192,69697,1,0,0:0:0:0:
329,192,69697,1,0,0:0:0:0:
402,192,69806,1,0,0:0:0:0:
329,192,69806,1,0,0:0:0:0:
182,192,69806,1,0,0:0:0:0:
109,192,69806,1,0,0:0:0:0:
256,192,69806,1,0,0:0:0:0:
182,192,70022,1,0,0:0:0:0:
109,192,70022,1,0,0:0:0:0:
182,192,70130,1,0,0:0:0:0:
109,192,70130,1,0,0:0:0:0:
402,192,70130,1,0,0:0:0:0:
329,192,70130,1,0,0:0:0:0:
256,192,70130,1,0,0:0:0:0:
402,192,70346,1,0,0:0:0:0:
329,192,70346,1,0,0:0:0:0:
402,192,70454,1,0,0:0:0:0:
329,192,70454,1,0,0:0:0:0:
256,192,70454,1,0,0:0:0:0:
182,192,70454,1,0,0:0:0:0:
109,192,70454,1,0,0:0:0:0:
182,192,70670,1,0,0:0:0:0:
109,192,70670,1,0,0:0:0:0:
109,192,70779,1,0,0:0:0:0:
182,192,70779,1,0,0:0:0:0:
256,192,70779,1,0,0:0:0:0:
329,192,70779,1,0,0:0:0:0:
402,192,70779,1,0,0:0:0:0:
402,192,70995,1,0,0:0:0:0:
329,192,70995,1,0,0:0:0:0:
402,192,71103,1,0,0:0:0:0:
329,192,71103,1,0,0:0:0:0:
256,192,71103,1,0,0:0:0:0:
182,192,71103,1,0,0:0:0:0:
109,192,71103,1,0,0:0:0:0:
36,192,71319,1,0,0:0:0:0:
109,192,71319,1,0,0:0:0:0:
109,192,71427,1,0,0:0:0:0:
182,192,71427,1,0,0:0:0:0:
475,192,71427,1,0,0:0:0:0:
36,192,71427,1,0,0:0:0:0:
256,192,71427,1,0,0:0:0:0:
329,192,71535,1,0,0:0:0:0:
402,192,71535,1,0,0:0:0:0:
36,192,71643,1,0,0:0:0:0:
109,192,71643,1,0,0:0:0:0:
109,192,71752,1,0,0:0:0:0:
36,192,71752,1,0,0:0:0:0:
256,192,71752,1,0,0:0:0:0:
475,192,71752,1,0,0:0:0:0:
402,192,71752,1,0,0:0:0:0:
182,192,71860,1,0,0:0:0:0:
329,192,71860,1,0,0:0:0:0:
402,192,71968,1,0,0:0:0:0:
256,192,71968,1,0,0:0:0:0:
402,192,72076,1,0,0:0:0:0:
256,192,72076,1,0,0:0:0:0:
36,192,72076,1,0,0:0:0:0:
182,192,72076,1,0,0:0:0:0:
109,192,72292,1,0,0:0:0:0:
36,192,72292,1,0,0:0:0:0:
109,192,72400,128,0,72724:0:0:0:0:
36,192,72400,128,0,72724:0:0:0:0:
475,192,72400,1,0,0:0:0:0:
402,192,72400,1,0,0:0:0:0:
256,192,72508,1,0,0:0:0:0:
182,192,72508,1,0,0:0:0:0:
475,192,72616,1,0,0:0:0:0:
402,192,72616,1,0,0:0:0:0:
475,192,72724,128,0,73049:0:0:0:0:
402,192,72724,128,0,73049:0:0:0:0:
182,192,72941,1,0,0:0:0:0:
109,192,72941,1,0,0:0:0:0:
109,192,73049,128,0,73373:0:0:0:0:
182,192,73049,128,0,73373:0:0:0:0:
475,192,73265,1,0,0:0:0:0:
329,192,73265,1,0,0:0:0:0:
329,192,73373,128,0,73697:0:0:0:0:
475,192,73373,128,0,73697:0:0:0:0:
36,192,73481,1,0,0:0:0:0:
109,192,73481,1,0,0:0:0:0:
256,192,73589,1,0,0:0:0:0:
182,192,73589,1,0,0:0:0:0:
109,192,73697,128,0,74022:0:0:0:0:
36,192,73697,128,0,74022:0:0:0:0:
475,192,73806,1,0,0:0:0:0:
402,192,73806,1,0,0:0:0:0:
329,192,73914,1,0,0:0:0:0:
256,192,73914,1,0,0:0:0:0:
475,192,74022,128,0,74346:0:0:0:0:
402,192,74022,128,0,74346:0:0:0:0:
256,192,74130,1,0,0:0:0:0:
182,192,74130,1,0,0:0:0:0:
109,192,74238,1,0,0:0:0:0:
36,192,74238,1,0,0:0:0:0:
329,192,74346,1,0,0:0:0:0:
256,192,74346,1,0,0:0:0:0:
182,192,74454,1,0,0:0:0:0:
109,192,74454,1,0,0:0:0:0:
402,192,74562,1,0,0:0:0:0:
329,192,74562,1,0,0:0:0:0:
36,192,74670,1,0,0:0:0:0:
256,192,74779,1,0,0:0:0:0:
182,192,74779,1,0,0:0:0:0:
475,192,74887,1,0,0:0:0:0:
402,192,74887,1,0,0:0:0:0:
109,192,74995,128,0,75319:0:0:0:0:
36,192,74995,128,0,75319:0:0:0:0:
329,192,75103,1,0,0:0:0:0:
256,192,75103,1,0,0:0:0:0:
475,192,75211,1,0,0:0:0:0:
402,192,75211,1,0,0:0:0:0:
256,192,75319,128,0,75643:0:0:0:0:
182,192,75319,1,0,0:0:0:0:
329,192,75319,1,0,0:0:0:0:
36,192,75427,1,0,0:0:0:0:
475,192,75427,1,0,0:0:0:0:
109,192,75535,1,0,0:0:0:0:
402,192,75535,1,0,0:0:0:0:
182,192,75643,128,0,75968:0:0:0:0:
329,192,75643,128,0,75968:0:0:0:0:
36,192,75752,1,0,0:0:0:0:
475,192,75752,1,0,0:0:0:0:
109,192,75860,1,0,0:0:0:0:
402,192,75860,1,0,0:0:0:0:
256,192,75968,1,0,0:0:0:0:
475,192,75968,1,0,0:0:0:0:
36,192,75968,1,0,0:0:0:0:
329,192,76076,1,0,0:0:0:0:
182,192,76076,1,0,0:0:0:0:
402,192,76184,1,0,0:0:0:0:
256,192,76184,1,0,0:0:0:0:
329,192,76292,1,0,0:0:0:0:
109,192,76292,1,0,0:0:0:0:
402,192,76400,1,0,0:0:0:0:
182,192,76400,1,0,0:0:0:0:
475,192,76508,1,0,0:0:0:0:
256,192,76508,1,0,0:0:0:0:
329,192,76616,1,0,0:0:0:0:
36,192,76616,1,0,0:0:0:0:
109,192,76724,1,0,0:0:0:0:
402,192,76724,1,0,0:0:0:0:
182,192,76833,1,0,0:0:0:0:
475,192,76833,1,0,0:0:0:0:
402,192,76941,1,0,0:0:0:0:
256,192,76941,1,0,0:0:0:0:
109,192,76941,1,0,0:0:0:0:
329,192,77049,1,0,0:0:0:0:
182,192,77049,1,0,0:0:0:0:
36,192,77049,1,0,0:0:0:0:
402,192,77157,1,0,0:0:0:0:
256,192,77157,1,0,0:0:0:0:
109,192,77157,1,0,0:0:0:0:
475,192,77265,1,0,0:0:0:0:
329,192,77265,1,0,0:0:0:0:
182,192,77265,1,0,0:0:0:0:
109,192,77265,1,0,0:0:0:0:
109,192,77481,1,0,0:0:0:0:
256,192,77481,1,0,0:0:0:0:
402,192,77481,1,0,0:0:0:0:
182,192,77589,1,0,0:0:0:0:
109,192,77589,1,0,0:0:0:0:
475,192,77589,1,0,0:0:0:0:
329,192,77589,1,0,0:0:0:0:
109,192,77806,1,0,0:0:0:0:
256,192,77806,1,0,0:0:0:0:
402,192,77806,1,0,0:0:0:0:
109,192,77914,1,0,0:0:0:0:
182,192,77914,1,0,0:0:0:0:
329,192,77914,1,0,0:0:0:0:
475,192,77914,1,0,0:0:0:0:
109,192,78130,1,0,0:0:0:0:
256,192,78130,1,0,0:0:0:0:
402,192,78130,1,0,0:0:0:0:
109,192,78238,1,0,0:0:0:0:
182,192,78238,1,0,0:0:0:0:
329,192,78238,1,0,0:0:0:0:
475,192,78238,1,0,0:0:0:0:
109,192,78454,1,0,0:0:0:0:
256,192,78454,1,0,0:0:0:0:
402,192,78454,1,0,0:0:0:0:
109,192,78562,1,0,0:0:0:0:
182,192,78562,1,0,0:0:0:0:
329,192,78562,1,0,0:0:0:0:
475,192,78562,1,0,0:0:0:0:
402,192,78779,1,0,0:0:0:0:
109,192,78779,1,0,0:0:0:0:
256,192,78779,1,0,0:0:0:0:
475,192,78887,1,0,0:0:0:0:
329,192,78887,1,0,0:0:0:0:
109,192,78887,1,0,0:0:0:0:
182,192,78887,1,0,0:0:0:0:
109,192,79103,1,0,0:0:0:0:
256,192,79103,1,0,0:0:0:0:
402,192,79103,1,0,0:0:0:0:
329,192,79211,1,0,0:0:0:0:
109,192,79211,1,0,0:0:0:0:
182,192,79211,1,0,0:0:0:0:
475,192,79211,1,0,0:0:0:0:
402,192,79319,1,0,0:0:0:0:
256,192,79319,1,0,0:0:0:0:
329,192,79427,1,0,0:0:0:0:
182,192,79427,1,0,0:0:0:0:
36,192,79427,1,0,0:0:0:0:
475,192,79535,1,0,0:0:0:0:
256,192,79535,1,0,0:0:0:0:
36,192,79535,1,0,0:0:0:0:
109,192,79535,1,0,0:0:0:0:
329,192,79643,1,0,0:0:0:0:
182,192,79643,1,0,0:0:0:0:
402,192,79752,1,0,0:0:0:0:
109,192,79752,1,0,0:0:0:0:
256,192,79752,1,0,0:0:0:0:
402,192,79860,1,0,0:0:0:0:
36,192,79860,1,0,0:0:0:0:
182,192,79860,1,0,0:0:0:0:
329,192,79860,1,0,0:0:0:0:
109,192,80076,1,0,0:0:0:0:
402,192,80076,1,0,0:0:0:0:
256,192,80076,1,0,0:0:0:0:
402,192,80184,1,0,0:0:0:0:
329,192,80184,1,0,0:0:0:0:
36,192,80184,1,0,0:0:0:0:
182,192,80184,1,0,0:0:0:0:
256,192,80400,1,0,0:0:0:0:
109,192,80400,1,0,0:0:0:0:
402,192,80400,1,0,0:0:0:0:
182,192,80508,1,0,0:0:0:0:
329,192,80508,1,0,0:0:0:0:
402,192,80508,1,0,0:0:0:0:
36,192,80508,1,0,0:0:0:0:
256,192,80724,1,0,0:0:0:0:
109,192,80724,1,0,0:0:0:0:
402,192,80724,1,0,0:0:0:0:
329,192,80833,1,0,0:0:0:0:
402,192,80833,1,0,0:0:0:0:
36,192,80833,1,0,0:0:0:0:
182,192,80833,1,0,0:0:0:0:
402,192,81049,1,0,0:0:0:0:
256,192,81049,1,0,0:0:0:0:
109,192,81049,1,0,0:0:0:0:
329,192,81157,1,0,0:0:0:0:
36,192,81157,1,0,0:0:0:0:
182,192,81157,1,0,0:0:0:0:
402,192,81157,1,0,0:0:0:0:
256,192,81373,1,0,0:0:0:0:
402,192,81373,1,0,0:0:0:0:
109,192,81373,1,0,0:0:0:0:
402,192,81481,1,0,0:0:0:0:
36,192,81481,1,0,0:0:0:0:
182,192,81481,1,0,0:0:0:0:
329,192,81481,1,0,0:0:0:0:
256,192,81697,1,0,0:0:0:0:
402,192,81697,1,0,0:0:0:0:
109,192,81697,1,0,0:0:0:0:
36,192,81806,1,0,0:0:0:0:
402,192,81806,1,0,0:0:0:0:
329,192,81806,1,0,0:0:0:0:
182,192,81806,1,0,0:0:0:0:
109,192,81914,1,0,0:0:0:0:
256,192,81914,1,0,0:0:0:0:
475,192,82022,1,0,0:0:0:0:
182,192,82022,1,0,0:0:0:0:
329,192,82022,1,0,0:0:0:0:
475,192,82130,1,0,0:0:0:0:
36,192,82130,1,0,0:0:0:0:
402,192,82130,1,0,0:0:0:0:
256,192,82130,1,0,0:0:0:0:
109,192,82238,1,0,0:0:0:0:
329,192,82238,1,0,0:0:0:0:
402,192,82346,1,0,0:0:0:0:
182,192,82346,1,0,0:0:0:0:
182,192,82454,1,0,0:0:0:0:
36,192,82454,1,0,0:0:0:0:
475,192,82454,1,0,0:0:0:0:
256,192,82454,1,0,0:0:0:0:
109,192,82670,1,0,0:0:0:0:
36,192,82670,1,0,0:0:0:0:
109,192,82779,128,0,82995:0:0:0:0:
36,192,82779,128,0,82995:0:0:0:0:
475,192,82779,1,0,0:0:0:0:
402,192,82779,1,0,0:0:0:0:
182,192,82887,1,0,0:0:0:0:
256,192,82887,1,0,0:0:0:0:
475,192,82995,1,0,0:0:0:0:
329,192,82995,1,0,0:0:0:0:
475,192,83103,128,0,83319:0:0:0:0:
402,192,83103,128,0,83319:0:0:0:0:
109,192,83103,1,0,0:0:0:0:
36,192,83103,1,0,0:0:0:0:
329,192,83319,1,0,0:0:0:0:
256,192,83319,1,0,0:0:0:0:
329,192,83427,128,0,83643:0:0:0:0:
256,192,83427,128,0,83643:0:0:0:0:
109,192,83427,1,0,0:0:0:0:
36,192,83427,1,0,0:0:0:0:
182,192,83643,1,0,0:0:0:0:
109,192,83643,1,0,0:0:0:0:
182,192,83752,128,0,83968:0:0:0:0:
109,192,83752,128,0,83968:0:0:0:0:
475,192,83752,1,0,0:0:0:0:
402,192,83752,1,0,0:0:0:0:
329,192,83860,1,0,0:0:0:0:
256,192,83860,1,0,0:0:0:0:
475,192,83968,1,0,0:0:0:0:
402,192,83968,1,0,0:0:0:0:
109,192,84076,1,0,0:0:0:0:
36,192,84076,1,0,0:0:0:0:
475,192,84076,128,0,84292:0:0:0:0:
402,192,84076,128,0,84292:0:0:0:0:
256,192,84184,1,0,0:0:0:0:
182,192,84184,1,0,0:0:0:0:
109,192,84292,1,0,0:0:0:0:
36,192,84292,1,0,0:0:0:0:
109,192,84400,128,0,84616:0:0:0:0:
36,192,84400,128,0,84616:0:0:0:0:
475,192,84400,1,0,0:0:0:0:
402,192,84400,1,0,0:0:0:0:
182,192,84508,1,0,0:0:0:0:
256,192,84508,1,0,0:0:0:0:
402,192,84616,1,0,0:0:0:0:
329,192,84616,1,0,0:0:0:0:
402,192,84724,128,0,84941:0:0:0:0:
329,192,84724,128,0,84941:0:0:0:0:
109,192,84724,1,0,0:0:0:0:
36,192,84724,1,0,0:0:0:0:
256,192,84833,1,0,0:0:0:0:
182,192,84833,1,0,0:0:0:0:
109,192,84941,1,0,0:0:0:0:
36,192,84941,1,0,0:0:0:0:
109,192,85049,1,0,0:0:0:0:
36,192,85049,1,0,0:0:0:0:
475,192,85049,1,0,0:0:0:0:
256,192,85157,1,0,0:0:0:0:
182,192,85157,1,0,0:0:0:0:
402,192,85265,1,0,0:0:0:0:
329,192,85265,1,0,0:0:0:0:
109,192,85373,1,0,0:0:0:0:
36,192,85373,1,0,0:0:0:0:
475,192,85373,1,0,0:0:0:0:
329,192,85481,1,0,0:0:0:0:
182,192,85481,1,0,0:0:0:0:
402,192,85589,1,0,0:0:0:0:
475,192,85589,1,0,0:0:0:0:
256,192,85697,1,0,0:0:0:0:
109,192,85697,1,0,0:0:0:0:
36,192,85697,1,0,0:0:0:0:
329,192,85806,1,0,0:0:0:0:
182,192,85806,1,0,0:0:0:0:
475,192,85914,1,0,0:0:0:0:
256,192,85914,1,0,0:0:0:0:
182,192,86022,1,0,0:0:0:0:
109,192,86022,1,0,0:0:0:0:
402,192,86022,1,0,0:0:0:0:
329,192,86130,1,0,0:0:0:0:
256,192,86130,1,0,0:0:0:0:
475,192,86238,1,0,0:0:0:0:
402,192,86238,1,0,0:0:0:0:
182,192,86346,1,0,0:0:0:0:
109,192,86346,1,0,0:0:0:0:
36,192,86346,1,0,0:0:0:0:
329,192,86346,1,0,0:0:0:0:
109,192,86454,1,0,0:0:0:0:
36,192,86454,1,0,0:0:0:0:
329,192,86562,1,0,0:0:0:0:
182,192,86562,1,0,0:0:0:0:
475,192,86670,1,0,0:0:0:0:
256,192,86670,1,0,0:0:0:0:
402,192,86670,1,0,0:0:0:0:
475,192,86779,1,0,0:0:0:0:
402,192,86779,1,0,0:0:0:0:
329,192,86887,1,0,0:0:0:0:
182,192,86887,1,0,0:0:0:0:
256,192,86995,1,0,0:0:0:0:
109,192,86995,1,0,0:0:0:0:
36,192,86995,1,0,0:0:0:0:
109,192,87103,1,0,0:0:0:0:
36,192,87103,1,0,0:0:0:0:
329,192,87211,1,0,0:0:0:0:
182,192,87211,1,0,0:0:0:0:
475,192,87319,1,0,0:0:0:0:
402,192,87319,1,0,0:0:0:0:
256,192,87319,1,0,0:0:0:0:
475,192,87427,1,0,0:0:0:0:
402,192,87427,1,0,0:0:0:0:
329,192,87535,1,0,0:0:0:0:
182,192,87535,1,0,0:0:0:0:
256,192,87643,128,0,87860:0:0:0:0:
256,192,87968,128,0,88616:0:0:0:0:
182,192,88941,128,0,91535:0:0:0:0:
109,192,88941,128,0,91535:0:0:0:0:
329,192,88941,128,0,91535:0:0:0:0:
402,192,88941,128,0,91535:0:0:0:0:
475,192,88941,128,0,91535:0:0:0:0:
36,192,88941,128,0,91535:0:0:0:0:
