osu file format v14

[General]
AudioFilename: Suzaku - Vanessa.mp3
AudioLeadIn: 0
PreviewTime: 66887
Countdown: 0
SampleSet: Soft
StackLeniency: 0.7
Mode: 3
LetterboxInBreaks: 1
SpecialStyle: 0
WidescreenStoryboard: 1

[Editor]
DistanceSpacing: 0.6
BeatDivisor: 3
GridSize: 4
TimelineZoom: 1.7

[Metadata]
Title:4key & 7key Fantasy Last. Vol.
TitleUnicode:4key & 7key Fantasy Last. Vol.
Artist:Final Mania Dimension
ArtistUnicode:Final Mania Dimension
Creator:Un-known
Version:Suzaku - Vanessa [4key Hard]
Source:
Tags:
BeatmapID:675033
BeatmapSetID:298447

[Difficulty]
HPDrainRate:7
CircleSize:4
OverallDifficulty:7
ApproachRate:5
SliderMultiplier:1.4
SliderTickRate:1

[Events]
//Background and Video events
0,0,"1.jpg",0,0
//Break Periods
//Storyboard Layer 0 (Background)
//Storyboard Layer 1 (Fail)
//Storyboard Layer 2 (Pass)
//Storyboard Layer 3 (Foreground)
//Storyboard Sound Samples

[TimingPoints]
725,324.324324324324,4,2,0,30,1,0
13697,-100,4,2,0,30,0,1
23752,-100,4,2,0,30,0,0
24076,-100,4,2,0,30,0,1
34454,-100,4,2,0,30,0,0
66887,-100,4,2,0,30,0,1
76941,-100,4,2,0,30,0,0
77265,-100,4,2,0,30,0,1
87643,-100,4,2,0,30,0,0

[HitObjects]
64,192,725,5,0,0:0:0:0:
320,192,725,1,0,0:0:0:0:
448,192,725,1,0,0:0:0:0:
192,192,1373,1,0,0:0:0:0:
64,192,2022,1,0,0:0:0:0:
192,192,2670,1,0,0:0:0:0:
320,192,3157,1,0,0:0:0:0:
64,192,3319,1,0,0:0:0:0:
448,192,3319,1,0,0:0:0:0:
320,192,3968,1,0,0:0:0:0:
448,192,4616,1,0,0:0:0:0:
320,192,5265,1,0,0:0:0:0:
64,192,5589,1,0,0:0:0:0:
192,192,5752,1,0,0:0:0:0:
320,192,5914,1,0,0:0:0:0:
448,192,5914,1,0,0:0:0:0:
192,192,6238,1,0,0:0:0:0:
320,192,6562,1,0,0:0:0:0:
192,192,6887,1,0,0:0:0:0:
64,192,7049,1,0,0:0:0:0:
320,192,7211,1,0,0:0:0:0:
448,192,7211,1,0,0:0:0:0:
192,192,7535,1,0,0:0:0:0:
448,192,7860,1,0,0:0:0:0:
320,192,8184,1,0,0:0:0:0:
64,192,8508,128,0,8670:0:0:0:0:
192,192,8508,1,0,0:0:0:0:
320,192,8833,128,0,8995:0:0:0:0:
192,192,8833,1,0,0:0:0:0:
320,192,9157,128,0,9319:0:0:0:0:
448,192,9157,1,0,0:0:0:0:
192,192,9481,128,0,9643:0:0:0:0:
320,192,9481,128,0,9643:0:0:0:0:
320,192,9806,1,0,0:0:0:0:
448,192,9806,1,0,0:0:0:0:
192,192,9914,1,0,0:0:0:0:
64,192,10022,1,0,0:0:0:0:
448,192,10022,1,0,0:0:0:0:
320,192,10130,1,0,0:0:0:0:
192,192,10238,1,0,0:0:0:0:
64,192,10238,1,0,0:0:0:0:
448,192,10346,1,0,0:0:0:0:
320,192,10454,1,0,0:0:0:0:
192,192,10454,1,0,0:0:0:0:
64,192,10562,1,0,0:0:0:0:
320,192,10670,1,0,0:0:0:0:
448,192,10670,1,0,0:0:0:0:
192,192,10779,1,0,0:0:0:0:
64,192,10887,1,0,0:0:0:0:
448,192,10887,1,0,0:0:0:0:
192,192,10995,1,0,0:0:0:0:
448,192,11103,128,0,12400:0:0:0:0:
320,192,11103,1,0,0:0:0:0:
64,192,12400,1,0,0:0:0:0:
192,192,12400,1,0,0:0:0:0:
320,192,12508,1,0,0:0:0:0:
64,192,12616,1,0,0:0:0:0:
448,192,12616,1,0,0:0:0:0:
192,192,12724,1,0,0:0:0:0:
320,192,12833,1,0,0:0:0:0:
448,192,12833,1,0,0:0:0:0:
64,192,12941,1,0,0:0:0:0:
192,192,13049,1,0,0:0:0:0:
320,192,13049,1,0,0:0:0:0:
448,192,13157,1,0,0:0:0:0:
320,192,13265,1,0,0:0:0:0:
64,192,13265,1,0,0:0:0:0:
192,192,13373,1,0,0:0:0:0:
448,192,13373,1,0,0:0:0:0:
64,192,13481,1,0,0:0:0:0:
320,192,13589,1,0,0:0:0:0:
448,192,13589,1,0,0:0:0:0:
64,192,13697,1,0,0:0:0:0:
192,192,13697,1,0,0:0:0:0:
320,192,13806,1,0,0:0:0:0:
64,192,13914,1,0,0:0:0:0:
192,192,14022,1,0,0:0:0:0:
320,192,14022,1,0,0:0:0:0:
64,192,14130,1,0,0:0:0:0:
320,192,14238,1,0,0:0:0:0:
192,192,14346,1,0,0:0:0:0:
448,192,14346,1,0,0:0:0:0:
320,192,14454,1,0,0:0:0:0:
64,192,14562,1,0,0:0:0:0:
320,192,14670,1,0,0:0:0:0:
448,192,14670,1,0,0:0:0:0:
192,192,14779,1,0,0:0:0:0:
448,192,14887,1,0,0:0:0:0:
64,192,14995,1,0,0:0:0:0:
192,192,14995,1,0,0:0:0:0:
320,192,15103,1,0,0:0:0:0:
192,192,15211,1,0,0:0:0:0:
320,192,15319,1,0,0:0:0:0:
64,192,15319,1,0,0:0:0:0:
192,192,15427,1,0,0:0:0:0:
320,192,15535,1,0,0:0:0:0:
448,192,15643,1,0,0:0:0:0:
64,192,15643,1,0,0:0:0:0:
320,192,15752,1,0,0:0:0:0:
448,192,15860,1,0,0:0:0:0:
64,192,15860,1,0,0:0:0:0:
192,192,15968,1,0,0:0:0:0:
448,192,16076,1,0,0:0:0:0:
320,192,16076,1,0,0:0:0:0:
64,192,16184,1,0,0:0:0:0:
192,192,16292,1,0,0:0:0:0:
320,192,16292,1,0,0:0:0:0:
448,192,16400,1,0,0:0:0:0:
320,192,16508,1,0,0:0:0:0:
192,192,16616,1,0,0:0:0:0:
448,192,16616,1,0,0:0:0:0:
64,192,16724,1,0,0:0:0:0:
320,192,16833,1,0,0:0:0:0:
64,192,16941,1,0,0:0:0:0:
448,192,16941,1,0,0:0:0:0:
192,192,17049,1,0,0:0:0:0:
64,192,17157,1,0,0:0:0:0:
448,192,17265,1,0,0:0:0:0:
320,192,17265,1,0,0:0:0:0:
192,192,17373,1,0,0:0:0:0:
448,192,17481,1,0,0:0:0:0:
320,192,17589,1,0,0:0:0:0:
64,192,17589,1,0,0:0:0:0:
192,192,17697,1,0,0:0:0:0:
448,192,17806,1,0,0:0:0:0:
192,192,17914,1,0,0:0:0:0:
320,192,17914,1,0,0:0:0:0:
64,192,18022,1,0,0:0:0:0:
320,192,18130,1,0,0:0:0:0:
64,192,18238,1,0,0:0:0:0:
192,192,18238,1,0,0:0:0:0:
320,192,18346,1,0,0:0:0:0:
192,192,18454,1,0,0:0:0:0:
448,192,18454,1,0,0:0:0:0:
64,192,18562,1,0,0:0:0:0:
192,192,18670,1,0,0:0:0:0:
320,192,18670,1,0,0:0:0:0:
448,192,18779,1,0,0:0:0:0:
192,192,18887,1,0,0:0:0:0:
64,192,18887,1,0,0:0:0:0:
320,192,18995,1,0,0:0:0:0:
192,192,19103,1,0,0:0:0:0:
320,192,19211,1,0,0:0:0:0:
64,192,19211,1,0,0:0:0:0:
448,192,19319,1,0,0:0:0:0:
320,192,19427,1,0,0:0:0:0:
192,192,19535,1,0,0:0:0:0:
64,192,19535,1,0,0:0:0:0:
448,192,19643,1,0,0:0:0:0:
320,192,19752,1,0,0:0:0:0:
192,192,19860,1,0,0:0:0:0:
448,192,19860,1,0,0:0:0:0:
64,192,19968,1,0,0:0:0:0:
320,192,20076,1,0,0:0:0:0:
448,192,20184,1,0,0:0:0:0:
64,192,20184,1,0,0:0:0:0:
192,192,20292,1,0,0:0:0:0:
448,192,20400,1,0,0:0:0:0:
320,192,20508,1,0,0:0:0:0:
64,192,20508,1,0,0:0:0:0:
192,192,20616,1,0,0:0:0:0:
64,192,20724,1,0,0:0:0:0:
192,192,20833,1,0,0:0:0:0:
448,192,20833,1,0,0:0:0:0:
320,192,20941,1,0,0:0:0:0:
192,192,21049,1,0,0:0:0:0:
448,192,21157,1,0,0:0:0:0:
64,192,21157,1,0,0:0:0:0:
192,192,21265,1,0,0:0:0:0:
320,192,21373,1,0,0:0:0:0:
192,192,21481,1,0,0:0:0:0:
448,192,21481,1,0,0:0:0:0:
64,192,21589,1,0,0:0:0:0:
192,192,21697,1,0,0:0:0:0:
320,192,21806,1,0,0:0:0:0:
448,192,21806,1,0,0:0:0:0:
192,192,21914,1,0,0:0:0:0:
64,192,22022,1,0,0:0:0:0:
320,192,22130,1,0,0:0:0:0:
448,192,22130,1,0,0:0:0:0:
192,192,22238,1,0,0:0:0:0:
448,192,22346,1,0,0:0:0:0:
320,192,22454,1,0,0:0:0:0:
64,192,22454,1,0,0:0:0:0:
192,192,22562,1,0,0:0:0:0:
320,192,22670,1,0,0:0:0:0:
64,192,22779,1,0,0:0:0:0:
448,192,22779,1,0,0:0:0:0:
192,192,22887,1,0,0:0:0:0:
320,192,22887,1,0,0:0:0:0:
64,192,22995,1,0,0:0:0:0:
448,192,22995,1,0,0:0:0:0:
192,192,23103,1,0,0:0:0:0:
320,192,23103,1,0,0:0:0:0:
64,192,23427,1,0,0:0:0:0:
448,192,23427,1,0,0:0:0:0:
192,192,23752,1,0,0:0:0:0:
320,192,23752,1,0,0:0:0:0:
320,192,24076,1,0,0:0:0:0:
448,192,24076,1,0,0:0:0:0:
192,192,24184,1,0,0:0:0:0:
448,192,24292,1,0,0:0:0:0:
192,192,24400,1,0,0:0:0:0:
320,192,24400,1,0,0:0:0:0:
448,192,24508,1,0,0:0:0:0:
192,192,24616,1,0,0:0:0:0:
320,192,24724,1,0,0:0:0:0:
64,192,24724,1,0,0:0:0:0:
192,192,24833,1,0,0:0:0:0:
448,192,24941,1,0,0:0:0:0:
192,192,25049,1,0,0:0:0:0:
64,192,25049,1,0,0:0:0:0:
320,192,25157,1,0,0:0:0:0:
64,192,25265,1,0,0:0:0:0:
448,192,25373,1,0,0:0:0:0:
320,192,25373,1,0,0:0:0:0:
192,192,25481,1,0,0:0:0:0:
320,192,25589,1,0,0:0:0:0:
448,192,25697,1,0,0:0:0:0:
192,192,25697,1,0,0:0:0:0:
320,192,25806,1,0,0:0:0:0:
192,192,25914,1,0,0:0:0:0:
448,192,26022,1,0,0:0:0:0:
64,192,26022,1,0,0:0:0:0:
192,192,26130,1,0,0:0:0:0:
64,192,26238,1,0,0:0:0:0:
448,192,26238,1,0,0:0:0:0:
320,192,26346,1,0,0:0:0:0:
192,192,26454,1,0,0:0:0:0:
64,192,26454,1,0,0:0:0:0:
448,192,26562,1,0,0:0:0:0:
320,192,26670,1,0,0:0:0:0:
192,192,26670,1,0,0:0:0:0:
64,192,26779,1,0,0:0:0:0:
192,192,26887,1,0,0:0:0:0:
320,192,26995,1,0,0:0:0:0:
64,192,26995,1,0,0:0:0:0:
448,192,27103,1,0,0:0:0:0:
192,192,27211,1,0,0:0:0:0:
448,192,27319,1,0,0:0:0:0:
64,192,27319,1,0,0:0:0:0:
320,192,27427,1,0,0:0:0:0:
448,192,27535,1,0,0:0:0:0:
192,192,27643,1,0,0:0:0:0:
64,192,27643,1,0,0:0:0:0:
320,192,27752,1,0,0:0:0:0:
64,192,27860,1,0,0:0:0:0:
192,192,27968,1,0,0:0:0:0:
448,192,27968,1,0,0:0:0:0:
320,192,28076,1,0,0:0:0:0:
64,192,28184,1,0,0:0:0:0:
320,192,28292,1,0,0:0:0:0:
192,192,28292,1,0,0:0:0:0:
448,192,28400,1,0,0:0:0:0:
192,192,28508,1,0,0:0:0:0:
320,192,28616,1,0,0:0:0:0:
448,192,28616,1,0,0:0:0:0:
192,192,28724,1,0,0:0:0:0:
320,192,28833,1,0,0:0:0:0:
64,192,28833,1,0,0:0:0:0:
448,192,28941,1,0,0:0:0:0:
320,192,29049,1,0,0:0:0:0:
192,192,29049,1,0,0:0:0:0:
64,192,29157,1,0,0:0:0:0:
448,192,29265,1,0,0:0:0:0:
320,192,29265,1,0,0:0:0:0:
192,192,29373,1,0,0:0:0:0:
320,192,29481,1,0,0:0:0:0:
192,192,29589,1,0,0:0:0:0:
448,192,29589,1,0,0:0:0:0:
64,192,29697,1,0,0:0:0:0:
192,192,29806,1,0,0:0:0:0:
320,192,29914,1,0,0:0:0:0:
448,192,29914,1,0,0:0:0:0:
64,192,30022,1,0,0:0:0:0:
192,192,30130,1,0,0:0:0:0:
64,192,30238,1,0,0:0:0:0:
320,192,30238,1,0,0:0:0:0:
448,192,30346,1,0,0:0:0:0:
192,192,30454,1,0,0:0:0:0:
448,192,30562,1,0,0:0:0:0:
64,192,30562,1,0,0:0:0:0:
320,192,30670,1,0,0:0:0:0:
64,192,30779,1,0,0:0:0:0:
448,192,30887,1,0,0:0:0:0:
192,192,30887,1,0,0:0:0:0:
320,192,30995,1,0,0:0:0:0:
448,192,31103,1,0,0:0:0:0:
64,192,31211,1,0,0:0:0:0:
320,192,31211,1,0,0:0:0:0:
192,192,31319,1,0,0:0:0:0:
320,192,31427,1,0,0:0:0:0:
64,192,31535,1,0,0:0:0:0:
448,192,31535,1,0,0:0:0:0:
320,192,31643,1,0,0:0:0:0:
192,192,31752,1,0,0:0:0:0:
320,192,31860,1,0,0:0:0:0:
64,192,31860,1,0,0:0:0:0:
448,192,31968,1,0,0:0:0:0:
320,192,32076,1,0,0:0:0:0:
64,192,32184,1,0,0:0:0:0:
192,192,32184,1,0,0:0:0:0:
320,192,32292,1,0,0:0:0:0:
448,192,32400,1,0,0:0:0:0:
64,192,32508,1,0,0:0:0:0:
192,192,32508,1,0,0:0:0:0:
320,192,32616,1,0,0:0:0:0:
64,192,32724,1,0,0:0:0:0:
192,192,32833,1,0,0:0:0:0:
448,192,32833,1,0,0:0:0:0:
320,192,32941,1,0,0:0:0:0:
192,192,33049,1,0,0:0:0:0:
448,192,33157,1,0,0:0:0:0:
320,192,33157,1,0,0:0:0:0:
192,192,33265,5,0,0:0:0:0:
64,192,33265,1,0,0:0:0:0:
320,192,33373,1,0,0:0:0:0:
448,192,33373,1,0,0:0:0:0:
192,192,33481,1,0,0:0:0:0:
64,192,33481,1,0,0:0:0:0:
448,192,33589,1,0,0:0:0:0:
320,192,33589,1,0,0:0:0:0:
192,192,33697,1,0,0:0:0:0:
64,192,33806,1,0,0:0:0:0:
448,192,33806,1,0,0:0:0:0:
192,192,33914,1,0,0:0:0:0:
320,192,33914,1,0,0:0:0:0:
64,192,34022,1,0,0:0:0:0:
448,192,34022,1,0,0:0:0:0:
320,192,34130,1,0,0:0:0:0:
192,192,34130,1,0,0:0:0:0:
64,192,34238,1,0,0:0:0:0:
448,192,34238,1,0,0:0:0:0:
192,192,34346,1,0,0:0:0:0:
320,192,34454,5,0,0:0:0:0:
448,192,34454,1,0,0:0:0:0:
64,192,34454,1,0,0:0:0:0:
192,192,34562,1,0,0:0:0:0:
320,192,34670,1,0,0:0:0:0:
448,192,34779,1,0,0:0:0:0:
192,192,35103,1,0,0:0:0:0:
320,192,35103,1,0,0:0:0:0:
64,192,35427,1,0,0:0:0:0:
192,192,35535,1,0,0:0:0:0:
320,192,35643,1,0,0:0:0:0:
448,192,35752,1,0,0:0:0:0:
192,192,35752,1,0,0:0:0:0:
64,192,35860,1,0,0:0:0:0:
192,192,35968,1,0,0:0:0:0:
320,192,36076,1,0,0:0:0:0:
448,192,36184,1,0,0:0:0:0:
320,192,36292,1,0,0:0:0:0:
192,192,36400,1,0,0:0:0:0:
64,192,36400,1,0,0:0:0:0:
320,192,36508,1,0,0:0:0:0:
448,192,36616,1,0,0:0:0:0:
320,192,36724,1,0,0:0:0:0:
192,192,36833,1,0,0:0:0:0:
320,192,36941,1,0,0:0:0:0:
192,192,37049,1,0,0:0:0:0:
448,192,37049,1,0,0:0:0:0:
320,192,37157,1,0,0:0:0:0:
192,192,37265,1,0,0:0:0:0:
64,192,37373,1,0,0:0:0:0:
448,192,37697,1,0,0:0:0:0:
320,192,37697,1,0,0:0:0:0:
448,192,38022,1,0,0:0:0:0:
320,192,38130,1,0,0:0:0:0:
192,192,38238,1,0,0:0:0:0:
64,192,38346,1,0,0:0:0:0:
448,192,38346,1,0,0:0:0:0:
320,192,38454,1,0,0:0:0:0:
192,192,38562,1,0,0:0:0:0:
64,192,38670,1,0,0:0:0:0:
320,192,38779,1,0,0:0:0:0:
192,192,38887,1,0,0:0:0:0:
320,192,38995,1,0,0:0:0:0:
64,192,38995,1,0,0:0:0:0:
448,192,39103,1,0,0:0:0:0:
64,192,39211,1,0,0:0:0:0:
192,192,39319,1,0,0:0:0:0:
320,192,39427,1,0,0:0:0:0:
448,192,39535,1,0,0:0:0:0:
320,192,39643,1,0,0:0:0:0:
64,192,39643,1,0,0:0:0:0:
192,192,39752,1,0,0:0:0:0:
448,192,39860,1,0,0:0:0:0:
320,192,39968,1,0,0:0:0:0:
192,192,40076,1,0,0:0:0:0:
64,192,40184,1,0,0:0:0:0:
192,192,40292,1,0,0:0:0:0:
448,192,40292,1,0,0:0:0:0:
320,192,40400,1,0,0:0:0:0:
448,192,40508,1,0,0:0:0:0:
192,192,40616,1,0,0:0:0:0:
320,192,40724,1,0,0:0:0:0:
192,192,40833,1,0,0:0:0:0:
64,192,40941,1,0,0:0:0:0:
448,192,40941,1,0,0:0:0:0:
320,192,41049,1,0,0:0:0:0:
448,192,41157,1,0,0:0:0:0:
192,192,41265,1,0,0:0:0:0:
64,192,41373,1,0,0:0:0:0:
192,192,41481,1,0,0:0:0:0:
64,192,41589,1,0,0:0:0:0:
448,192,41589,1,0,0:0:0:0:
192,192,41697,1,0,0:0:0:0:
320,192,41806,1,0,0:0:0:0:
448,192,41914,1,0,0:0:0:0:
320,192,42022,1,0,0:0:0:0:
192,192,42130,1,0,0:0:0:0:
448,192,42238,1,0,0:0:0:0:
64,192,42238,1,0,0:0:0:0:
320,192,42347,1,0,0:0:0:0:
192,192,42455,1,0,0:0:0:0:
64,192,42562,1,0,0:0:0:0:
192,192,42671,1,0,0:0:0:0:
448,192,42779,1,0,0:0:0:0:
320,192,42887,1,0,0:0:0:0:
64,192,42887,1,0,0:0:0:0:
192,192,42995,1,0,0:0:0:0:
320,192,43103,1,0,0:0:0:0:
192,192,43211,1,0,0:0:0:0:
448,192,43319,1,0,0:0:0:0:
320,192,43427,1,0,0:0:0:0:
448,192,43535,1,0,0:0:0:0:
64,192,43535,1,0,0:0:0:0:
192,192,43644,1,0,0:0:0:0:
320,192,43752,1,0,0:0:0:0:
192,192,43860,1,0,0:0:0:0:
64,192,43968,1,0,0:0:0:0:
320,192,44076,1,0,0:0:0:0:
448,192,44184,1,0,0:0:0:0:
64,192,44184,1,0,0:0:0:0:
192,192,44292,1,0,0:0:0:0:
320,192,44400,1,0,0:0:0:0:
448,192,44509,1,0,0:0:0:0:
192,192,44616,1,0,0:0:0:0:
64,192,44724,1,0,0:0:0:0:
448,192,44833,1,0,0:0:0:0:
192,192,44833,1,0,0:0:0:0:
320,192,44941,1,0,0:0:0:0:
192,192,45049,1,0,0:0:0:0:
448,192,45158,1,0,0:0:0:0:
192,192,45481,1,0,0:0:0:0:
64,192,45481,1,0,0:0:0:0:
320,192,45806,1,0,0:0:0:0:
448,192,45914,1,0,0:0:0:0:
192,192,46022,1,0,0:0:0:0:
64,192,46130,1,0,0:0:0:0:
448,192,46131,1,0,0:0:0:0:
320,192,46238,1,0,0:0:0:0:
192,192,46347,1,0,0:0:0:0:
448,192,46455,1,0,0:0:0:0:
64,192,46563,1,0,0:0:0:0:
192,192,46671,1,0,0:0:0:0:
448,192,46779,1,0,0:0:0:0:
64,192,46779,1,0,0:0:0:0:
320,192,46887,1,0,0:0:0:0:
64,192,46995,1,0,0:0:0:0:
192,192,47103,1,0,0:0:0:0:
320,192,47211,1,0,0:0:0:0:
192,192,47320,1,0,0:0:0:0:
64,192,47427,1,0,0:0:0:0:
448,192,47427,1,0,0:0:0:0:
320,192,47535,1,0,0:0:0:0:
192,192,47643,1,0,0:0:0:0:
64,192,47752,1,0,0:0:0:0:
192,192,48076,1,0,0:0:0:0:
448,192,48076,1,0,0:0:0:0:
448,192,48400,1,0,0:0:0:0:
320,192,48508,1,0,0:0:0:0:
192,192,48616,1,0,0:0:0:0:
64,192,48724,1,0,0:0:0:0:
448,192,48724,1,0,0:0:0:0:
320,192,48833,1,0,0:0:0:0:
192,192,48940,1,0,0:0:0:0:
64,192,49049,1,0,0:0:0:0:
320,192,49157,1,0,0:0:0:0:
192,192,49265,1,0,0:0:0:0:
320,192,49373,1,0,0:0:0:0:
64,192,49373,1,0,0:0:0:0:
448,192,49481,1,0,0:0:0:0:
320,192,49589,1,0,0:0:0:0:
192,192,49697,1,0,0:0:0:0:
64,192,49805,1,0,0:0:0:0:
192,192,49913,1,0,0:0:0:0:
448,192,50022,1,0,0:0:0:0:
320,192,50022,1,0,0:0:0:0:
64,192,50130,1,0,0:0:0:0:
192,192,50239,1,0,0:0:0:0:
320,192,50347,1,0,0:0:0:0:
448,192,50454,1,0,0:0:0:0:
192,192,50562,1,0,0:0:0:0:
448,192,50670,1,0,0:0:0:0:
64,192,50670,1,0,0:0:0:0:
320,192,50779,1,0,0:0:0:0:
448,192,50887,1,0,0:0:0:0:
192,192,50995,1,0,0:0:0:0:
64,192,51103,1,0,0:0:0:0:
320,192,51211,1,0,0:0:0:0:
448,192,51319,1,0,0:0:0:0:
64,192,51319,1,0,0:0:0:0:
192,192,51428,1,0,0:0:0:0:
320,192,51535,1,0,0:0:0:0:
448,192,51643,1,0,0:0:0:0:
64,192,51752,1,0,0:0:0:0:
192,192,51860,1,0,0:0:0:0:
64,192,51968,1,0,0:0:0:0:
448,192,51968,1,0,0:0:0:0:
192,192,52076,1,0,0:0:0:0:
320,192,52184,1,0,0:0:0:0:
448,192,52293,1,0,0:0:0:0:
192,192,52400,1,0,0:0:0:0:
64,192,52508,1,0,0:0:0:0:
448,192,52616,1,0,0:0:0:0:
192,192,52616,1,0,0:0:0:0:
320,192,52725,1,0,0:0:0:0:
192,192,52833,1,0,0:0:0:0:
64,192,52941,1,0,0:0:0:0:
448,192,53049,1,0,0:0:0:0:
320,192,53157,1,0,0:0:0:0:
64,192,53265,1,0,0:0:0:0:
448,192,53265,1,0,0:0:0:0:
192,192,53373,1,0,0:0:0:0:
320,192,53481,1,0,0:0:0:0:
448,192,53589,1,0,0:0:0:0:
64,192,53697,1,0,0:0:0:0:
192,192,53806,1,0,0:0:0:0:
448,192,53914,1,0,0:0:0:0:
192,192,54022,1,0,0:0:0:0:
320,192,54130,1,0,0:0:0:0:
64,192,54238,1,0,0:0:0:0:
320,192,54346,1,0,0:0:0:0:
192,192,54454,1,0,0:0:0:0:
320,192,54562,1,0,0:0:0:0:
192,192,54670,1,0,0:0:0:0:
64,192,54779,1,0,0:0:0:0:
448,192,54887,1,0,0:0:0:0:
192,192,54995,1,0,0:0:0:0:
320,192,55103,1,0,0:0:0:0:
448,192,55211,1,0,0:0:0:0:
64,192,55211,128,0,56508:0:0:0:0:
320,192,55427,128,0,55535:0:0:0:0:
192,192,55427,1,0,0:0:0:0:
192,192,55860,1,0,0:0:0:0:
448,192,55860,1,0,0:0:0:0:
448,192,56184,128,0,56292:0:0:0:0:
320,192,56184,1,0,0:0:0:0:
192,192,56389,1,0,0:0:0:0:
320,192,56400,128,0,56508:0:0:0:0:
448,192,56616,1,0,0:0:0:0:
64,192,56724,1,0,0:0:0:0:
448,192,56833,1,0,0:0:0:0:
320,192,57049,128,0,57157:0:0:0:0:
192,192,57481,128,0,57589:0:0:0:0:
320,192,57697,128,0,57806:0:0:0:0:
64,192,57806,1,0,0:0:0:0:
320,192,58022,128,0,58130:0:0:0:0:
448,192,58130,1,0,0:0:0:0:
64,192,58130,1,0,0:0:0:0:
192,192,58454,1,0,0:0:0:0:
320,192,58454,128,0,58562:0:0:0:0:
64,192,58779,128,0,58887:0:0:0:0:
320,192,58995,128,0,59103:0:0:0:0:
448,192,59103,1,0,0:0:0:0:
64,192,59103,1,0,0:0:0:0:
192,192,59319,128,0,59427:0:0:0:0:
448,192,59427,5,0,0:0:0:0:
320,192,59643,128,0,59752:0:0:0:0:
448,192,59752,128,0,59860:0:0:0:0:
192,192,59968,1,0,0:0:0:0:
320,192,59968,1,0,0:0:0:0:
64,192,60076,128,0,60184:0:0:0:0:
320,192,60292,1,0,0:0:0:0:
192,192,60292,1,0,0:0:0:0:
448,192,60400,5,0,0:0:0:0:
64,192,60400,1,0,0:0:0:0:
192,192,60508,1,0,0:0:0:0:
320,192,60616,1,0,0:0:0:0:
192,192,60724,1,0,0:0:0:0:
448,192,60724,1,0,0:0:0:0:
64,192,60833,1,0,0:0:0:0:
320,192,60941,1,0,0:0:0:0:
64,192,61049,1,0,0:0:0:0:
448,192,61049,1,0,0:0:0:0:
192,192,61157,1,0,0:0:0:0:
320,192,61265,1,0,0:0:0:0:
448,192,61373,1,0,0:0:0:0:
192,192,61373,1,0,0:0:0:0:
64,192,61481,1,0,0:0:0:0:
320,192,61589,1,0,0:0:0:0:
192,192,61697,1,0,0:0:0:0:
448,192,61697,1,0,0:0:0:0:
320,192,61806,1,0,0:0:0:0:
64,192,61806,1,0,0:0:0:0:
192,192,61914,1,0,0:0:0:0:
448,192,61914,1,0,0:0:0:0:
320,192,62022,1,0,0:0:0:0:
64,192,62022,1,0,0:0:0:0:
192,192,62130,1,0,0:0:0:0:
64,192,62238,1,0,0:0:0:0:
448,192,62346,1,0,0:0:0:0:
192,192,62346,1,0,0:0:0:0:
320,192,62454,1,0,0:0:0:0:
192,192,62562,1,0,0:0:0:0:
64,192,62670,1,0,0:0:0:0:
448,192,62670,1,0,0:0:0:0:
320,192,62779,1,0,0:0:0:0:
192,192,62887,1,0,0:0:0:0:
448,192,62995,1,0,0:0:0:0:
64,192,62995,1,0,0:0:0:0:
320,192,63103,1,0,0:0:0:0:
192,192,63211,1,0,0:0:0:0:
448,192,63319,1,0,0:0:0:0:
64,192,63319,1,0,0:0:0:0:
320,192,63427,1,0,0:0:0:0:
192,192,63535,1,0,0:0:0:0:
64,192,63643,1,0,0:0:0:0:
448,192,63643,1,0,0:0:0:0:
192,192,63751,1,0,0:0:0:0:
320,192,63860,1,0,0:0:0:0:
64,192,63968,1,0,0:0:0:0:
448,192,63968,1,0,0:0:0:0:
192,192,64076,1,0,0:0:0:0:
320,192,64184,1,0,0:0:0:0:
64,192,64292,1,0,0:0:0:0:
192,192,64292,1,0,0:0:0:0:
448,192,64400,1,0,0:0:0:0:
320,192,64400,1,0,0:0:0:0:
64,192,64508,1,0,0:0:0:0:
192,192,64508,1,0,0:0:0:0:
448,192,64616,1,0,0:0:0:0:
320,192,64616,1,0,0:0:0:0:
64,192,64724,1,0,0:0:0:0:
192,192,64724,1,0,0:0:0:0:
448,192,64833,1,0,0:0:0:0:
320,192,64833,1,0,0:0:0:0:
192,192,64941,1,0,0:0:0:0:
64,192,64941,1,0,0:0:0:0:
320,192,65049,1,0,0:0:0:0:
448,192,65049,1,0,0:0:0:0:
192,192,65157,1,0,0:0:0:0:
64,192,65157,1,0,0:0:0:0:
320,192,65265,1,0,0:0:0:0:
448,192,65265,1,0,0:0:0:0:
192,192,65373,1,0,0:0:0:0:
64,192,65373,1,0,0:0:0:0:
320,192,65481,1,0,0:0:0:0:
448,192,65481,1,0,0:0:0:0:
64,192,65589,1,0,0:0:0:0:
192,192,65589,1,0,0:0:0:0:
320,192,65697,5,0,0:0:0:0:
192,192,65806,1,0,0:0:0:0:
64,192,65914,1,0,0:0:0:0:
192,192,66022,1,0,0:0:0:0:
320,192,66130,1,0,0:0:0:0:
448,192,66238,1,0,0:0:0:0:
64,192,66346,1,0,0:0:0:0:
192,192,66454,1,0,0:0:0:0:
448,192,66562,1,0,0:0:0:0:
320,192,66670,1,0,0:0:0:0:
192,192,66779,1,0,0:0:0:0:
64,192,66887,5,0,0:0:0:0:
448,192,66887,1,0,0:0:0:0:
192,192,66995,1,0,0:0:0:0:
448,192,67103,1,0,0:0:0:0:
320,192,67211,1,0,0:0:0:0:
192,192,67211,1,0,0:0:0:0:
448,192,67319,1,0,0:0:0:0:
192,192,67427,1,0,0:0:0:0:
64,192,67535,1,0,0:0:0:0:
320,192,67535,1,0,0:0:0:0:
192,192,67643,1,0,0:0:0:0:
448,192,67752,1,0,0:0:0:0:
64,192,67860,1,0,0:0:0:0:
192,192,67860,1,0,0:0:0:0:
320,192,67968,1,0,0:0:0:0:
64,192,68076,1,0,0:0:0:0:
320,192,68184,1,0,0:0:0:0:
448,192,68184,1,0,0:0:0:0:
192,192,68292,1,0,0:0:0:0:
320,192,68400,1,0,0:0:0:0:
448,192,68508,1,0,0:0:0:0:
192,192,68508,1,0,0:0:0:0:
320,192,68616,1,0,0:0:0:0:
192,192,68724,1,0,0:0:0:0:
64,192,68833,1,0,0:0:0:0:
448,192,68833,1,0,0:0:0:0:
192,192,68941,1,0,0:0:0:0:
64,192,69049,1,0,0:0:0:0:
448,192,69049,1,0,0:0:0:0:
320,192,69157,1,0,0:0:0:0:
64,192,69265,1,0,0:0:0:0:
192,192,69265,1,0,0:0:0:0:
448,192,69373,1,0,0:0:0:0:
320,192,69481,1,0,0:0:0:0:
192,192,69481,1,0,0:0:0:0:
64,192,69589,1,0,0:0:0:0:
192,192,69697,1,0,0:0:0:0:
320,192,69806,1,0,0:0:0:0:
64,192,69806,1,0,0:0:0:0:
448,192,69914,1,0,0:0:0:0:
192,192,70022,1,0,0:0:0:0:
64,192,70130,1,0,0:0:0:0:
448,192,70130,1,0,0:0:0:0:
320,192,70238,1,0,0:0:0:0:
448,192,70346,1,0,0:0:0:0:
192,192,70454,1,0,0:0:0:0:
64,192,70454,1,0,0:0:0:0:
320,192,70562,1,0,0:0:0:0:
64,192,70670,1,0,0:0:0:0:
192,192,70779,1,0,0:0:0:0:
448,192,70779,1,0,0:0:0:0:
320,192,70887,1,0,0:0:0:0:
64,192,70995,1,0,0:0:0:0:
320,192,71103,1,0,0:0:0:0:
192,192,71103,1,0,0:0:0:0:
448,192,71211,1,0,0:0:0:0:
192,192,71319,1,0,0:0:0:0:
448,192,71427,1,0,0:0:0:0:
320,192,71427,1,0,0:0:0:0:
192,192,71535,1,0,0:0:0:0:
64,192,71643,1,0,0:0:0:0:
320,192,71643,1,0,0:0:0:0:
448,192,71752,1,0,0:0:0:0:
192,192,71860,1,0,0:0:0:0:
320,192,71860,1,0,0:0:0:0:
64,192,71968,1,0,0:0:0:0:
448,192,72076,1,0,0:0:0:0:
320,192,72076,1,0,0:0:0:0:
192,192,72184,1,0,0:0:0:0:
320,192,72292,1,0,0:0:0:0:
192,192,72400,1,0,0:0:0:0:
448,192,72400,1,0,0:0:0:0:
64,192,72508,1,0,0:0:0:0:
192,192,72616,1,0,0:0:0:0:
320,192,72724,1,0,0:0:0:0:
448,192,72724,1,0,0:0:0:0:
64,192,72833,1,0,0:0:0:0:
192,192,72941,1,0,0:0:0:0:
64,192,73049,1,0,0:0:0:0:
320,192,73049,1,0,0:0:0:0:
448,192,73157,1,0,0:0:0:0:
192,192,73265,1,0,0:0:0:0:
448,192,73373,1,0,0:0:0:0:
64,192,73373,1,0,0:0:0:0:
320,192,73481,1,0,0:0:0:0:
64,192,73589,1,0,0:0:0:0:
192,192,73697,1,0,0:0:0:0:
448,192,73697,1,0,0:0:0:0:
320,192,73806,1,0,0:0:0:0:
448,192,73914,1,0,0:0:0:0:
64,192,74022,1,0,0:0:0:0:
320,192,74022,1,0,0:0:0:0:
192,192,74130,1,0,0:0:0:0:
320,192,74238,1,0,0:0:0:0:
64,192,74346,1,0,0:0:0:0:
448,192,74346,1,0,0:0:0:0:
320,192,74454,1,0,0:0:0:0:
192,192,74562,1,0,0:0:0:0:
320,192,74670,1,0,0:0:0:0:
64,192,74670,1,0,0:0:0:0:
448,192,74779,1,0,0:0:0:0:
320,192,74887,1,0,0:0:0:0:
192,192,74995,1,0,0:0:0:0:
64,192,74995,1,0,0:0:0:0:
320,192,75103,1,0,0:0:0:0:
448,192,75211,1,0,0:0:0:0:
192,192,75319,1,0,0:0:0:0:
64,192,75319,1,0,0:0:0:0:
320,192,75427,1,0,0:0:0:0:
64,192,75535,1,0,0:0:0:0:
448,192,75643,1,0,0:0:0:0:
192,192,75643,1,0,0:0:0:0:
320,192,75752,1,0,0:0:0:0:
192,192,75860,1,0,0:0:0:0:
448,192,75968,1,0,0:0:0:0:
64,192,75968,1,0,0:0:0:0:
192,192,76076,1,0,0:0:0:0:
320,192,76076,1,0,0:0:0:0:
448,192,76184,1,0,0:0:0:0:
64,192,76184,1,0,0:0:0:0:
192,192,76292,1,0,0:0:0:0:
320,192,76292,1,0,0:0:0:0:
448,192,76616,1,0,0:0:0:0:
64,192,76616,1,0,0:0:0:0:
192,192,76941,1,0,0:0:0:0:
320,192,76941,1,0,0:0:0:0:
64,192,77265,1,0,0:0:0:0:
192,192,77265,1,0,0:0:0:0:
320,192,77373,1,0,0:0:0:0:
64,192,77481,1,0,0:0:0:0:
192,192,77589,1,0,0:0:0:0:
320,192,77589,1,0,0:0:0:0:
64,192,77697,1,0,0:0:0:0:
320,192,77806,1,0,0:0:0:0:
192,192,77914,1,0,0:0:0:0:
448,192,77914,1,0,0:0:0:0:
320,192,78022,1,0,0:0:0:0:
64,192,78130,1,0,0:0:0:0:
448,192,78238,1,0,0:0:0:0:
320,192,78238,1,0,0:0:0:0:
192,192,78346,1,0,0:0:0:0:
448,192,78454,1,0,0:0:0:0:
64,192,78562,1,0,0:0:0:0:
192,192,78562,1,0,0:0:0:0:
320,192,78670,1,0,0:0:0:0:
192,192,78779,1,0,0:0:0:0:
320,192,78887,1,0,0:0:0:0:
64,192,78887,1,0,0:0:0:0:
192,192,78995,1,0,0:0:0:0:
320,192,79103,1,0,0:0:0:0:
64,192,79211,1,0,0:0:0:0:
448,192,79211,1,0,0:0:0:0:
320,192,79319,1,0,0:0:0:0:
64,192,79427,1,0,0:0:0:0:
448,192,79427,1,0,0:0:0:0:
192,192,79535,1,0,0:0:0:0:
448,192,79643,1,0,0:0:0:0:
320,192,79643,1,0,0:0:0:0:
64,192,79752,1,0,0:0:0:0:
192,192,79860,1,0,0:0:0:0:
320,192,79860,1,0,0:0:0:0:
448,192,79968,1,0,0:0:0:0:
320,192,80076,1,0,0:0:0:0:
448,192,80184,1,0,0:0:0:0:
192,192,80184,1,0,0:0:0:0:
64,192,80292,1,0,0:0:0:0:
320,192,80400,1,0,0:0:0:0:
64,192,80508,1,0,0:0:0:0:
448,192,80508,1,0,0:0:0:0:
192,192,80616,1,0,0:0:0:0:
64,192,80724,1,0,0:0:0:0:
448,192,80833,1,0,0:0:0:0:
320,192,80833,1,0,0:0:0:0:
192,192,80941,1,0,0:0:0:0:
448,192,81049,1,0,0:0:0:0:
64,192,81157,1,0,0:0:0:0:
320,192,81157,1,0,0:0:0:0:
192,192,81265,1,0,0:0:0:0:
448,192,81373,1,0,0:0:0:0:
192,192,81481,1,0,0:0:0:0:
320,192,81481,1,0,0:0:0:0:
64,192,81589,1,0,0:0:0:0:
320,192,81697,1,0,0:0:0:0:
64,192,81806,1,0,0:0:0:0:
192,192,81806,1,0,0:0:0:0:
320,192,81914,1,0,0:0:0:0:
448,192,82022,1,0,0:0:0:0:
192,192,82022,1,0,0:0:0:0:
64,192,82130,1,0,0:0:0:0:
320,192,82238,1,0,0:0:0:0:
192,192,82238,1,0,0:0:0:0:
448,192,82346,1,0,0:0:0:0:
64,192,82454,1,0,0:0:0:0:
192,192,82454,1,0,0:0:0:0:
320,192,82562,1,0,0:0:0:0:
192,192,82670,1,0,0:0:0:0:
320,192,82779,1,0,0:0:0:0:
64,192,82779,1,0,0:0:0:0:
448,192,82887,1,0,0:0:0:0:
320,192,82995,1,0,0:0:0:0:
192,192,83103,1,0,0:0:0:0:
64,192,83103,1,0,0:0:0:0:
448,192,83211,1,0,0:0:0:0:
320,192,83319,1,0,0:0:0:0:
448,192,83427,1,0,0:0:0:0:
192,192,83427,1,0,0:0:0:0:
64,192,83535,1,0,0:0:0:0:
320,192,83643,1,0,0:0:0:0:
64,192,83752,1,0,0:0:0:0:
448,192,83752,1,0,0:0:0:0:
192,192,83860,1,0,0:0:0:0:
448,192,83968,1,0,0:0:0:0:
64,192,84076,1,0,0:0:0:0:
320,192,84076,1,0,0:0:0:0:
192,192,84184,1,0,0:0:0:0:
64,192,84292,1,0,0:0:0:0:
448,192,84400,1,0,0:0:0:0:
192,192,84400,1,0,0:0:0:0:
320,192,84508,1,0,0:0:0:0:
192,192,84616,1,0,0:0:0:0:
64,192,84724,1,0,0:0:0:0:
448,192,84724,1,0,0:0:0:0:
192,192,84833,1,0,0:0:0:0:
320,192,84941,1,0,0:0:0:0:
192,192,85049,1,0,0:0:0:0:
448,192,85049,1,0,0:0:0:0:
64,192,85157,1,0,0:0:0:0:
192,192,85265,1,0,0:0:0:0:
448,192,85373,1,0,0:0:0:0:
320,192,85373,1,0,0:0:0:0:
192,192,85481,1,0,0:0:0:0:
64,192,85589,1,0,0:0:0:0:
320,192,85697,1,0,0:0:0:0:
448,192,85697,1,0,0:0:0:0:
192,192,85806,1,0,0:0:0:0:
448,192,85914,1,0,0:0:0:0:
320,192,86022,1,0,0:0:0:0:
64,192,86022,1,0,0:0:0:0:
192,192,86130,1,0,0:0:0:0:
320,192,86238,1,0,0:0:0:0:
64,192,86346,1,0,0:0:0:0:
192,192,86346,1,0,0:0:0:0:
320,192,86454,5,0,0:0:0:0:
448,192,86454,1,0,0:0:0:0:
192,192,86562,1,0,0:0:0:0:
64,192,86562,1,0,0:0:0:0:
320,192,86670,1,0,0:0:0:0:
448,192,86670,1,0,0:0:0:0:
192,192,86779,1,0,0:0:0:0:
64,192,86779,1,0,0:0:0:0:
320,192,86887,1,0,0:0:0:0:
64,192,86995,1,0,0:0:0:0:
448,192,86995,1,0,0:0:0:0:
320,192,87103,1,0,0:0:0:0:
192,192,87103,1,0,0:0:0:0:
64,192,87211,1,0,0:0:0:0:
448,192,87211,1,0,0:0:0:0:
192,192,87319,1,0,0:0:0:0:
320,192,87319,1,0,0:0:0:0:
64,192,87427,1,0,0:0:0:0:
448,192,87427,1,0,0:0:0:0:
320,192,87535,1,0,0:0:0:0:
448,192,87643,128,0,88941:0:0:0:0:
320,192,87643,128,0,88941:0:0:0:0:
64,192,88941,128,0,91535:0:0:0:0:
192,192,88941,128,0,91535:0:0:0:0:
