osu file format v14

[General]
AudioFilename: LilyScarlet_Rose.mp3
AudioLeadIn: 0
PreviewTime: 151125
Countdown: 0
SampleSet: Soft
StackLeniency: 0.7
Mode: 3
LetterboxInBreaks: 1
SpecialStyle: 0
WidescreenStoryboard: 1

[Editor]
DistanceSpacing: 1
BeatDivisor: 4
GridSize: 4
TimelineZoom: 1.6

[Metadata]
Title:4key & 7key Fantasy Last. Vol.
TitleUnicode:4key & 7key Fantasy Last. Vol.
Artist:Final Mania Dimension
ArtistUnicode:Final Mania Dimension
Creator:Un-known
Version:Lily - Scarlet Rose [4key Maximum]
Source:
Tags:
BeatmapID:675015
BeatmapSetID:298447

[Difficulty]
HPDrainRate:8
CircleSize:4
OverallDifficulty:8
ApproachRate:9
SliderMultiplier:1.4
SliderTickRate:1

[Events]
//Background and Video events
0,0,"6.jpg",0,0
//Break Periods
2,51762,66150
//Storyboard Layer 0 (Background)
//Storyboard Layer 1 (Fail)
//Storyboard Layer 2 (Pass)
//Storyboard Layer 3 (Foreground)
//Storyboard Sound Samples

[TimingPoints]
0,375,4,2,0,30,1,0
6750,375,4,2,0,30,1,0
18750,-100,4,2,0,30,0,1
30750,-100,4,2,0,30,0,0
66750,-100,4,2,0,30,0,1
78375,-100,4,2,0,30,0,0
78750,-100,4,2,0,30,0,1
90750,-100,4,2,0,30,0,0
127125,375,4,2,0,100,1,0
127125,-125,4,2,0,30,0,1
138750,-125,4,2,0,30,0,0
139125,-111.111111111111,4,2,0,30,0,1
150750,-111.111111111111,4,2,0,30,0,0
151125,-100,4,2,0,30,0,1
162750,-100,4,2,0,30,0,0
163125,-83.3333333333333,4,2,0,30,0,1
175125,-100,4,2,0,30,0,0

[HitObjects]
64,192,0,5,0,0:0:0:0:
320,192,0,1,0,0:0:0:0:
448,192,0,1,0,0:0:0:0:
448,192,1500,1,0,0:0:0:0:
320,192,1500,1,0,0:0:0:0:
192,192,1875,1,0,0:0:0:0:
64,192,1875,1,0,0:0:0:0:
448,192,2062,1,0,0:0:0:0:
320,192,2156,1,0,0:0:0:0:
64,192,2250,1,0,0:0:0:0:
192,192,2250,1,0,0:0:0:0:
448,192,2250,1,0,0:0:0:0:
320,192,3750,1,0,0:0:0:0:
192,192,3750,1,0,0:0:0:0:
64,192,4125,1,0,0:0:0:0:
448,192,4125,1,0,0:0:0:0:
192,192,4312,1,0,0:0:0:0:
320,192,4406,1,0,0:0:0:0:
192,192,4500,1,0,0:0:0:0:
64,192,4500,1,0,0:0:0:0:
448,192,4500,1,0,0:0:0:0:
320,192,4875,1,0,0:0:0:0:
448,192,4875,1,0,0:0:0:0:
64,192,5062,1,0,0:0:0:0:
192,192,5156,1,0,0:0:0:0:
320,192,5250,1,0,0:0:0:0:
448,192,5250,1,0,0:0:0:0:
64,192,5250,1,0,0:0:0:0:
448,192,5437,1,0,0:0:0:0:
320,192,5531,1,0,0:0:0:0:
192,192,5625,1,0,0:0:0:0:
64,192,5625,1,0,0:0:0:0:
448,192,5625,1,0,0:0:0:0:
192,192,5812,1,0,0:0:0:0:
320,192,5906,1,0,0:0:0:0:
448,192,6000,1,0,0:0:0:0:
192,192,6000,1,0,0:0:0:0:
64,192,6000,1,0,0:0:0:0:
320,192,6187,1,0,0:0:0:0:
192,192,6281,1,0,0:0:0:0:
64,192,6375,1,0,0:0:0:0:
320,192,6375,1,0,0:0:0:0:
448,192,6375,1,0,0:0:0:0:
448,192,6562,1,0,0:0:0:0:
320,192,6656,1,0,0:0:0:0:
192,192,6750,1,0,0:0:0:0:
64,192,6750,1,0,0:0:0:0:
448,192,6750,1,0,0:0:0:0:
320,192,6843,1,0,0:0:0:0:
192,192,6937,1,0,0:0:0:0:
320,192,7031,1,0,0:0:0:0:
192,192,7125,1,0,0:0:0:0:
448,192,7125,1,0,0:0:0:0:
64,192,7218,1,0,0:0:0:0:
320,192,7312,1,0,0:0:0:0:
192,192,7406,1,0,0:0:0:0:
320,192,7500,1,0,0:0:0:0:
448,192,7500,1,0,0:0:0:0:
64,192,7593,1,0,0:0:0:0:
192,192,7593,1,0,0:0:0:0:
320,192,7687,1,0,0:0:0:0:
192,192,7781,1,0,0:0:0:0:
64,192,7875,1,0,0:0:0:0:
320,192,7875,1,0,0:0:0:0:
448,192,7875,1,0,0:0:0:0:
192,192,7968,1,0,0:0:0:0:
448,192,8062,1,0,0:0:0:0:
320,192,8156,1,0,0:0:0:0:
192,192,8250,1,0,0:0:0:0:
448,192,8250,1,0,0:0:0:0:
64,192,8343,1,0,0:0:0:0:
192,192,8437,1,0,0:0:0:0:
320,192,8531,1,0,0:0:0:0:
448,192,8625,1,0,0:0:0:0:
192,192,8625,1,0,0:0:0:0:
64,192,8625,1,0,0:0:0:0:
320,192,8718,1,0,0:0:0:0:
448,192,8812,1,0,0:0:0:0:
320,192,8906,1,0,0:0:0:0:
64,192,9000,1,0,0:0:0:0:
192,192,9000,1,0,0:0:0:0:
320,192,9093,1,0,0:0:0:0:
448,192,9093,1,0,0:0:0:0:
64,192,9187,1,0,0:0:0:0:
192,192,9187,1,0,0:0:0:0:
320,192,9281,1,0,0:0:0:0:
64,192,9375,1,0,0:0:0:0:
192,192,9375,1,0,0:0:0:0:
448,192,9375,1,0,0:0:0:0:
320,192,9468,1,0,0:0:0:0:
192,192,9562,1,0,0:0:0:0:
448,192,9656,1,0,0:0:0:0:
320,192,9750,1,0,0:0:0:0:
64,192,9750,1,0,0:0:0:0:
192,192,9843,1,0,0:0:0:0:
320,192,9937,1,0,0:0:0:0:
192,192,10031,1,0,0:0:0:0:
320,192,10125,1,0,0:0:0:0:
448,192,10125,1,0,0:0:0:0:
64,192,10218,1,0,0:0:0:0:
192,192,10312,1,0,0:0:0:0:
320,192,10406,1,0,0:0:0:0:
448,192,10500,1,0,0:0:0:0:
192,192,10500,1,0,0:0:0:0:
320,192,10593,1,0,0:0:0:0:
64,192,10593,1,0,0:0:0:0:
192,192,10687,1,0,0:0:0:0:
320,192,10781,1,0,0:0:0:0:
192,192,10875,1,0,0:0:0:0:
64,192,10875,1,0,0:0:0:0:
448,192,10875,1,0,0:0:0:0:
320,192,10968,1,0,0:0:0:0:
448,192,11062,1,0,0:0:0:0:
192,192,11156,1,0,0:0:0:0:
320,192,11250,1,0,0:0:0:0:
64,192,11250,1,0,0:0:0:0:
192,192,11343,1,0,0:0:0:0:
448,192,11437,1,0,0:0:0:0:
320,192,11531,1,0,0:0:0:0:
64,192,11625,1,0,0:0:0:0:
448,192,11625,1,0,0:0:0:0:
192,192,11625,1,0,0:0:0:0:
320,192,11718,1,0,0:0:0:0:
64,192,11812,1,0,0:0:0:0:
192,192,11906,1,0,0:0:0:0:
448,192,12000,1,0,0:0:0:0:
64,192,12000,1,0,0:0:0:0:
320,192,12093,1,0,0:0:0:0:
192,192,12093,1,0,0:0:0:0:
448,192,12187,1,0,0:0:0:0:
64,192,12187,1,0,0:0:0:0:
320,192,12281,1,0,0:0:0:0:
448,192,12375,1,0,0:0:0:0:
192,192,12375,1,0,0:0:0:0:
64,192,12375,1,0,0:0:0:0:
320,192,12468,1,0,0:0:0:0:
192,192,12562,1,0,0:0:0:0:
64,192,12562,1,0,0:0:0:0:
320,192,12656,1,0,0:0:0:0:
448,192,12656,1,0,0:0:0:0:
64,192,12750,1,0,0:0:0:0:
192,192,12750,1,0,0:0:0:0:
320,192,12843,1,0,0:0:0:0:
192,192,12937,1,0,0:0:0:0:
64,192,13031,1,0,0:0:0:0:
192,192,13125,1,0,0:0:0:0:
448,192,13125,1,0,0:0:0:0:
320,192,13218,1,0,0:0:0:0:
192,192,13312,1,0,0:0:0:0:
64,192,13312,1,0,0:0:0:0:
448,192,13406,1,0,0:0:0:0:
320,192,13500,1,0,0:0:0:0:
192,192,13593,1,0,0:0:0:0:
320,192,13687,1,0,0:0:0:0:
64,192,13687,1,0,0:0:0:0:
448,192,13781,1,0,0:0:0:0:
192,192,13875,1,0,0:0:0:0:
320,192,13968,1,0,0:0:0:0:
64,192,14062,1,0,0:0:0:0:
192,192,14062,1,0,0:0:0:0:
448,192,14156,1,0,0:0:0:0:
320,192,14250,1,0,0:0:0:0:
64,192,14343,1,0,0:0:0:0:
320,192,14437,1,0,0:0:0:0:
448,192,14437,1,0,0:0:0:0:
192,192,14531,1,0,0:0:0:0:
64,192,14625,1,0,0:0:0:0:
320,192,14625,1,0,0:0:0:0:
448,192,14718,1,0,0:0:0:0:
320,192,14812,1,0,0:0:0:0:
64,192,14906,1,0,0:0:0:0:
192,192,15000,1,0,0:0:0:0:
64,192,15093,1,0,0:0:0:0:
320,192,15187,1,0,0:0:0:0:
448,192,15187,1,0,0:0:0:0:
192,192,15281,1,0,0:0:0:0:
64,192,15375,1,0,0:0:0:0:
320,192,15375,1,0,0:0:0:0:
192,192,15468,1,0,0:0:0:0:
64,192,15562,1,0,0:0:0:0:
320,192,15562,1,0,0:0:0:0:
192,192,15656,1,0,0:0:0:0:
448,192,15656,1,0,0:0:0:0:
320,192,15750,1,0,0:0:0:0:
64,192,15750,1,0,0:0:0:0:
192,192,15843,1,0,0:0:0:0:
64,192,15937,1,0,0:0:0:0:
448,192,15937,1,0,0:0:0:0:
320,192,16031,1,0,0:0:0:0:
192,192,16031,1,0,0:0:0:0:
64,192,16125,1,0,0:0:0:0:
448,192,16125,1,0,0:0:0:0:
192,192,16218,1,0,0:0:0:0:
320,192,16312,1,0,0:0:0:0:
192,192,16406,1,0,0:0:0:0:
448,192,16406,1,0,0:0:0:0:
64,192,16500,1,0,0:0:0:0:
320,192,16500,1,0,0:0:0:0:
192,192,16593,1,0,0:0:0:0:
320,192,16687,1,0,0:0:0:0:
448,192,16687,1,0,0:0:0:0:
192,192,16781,1,0,0:0:0:0:
320,192,16875,1,0,0:0:0:0:
64,192,16875,1,0,0:0:0:0:
448,192,16968,1,0,0:0:0:0:
64,192,17062,1,0,0:0:0:0:
192,192,17062,1,0,0:0:0:0:
448,192,17156,1,0,0:0:0:0:
320,192,17156,1,0,0:0:0:0:
64,192,17250,1,0,0:0:0:0:
192,192,17250,1,0,0:0:0:0:
320,192,17343,1,0,0:0:0:0:
448,192,17437,1,0,0:0:0:0:
64,192,17437,1,0,0:0:0:0:
192,192,17531,1,0,0:0:0:0:
64,192,17625,1,0,0:0:0:0:
448,192,17625,1,0,0:0:0:0:
320,192,17718,1,0,0:0:0:0:
448,192,17812,1,0,0:0:0:0:
320,192,17906,1,0,0:0:0:0:
64,192,18000,1,0,0:0:0:0:
192,192,18046,1,0,0:0:0:0:
320,192,18093,1,0,0:0:0:0:
448,192,18140,1,0,0:0:0:0:
64,192,18187,1,0,0:0:0:0:
192,192,18234,1,0,0:0:0:0:
320,192,18281,1,0,0:0:0:0:
448,192,18328,1,0,0:0:0:0:
64,192,18375,1,0,0:0:0:0:
192,192,18421,1,0,0:0:0:0:
320,192,18468,1,0,0:0:0:0:
448,192,18515,1,0,0:0:0:0:
64,192,18562,1,0,0:0:0:0:
192,192,18609,1,0,0:0:0:0:
320,192,18656,1,0,0:0:0:0:
448,192,18703,1,0,0:0:0:0:
64,192,18750,1,0,0:0:0:0:
192,192,18750,1,0,0:0:0:0:
320,192,18843,1,0,0:0:0:0:
448,192,18843,1,0,0:0:0:0:
64,192,18937,128,0,19125:0:0:0:0:
192,192,18937,128,0,19125:0:0:0:0:
320,192,19125,128,0,19312:0:0:0:0:
448,192,19125,128,0,19312:0:0:0:0:
192,192,19312,1,0,0:0:0:0:
64,192,19312,1,0,0:0:0:0:
320,192,19500,1,0,0:0:0:0:
448,192,19500,1,0,0:0:0:0:
320,192,19593,1,0,0:0:0:0:
192,192,19593,1,0,0:0:0:0:
64,192,19687,128,0,20062:0:0:0:0:
192,192,19687,128,0,20062:0:0:0:0:
320,192,20062,1,0,0:0:0:0:
448,192,20062,1,0,0:0:0:0:
192,192,20156,1,0,0:0:0:0:
64,192,20250,1,0,0:0:0:0:
448,192,20250,1,0,0:0:0:0:
320,192,20250,1,0,0:0:0:0:
320,192,20437,1,0,0:0:0:0:
192,192,20437,1,0,0:0:0:0:
448,192,20437,1,0,0:0:0:0:
64,192,20625,1,0,0:0:0:0:
192,192,20625,1,0,0:0:0:0:
448,192,20625,1,0,0:0:0:0:
192,192,20812,1,0,0:0:0:0:
320,192,20812,1,0,0:0:0:0:
448,192,20812,1,0,0:0:0:0:
64,192,20906,1,0,0:0:0:0:
192,192,21000,1,0,0:0:0:0:
448,192,21000,1,0,0:0:0:0:
320,192,21093,1,0,0:0:0:0:
64,192,21093,1,0,0:0:0:0:
192,192,21187,1,0,0:0:0:0:
320,192,21281,1,0,0:0:0:0:
192,192,21375,1,0,0:0:0:0:
64,192,21375,1,0,0:0:0:0:
448,192,21375,1,0,0:0:0:0:
320,192,21468,1,0,0:0:0:0:
448,192,21562,1,0,0:0:0:0:
192,192,21656,1,0,0:0:0:0:
64,192,21750,1,0,0:0:0:0:
320,192,21750,1,0,0:0:0:0:
192,192,21843,1,0,0:0:0:0:
448,192,21843,1,0,0:0:0:0:
64,192,21937,128,0,22125:0:0:0:0:
320,192,21937,128,0,22125:0:0:0:0:
192,192,22125,128,0,22312:0:0:0:0:
448,192,22125,128,0,22312:0:0:0:0:
320,192,22312,1,0,0:0:0:0:
64,192,22312,1,0,0:0:0:0:
64,192,22500,1,0,0:0:0:0:
192,192,22500,1,0,0:0:0:0:
320,192,22593,1,0,0:0:0:0:
448,192,22593,1,0,0:0:0:0:
64,192,22687,128,0,23062:0:0:0:0:
192,192,22687,128,0,23062:0:0:0:0:
320,192,23062,1,0,0:0:0:0:
192,192,23156,1,0,0:0:0:0:
64,192,23250,1,0,0:0:0:0:
320,192,23250,1,0,0:0:0:0:
448,192,23250,1,0,0:0:0:0:
64,192,23437,1,0,0:0:0:0:
192,192,23437,1,0,0:0:0:0:
448,192,23437,1,0,0:0:0:0:
192,192,23625,1,0,0:0:0:0:
320,192,23625,1,0,0:0:0:0:
448,192,23625,1,0,0:0:0:0:
320,192,23812,1,0,0:0:0:0:
192,192,23812,1,0,0:0:0:0:
64,192,23812,1,0,0:0:0:0:
192,192,24000,1,0,0:0:0:0:
320,192,24000,1,0,0:0:0:0:
64,192,24093,1,0,0:0:0:0:
448,192,24093,1,0,0:0:0:0:
192,192,24187,1,0,0:0:0:0:
320,192,24281,1,0,0:0:0:0:
448,192,24375,1,0,0:0:0:0:
64,192,24375,1,0,0:0:0:0:
192,192,24468,1,0,0:0:0:0:
64,192,24562,1,0,0:0:0:0:
320,192,24562,1,0,0:0:0:0:
192,192,24656,1,0,0:0:0:0:
448,192,24750,1,0,0:0:0:0:
320,192,24750,1,0,0:0:0:0:
192,192,24843,1,0,0:0:0:0:
64,192,24843,1,0,0:0:0:0:
448,192,24937,128,0,25125:0:0:0:0:
320,192,24937,128,0,25125:0:0:0:0:
192,192,25125,128,0,25312:0:0:0:0:
64,192,25125,128,0,25312:0:0:0:0:
448,192,25312,1,0,0:0:0:0:
320,192,25312,1,0,0:0:0:0:
448,192,25500,1,0,0:0:0:0:
320,192,25500,1,0,0:0:0:0:
192,192,25593,1,0,0:0:0:0:
64,192,25593,1,0,0:0:0:0:
448,192,25687,128,0,26062:0:0:0:0:
320,192,25687,128,0,26062:0:0:0:0:
64,192,26062,1,0,0:0:0:0:
192,192,26062,1,0,0:0:0:0:
320,192,26156,1,0,0:0:0:0:
192,192,26250,1,0,0:0:0:0:
64,192,26250,1,0,0:0:0:0:
448,192,26250,1,0,0:0:0:0:
320,192,26437,1,0,0:0:0:0:
64,192,26437,1,0,0:0:0:0:
192,192,26437,1,0,0:0:0:0:
320,192,26625,1,0,0:0:0:0:
64,192,26625,1,0,0:0:0:0:
448,192,26625,1,0,0:0:0:0:
192,192,26812,1,0,0:0:0:0:
320,192,26812,1,0,0:0:0:0:
64,192,26812,1,0,0:0:0:0:
448,192,26906,1,0,0:0:0:0:
320,192,27000,1,0,0:0:0:0:
64,192,27000,1,0,0:0:0:0:
192,192,27093,1,0,0:0:0:0:
448,192,27093,1,0,0:0:0:0:
320,192,27187,1,0,0:0:0:0:
192,192,27281,1,0,0:0:0:0:
448,192,27375,1,0,0:0:0:0:
64,192,27375,1,0,0:0:0:0:
320,192,27375,1,0,0:0:0:0:
192,192,27468,1,0,0:0:0:0:
64,192,27562,1,0,0:0:0:0:
320,192,27656,1,0,0:0:0:0:
448,192,27750,1,0,0:0:0:0:
192,192,27750,1,0,0:0:0:0:
320,192,27843,1,0,0:0:0:0:
64,192,27843,1,0,0:0:0:0:
448,192,27937,128,0,28125:0:0:0:0:
192,192,27937,128,0,28125:0:0:0:0:
64,192,28125,128,0,28312:0:0:0:0:
320,192,28125,128,0,28312:0:0:0:0:
448,192,28312,1,0,0:0:0:0:
192,192,28312,1,0,0:0:0:0:
320,192,28500,1,0,0:0:0:0:
448,192,28500,1,0,0:0:0:0:
192,192,28593,1,0,0:0:0:0:
64,192,28593,1,0,0:0:0:0:
448,192,28687,128,0,29062:0:0:0:0:
320,192,28687,128,0,29062:0:0:0:0:
192,192,29062,1,0,0:0:0:0:
320,192,29156,1,0,0:0:0:0:
192,192,29250,1,0,0:0:0:0:
64,192,29250,1,0,0:0:0:0:
448,192,29250,1,0,0:0:0:0:
448,192,29437,1,0,0:0:0:0:
64,192,29437,1,0,0:0:0:0:
320,192,29437,1,0,0:0:0:0:
192,192,29625,1,0,0:0:0:0:
64,192,29625,1,0,0:0:0:0:
320,192,29625,1,0,0:0:0:0:
320,192,29812,1,0,0:0:0:0:
448,192,29812,1,0,0:0:0:0:
192,192,29812,1,0,0:0:0:0:
320,192,30000,1,0,0:0:0:0:
192,192,30000,1,0,0:0:0:0:
64,192,30093,1,0,0:0:0:0:
448,192,30093,1,0,0:0:0:0:
192,192,30281,1,0,0:0:0:0:
320,192,30281,1,0,0:0:0:0:
320,192,30468,1,0,0:0:0:0:
448,192,30468,1,0,0:0:0:0:
192,192,30562,1,0,0:0:0:0:
64,192,30562,1,0,0:0:0:0:
448,192,30750,128,0,30843:0:0:0:0:
448,192,30937,128,0,31031:0:0:0:0:
448,192,31125,128,0,31218:0:0:0:0:
448,192,31312,128,0,31406:0:0:0:0:
320,192,31500,1,0,0:0:0:0:
64,192,31500,1,0,0:0:0:0:
192,192,31593,1,0,0:0:0:0:
320,192,31687,1,0,0:0:0:0:
448,192,31687,1,0,0:0:0:0:
64,192,31781,128,0,31968:0:0:0:0:
192,192,31781,128,0,31968:0:0:0:0:
448,192,31968,128,0,32062:0:0:0:0:
320,192,32062,128,0,32156:0:0:0:0:
192,192,32156,128,0,32250:0:0:0:0:
64,192,32250,128,0,32343:0:0:0:0:
64,192,32437,128,0,32531:0:0:0:0:
64,192,32625,128,0,32718:0:0:0:0:
64,192,32812,128,0,32906:0:0:0:0:
192,192,33000,1,0,0:0:0:0:
448,192,33000,1,0,0:0:0:0:
320,192,33093,1,0,0:0:0:0:
448,192,33093,1,0,0:0:0:0:
192,192,33187,1,0,0:0:0:0:
64,192,33281,128,0,33468:0:0:0:0:
320,192,33281,128,0,33468:0:0:0:0:
448,192,33468,128,0,33562:0:0:0:0:
192,192,33562,128,0,33656:0:0:0:0:
64,192,33656,128,0,33750:0:0:0:0:
448,192,33750,128,0,33843:0:0:0:0:
448,192,33937,128,0,34031:0:0:0:0:
448,192,34125,128,0,34218:0:0:0:0:
448,192,34312,128,0,34406:0:0:0:0:
64,192,34500,1,0,0:0:0:0:
320,192,34500,1,0,0:0:0:0:
192,192,34593,1,0,0:0:0:0:
448,192,34593,1,0,0:0:0:0:
320,192,34687,1,0,0:0:0:0:
192,192,34781,128,0,34968:0:0:0:0:
64,192,34781,128,0,34968:0:0:0:0:
448,192,34968,128,0,35062:0:0:0:0:
320,192,35062,128,0,35156:0:0:0:0:
192,192,35156,128,0,35250:0:0:0:0:
64,192,35250,128,0,35343:0:0:0:0:
64,192,35437,128,0,35531:0:0:0:0:
64,192,35625,128,0,35718:0:0:0:0:
64,192,35812,128,0,35906:0:0:0:0:
192,192,36000,1,0,0:0:0:0:
448,192,36000,1,0,0:0:0:0:
320,192,36093,1,0,0:0:0:0:
448,192,36093,1,0,0:0:0:0:
192,192,36187,1,0,0:0:0:0:
320,192,36281,128,0,36468:0:0:0:0:
64,192,36281,128,0,36468:0:0:0:0:
192,192,36468,128,0,36562:0:0:0:0:
320,192,36562,128,0,36656:0:0:0:0:
448,192,36656,128,0,36750:0:0:0:0:
64,192,36750,128,0,36843:0:0:0:0:
192,192,36750,1,0,0:0:0:0:
64,192,36937,128,0,37031:0:0:0:0:
64,192,37125,128,0,37218:0:0:0:0:
192,192,37125,1,0,0:0:0:0:
64,192,37312,128,0,37406:0:0:0:0:
320,192,37312,1,0,0:0:0:0:
448,192,37500,1,0,0:0:0:0:
192,192,37500,1,0,0:0:0:0:
320,192,37593,1,0,0:0:0:0:
64,192,37687,1,0,0:0:0:0:
192,192,37687,1,0,0:0:0:0:
448,192,37781,128,0,37968:0:0:0:0:
320,192,37781,128,0,37968:0:0:0:0:
64,192,37968,128,0,38062:0:0:0:0:
192,192,38062,128,0,38156:0:0:0:0:
448,192,38062,1,0,0:0:0:0:
320,192,38156,128,0,38250:0:0:0:0:
448,192,38250,128,0,38343:0:0:0:0:
448,192,38437,128,0,38531:0:0:0:0:
192,192,38437,1,0,0:0:0:0:
448,192,38625,128,0,38718:0:0:0:0:
448,192,38812,128,0,38906:0:0:0:0:
320,192,39000,1,0,0:0:0:0:
64,192,39000,1,0,0:0:0:0:
64,192,39093,1,0,0:0:0:0:
192,192,39093,1,0,0:0:0:0:
320,192,39187,1,0,0:0:0:0:
192,192,39281,128,0,39468:0:0:0:0:
448,192,39281,128,0,39468:0:0:0:0:
64,192,39468,128,0,39562:0:0:0:0:
320,192,39562,128,0,39656:0:0:0:0:
448,192,39656,128,0,39750:0:0:0:0:
64,192,39750,128,0,39843:0:0:0:0:
192,192,39750,1,0,0:0:0:0:
64,192,39937,128,0,40031:0:0:0:0:
192,192,39937,1,0,0:0:0:0:
64,192,40125,128,0,40218:0:0:0:0:
192,192,40125,1,0,0:0:0:0:
64,192,40312,128,0,40406:0:0:0:0:
448,192,40500,1,0,0:0:0:0:
192,192,40500,1,0,0:0:0:0:
320,192,40593,1,0,0:0:0:0:
64,192,40593,1,0,0:0:0:0:
192,192,40687,1,0,0:0:0:0:
448,192,40781,128,0,40968:0:0:0:0:
320,192,40781,128,0,40968:0:0:0:0:
64,192,40968,128,0,41062:0:0:0:0:
192,192,41062,128,0,41156:0:0:0:0:
320,192,41156,128,0,41250:0:0:0:0:
64,192,41250,1,0,0:0:0:0:
192,192,41250,1,0,0:0:0:0:
64,192,41437,1,0,0:0:0:0:
192,192,41437,1,0,0:0:0:0:
192,192,41625,1,0,0:0:0:0:
64,192,41625,1,0,0:0:0:0:
64,192,41812,1,0,0:0:0:0:
192,192,41812,1,0,0:0:0:0:
448,192,42000,1,0,0:0:0:0:
320,192,42046,1,0,0:0:0:0:
192,192,42093,1,0,0:0:0:0:
64,192,42140,1,0,0:0:0:0:
448,192,42187,1,0,0:0:0:0:
320,192,42234,1,0,0:0:0:0:
192,192,42281,1,0,0:0:0:0:
64,192,42328,1,0,0:0:0:0:
448,192,42375,1,0,0:0:0:0:
320,192,42421,1,0,0:0:0:0:
192,192,42468,1,0,0:0:0:0:
64,192,42515,1,0,0:0:0:0:
448,192,42562,1,0,0:0:0:0:
320,192,42609,1,0,0:0:0:0:
192,192,42656,1,0,0:0:0:0:
64,192,42703,1,0,0:0:0:0:
448,192,42750,128,0,43125:0:0:0:0:
320,192,43125,1,0,0:0:0:0:
64,192,43125,1,0,0:0:0:0:
320,192,43312,1,0,0:0:0:0:
448,192,43312,1,0,0:0:0:0:
64,192,43500,1,0,0:0:0:0:
448,192,43500,1,0,0:0:0:0:
192,192,43593,1,0,0:0:0:0:
320,192,43687,128,0,44062:0:0:0:0:
448,192,43687,128,0,44062:0:0:0:0:
64,192,44062,1,0,0:0:0:0:
192,192,44156,1,0,0:0:0:0:
64,192,44250,128,0,44625:0:0:0:0:
448,192,44250,128,0,44625:0:0:0:0:
192,192,44625,1,0,0:0:0:0:
320,192,44625,1,0,0:0:0:0:
320,192,44812,1,0,0:0:0:0:
448,192,44812,1,0,0:0:0:0:
192,192,45000,1,0,0:0:0:0:
64,192,45000,1,0,0:0:0:0:
320,192,45093,1,0,0:0:0:0:
192,192,45187,1,0,0:0:0:0:
448,192,45187,1,0,0:0:0:0:
64,192,45281,128,0,45562:0:0:0:0:
320,192,45281,128,0,45562:0:0:0:0:
192,192,45562,1,0,0:0:0:0:
448,192,45656,1,0,0:0:0:0:
64,192,45750,128,0,46125:0:0:0:0:
320,192,45750,128,0,46125:0:0:0:0:
192,192,45750,1,0,0:0:0:0:
192,192,46125,1,0,0:0:0:0:
448,192,46125,1,0,0:0:0:0:
320,192,46312,1,0,0:0:0:0:
448,192,46312,1,0,0:0:0:0:
320,192,46500,1,0,0:0:0:0:
64,192,46500,1,0,0:0:0:0:
192,192,46593,1,0,0:0:0:0:
320,192,46687,1,0,0:0:0:0:
448,192,46781,1,0,0:0:0:0:
192,192,46875,1,0,0:0:0:0:
64,192,46875,1,0,0:0:0:0:
448,192,47062,1,0,0:0:0:0:
320,192,47156,1,0,0:0:0:0:
192,192,47250,1,0,0:0:0:0:
64,192,47250,1,0,0:0:0:0:
64,192,47437,1,0,0:0:0:0:
192,192,47531,1,0,0:0:0:0:
320,192,47625,1,0,0:0:0:0:
448,192,47625,1,0,0:0:0:0:
448,192,47812,1,0,0:0:0:0:
320,192,47906,1,0,0:0:0:0:
192,192,48000,1,0,0:0:0:0:
448,192,48000,1,0,0:0:0:0:
64,192,48187,1,0,0:0:0:0:
192,192,48281,1,0,0:0:0:0:
64,192,48375,1,0,0:0:0:0:
320,192,48375,1,0,0:0:0:0:
192,192,48562,1,0,0:0:0:0:
320,192,48656,1,0,0:0:0:0:
64,192,48750,128,0,49125:0:0:0:0:
448,192,48750,128,0,49125:0:0:0:0:
192,192,49125,1,0,0:0:0:0:
320,192,49125,1,0,0:0:0:0:
64,192,49312,1,0,0:0:0:0:
448,192,49312,1,0,0:0:0:0:
192,192,49500,1,0,0:0:0:0:
448,192,49500,1,0,0:0:0:0:
320,192,49593,1,0,0:0:0:0:
192,192,49687,1,0,0:0:0:0:
64,192,49781,1,0,0:0:0:0:
192,192,49875,1,0,0:0:0:0:
448,192,49875,1,0,0:0:0:0:
64,192,50062,1,0,0:0:0:0:
192,192,50156,1,0,0:0:0:0:
320,192,50250,1,0,0:0:0:0:
448,192,50250,1,0,0:0:0:0:
64,192,50343,1,0,0:0:0:0:
192,192,50437,1,0,0:0:0:0:
448,192,50437,1,0,0:0:0:0:
320,192,50531,1,0,0:0:0:0:
192,192,50625,1,0,0:0:0:0:
64,192,50625,1,0,0:0:0:0:
448,192,50718,1,0,0:0:0:0:
320,192,50812,1,0,0:0:0:0:
64,192,50812,1,0,0:0:0:0:
192,192,50906,1,0,0:0:0:0:
448,192,51000,1,0,0:0:0:0:
320,192,51000,1,0,0:0:0:0:
192,192,51093,1,0,0:0:0:0:
64,192,51187,1,0,0:0:0:0:
320,192,51187,1,0,0:0:0:0:
192,192,51281,128,0,51562:0:0:0:0:
448,192,51281,128,0,51562:0:0:0:0:
448,192,66750,5,0,0:0:0:0:
192,192,66750,1,0,0:0:0:0:
320,192,66843,1,0,0:0:0:0:
64,192,66843,1,0,0:0:0:0:
192,192,66937,128,0,67125:0:0:0:0:
64,192,67125,128,0,67312:0:0:0:0:
320,192,67125,128,0,67312:0:0:0:0:
448,192,67312,1,0,0:0:0:0:
192,192,67406,1,0,0:0:0:0:
64,192,67500,1,0,0:0:0:0:
320,192,67500,1,0,0:0:0:0:
448,192,67593,1,0,0:0:0:0:
320,192,67687,128,0,67968:0:0:0:0:
192,192,67687,128,0,67968:0:0:0:0:
64,192,68062,1,0,0:0:0:0:
448,192,68062,1,0,0:0:0:0:
320,192,68156,1,0,0:0:0:0:
64,192,68250,1,0,0:0:0:0:
192,192,68250,1,0,0:0:0:0:
448,192,68250,1,0,0:0:0:0:
192,192,68437,1,0,0:0:0:0:
320,192,68437,1,0,0:0:0:0:
64,192,68437,1,0,0:0:0:0:
64,192,68625,1,0,0:0:0:0:
448,192,68625,1,0,0:0:0:0:
320,192,68625,1,0,0:0:0:0:
64,192,68812,1,0,0:0:0:0:
192,192,68812,1,0,0:0:0:0:
320,192,68812,1,0,0:0:0:0:
448,192,68906,1,0,0:0:0:0:
320,192,69000,1,0,0:0:0:0:
64,192,69000,1,0,0:0:0:0:
192,192,69093,1,0,0:0:0:0:
448,192,69093,1,0,0:0:0:0:
320,192,69187,1,0,0:0:0:0:
192,192,69281,1,0,0:0:0:0:
448,192,69375,1,0,0:0:0:0:
320,192,69375,1,0,0:0:0:0:
64,192,69375,1,0,0:0:0:0:
192,192,69468,1,0,0:0:0:0:
64,192,69562,1,0,0:0:0:0:
320,192,69656,1,0,0:0:0:0:
448,192,69750,1,0,0:0:0:0:
192,192,69750,1,0,0:0:0:0:
320,192,69843,1,0,0:0:0:0:
64,192,69843,1,0,0:0:0:0:
192,192,69937,128,0,70125:0:0:0:0:
64,192,70125,128,0,70312:0:0:0:0:
320,192,70125,128,0,70312:0:0:0:0:
448,192,70312,1,0,0:0:0:0:
192,192,70406,1,0,0:0:0:0:
320,192,70500,1,0,0:0:0:0:
64,192,70593,1,0,0:0:0:0:
448,192,70687,128,0,71062:0:0:0:0:
320,192,70687,128,0,71062:0:0:0:0:
192,192,71062,1,0,0:0:0:0:
320,192,71156,1,0,0:0:0:0:
448,192,71250,1,0,0:0:0:0:
192,192,71250,1,0,0:0:0:0:
64,192,71250,1,0,0:0:0:0:
448,192,71437,1,0,0:0:0:0:
320,192,71437,1,0,0:0:0:0:
64,192,71437,1,0,0:0:0:0:
64,192,71625,1,0,0:0:0:0:
192,192,71625,1,0,0:0:0:0:
320,192,71625,1,0,0:0:0:0:
192,192,71812,1,0,0:0:0:0:
448,192,71812,1,0,0:0:0:0:
320,192,71812,1,0,0:0:0:0:
192,192,72000,1,0,0:0:0:0:
320,192,72000,1,0,0:0:0:0:
64,192,72093,1,0,0:0:0:0:
448,192,72093,1,0,0:0:0:0:
320,192,72187,1,0,0:0:0:0:
192,192,72281,1,0,0:0:0:0:
64,192,72375,1,0,0:0:0:0:
448,192,72375,1,0,0:0:0:0:
320,192,72468,1,0,0:0:0:0:
64,192,72562,1,0,0:0:0:0:
448,192,72562,1,0,0:0:0:0:
192,192,72656,1,0,0:0:0:0:
64,192,72750,5,0,0:0:0:0:
320,192,72750,1,0,0:0:0:0:
448,192,72843,1,0,0:0:0:0:
192,192,72843,1,0,0:0:0:0:
320,192,72937,128,0,73125:0:0:0:0:
448,192,73125,128,0,73312:0:0:0:0:
192,192,73125,128,0,73312:0:0:0:0:
64,192,73312,1,0,0:0:0:0:
320,192,73406,1,0,0:0:0:0:
192,192,73500,1,0,0:0:0:0:
448,192,73500,1,0,0:0:0:0:
64,192,73593,1,0,0:0:0:0:
320,192,73687,128,0,73968:0:0:0:0:
192,192,73687,128,0,73968:0:0:0:0:
64,192,74062,1,0,0:0:0:0:
448,192,74062,1,0,0:0:0:0:
192,192,74156,1,0,0:0:0:0:
448,192,74250,1,0,0:0:0:0:
64,192,74250,1,0,0:0:0:0:
320,192,74250,1,0,0:0:0:0:
192,192,74437,1,0,0:0:0:0:
320,192,74437,1,0,0:0:0:0:
448,192,74437,1,0,0:0:0:0:
192,192,74625,1,0,0:0:0:0:
64,192,74625,1,0,0:0:0:0:
448,192,74625,1,0,0:0:0:0:
192,192,74812,1,0,0:0:0:0:
320,192,74812,1,0,0:0:0:0:
448,192,74812,1,0,0:0:0:0:
64,192,74906,1,0,0:0:0:0:
448,192,75000,1,0,0:0:0:0:
192,192,75000,1,0,0:0:0:0:
320,192,75093,1,0,0:0:0:0:
64,192,75093,1,0,0:0:0:0:
192,192,75187,1,0,0:0:0:0:
320,192,75281,1,0,0:0:0:0:
64,192,75375,1,0,0:0:0:0:
192,192,75375,1,0,0:0:0:0:
448,192,75375,1,0,0:0:0:0:
320,192,75468,1,0,0:0:0:0:
448,192,75562,1,0,0:0:0:0:
192,192,75656,1,0,0:0:0:0:
64,192,75750,1,0,0:0:0:0:
320,192,75750,1,0,0:0:0:0:
192,192,75843,1,0,0:0:0:0:
448,192,75843,1,0,0:0:0:0:
320,192,75937,128,0,76125:0:0:0:0:
448,192,76125,128,0,76312:0:0:0:0:
192,192,76125,128,0,76312:0:0:0:0:
64,192,76312,1,0,0:0:0:0:
320,192,76406,1,0,0:0:0:0:
192,192,76500,1,0,0:0:0:0:
448,192,76593,1,0,0:0:0:0:
192,192,76687,128,0,77062:0:0:0:0:
64,192,76687,128,0,77062:0:0:0:0:
320,192,77062,1,0,0:0:0:0:
192,192,77156,1,0,0:0:0:0:
448,192,77250,1,0,0:0:0:0:
64,192,77250,1,0,0:0:0:0:
320,192,77250,1,0,0:0:0:0:
448,192,77437,1,0,0:0:0:0:
192,192,77437,1,0,0:0:0:0:
64,192,77437,1,0,0:0:0:0:
192,192,77625,1,0,0:0:0:0:
320,192,77625,1,0,0:0:0:0:
448,192,77625,1,0,0:0:0:0:
320,192,77812,1,0,0:0:0:0:
192,192,77812,1,0,0:0:0:0:
64,192,77812,1,0,0:0:0:0:
320,192,78000,1,0,0:0:0:0:
192,192,78000,1,0,0:0:0:0:
448,192,78093,1,0,0:0:0:0:
64,192,78093,1,0,0:0:0:0:
192,192,78187,1,0,0:0:0:0:
320,192,78281,1,0,0:0:0:0:
448,192,78375,1,0,0:0:0:0:
64,192,78375,1,0,0:0:0:0:
192,192,78468,1,0,0:0:0:0:
64,192,78562,1,0,0:0:0:0:
320,192,78562,1,0,0:0:0:0:
192,192,78656,1,0,0:0:0:0:
64,192,78750,5,0,0:0:0:0:
320,192,78750,1,0,0:0:0:0:
448,192,78843,1,0,0:0:0:0:
192,192,78843,1,0,0:0:0:0:
320,192,78937,128,0,79125:0:0:0:0:
192,192,79125,128,0,79312:0:0:0:0:
448,192,79125,128,0,79312:0:0:0:0:
64,192,79312,1,0,0:0:0:0:
320,192,79406,1,0,0:0:0:0:
448,192,79500,1,0,0:0:0:0:
192,192,79500,1,0,0:0:0:0:
64,192,79593,1,0,0:0:0:0:
320,192,79687,128,0,79968:0:0:0:0:
192,192,79687,128,0,79968:0:0:0:0:
64,192,80062,1,0,0:0:0:0:
448,192,80062,1,0,0:0:0:0:
192,192,80156,1,0,0:0:0:0:
64,192,80250,1,0,0:0:0:0:
448,192,80250,1,0,0:0:0:0:
320,192,80250,1,0,0:0:0:0:
320,192,80437,1,0,0:0:0:0:
448,192,80437,1,0,0:0:0:0:
192,192,80437,1,0,0:0:0:0:
448,192,80625,1,0,0:0:0:0:
192,192,80625,1,0,0:0:0:0:
64,192,80625,1,0,0:0:0:0:
320,192,80812,1,0,0:0:0:0:
192,192,80812,1,0,0:0:0:0:
448,192,80812,1,0,0:0:0:0:
64,192,80906,1,0,0:0:0:0:
192,192,81000,1,0,0:0:0:0:
448,192,81000,1,0,0:0:0:0:
64,192,81093,1,0,0:0:0:0:
320,192,81093,1,0,0:0:0:0:
192,192,81187,1,0,0:0:0:0:
320,192,81281,1,0,0:0:0:0:
192,192,81375,1,0,0:0:0:0:
448,192,81375,1,0,0:0:0:0:
64,192,81375,1,0,0:0:0:0:
320,192,81468,1,0,0:0:0:0:
448,192,81562,1,0,0:0:0:0:
192,192,81656,1,0,0:0:0:0:
320,192,81750,1,0,0:0:0:0:
64,192,81750,1,0,0:0:0:0:
448,192,81843,1,0,0:0:0:0:
192,192,81843,1,0,0:0:0:0:
320,192,81937,128,0,82125:0:0:0:0:
192,192,82125,128,0,82312:0:0:0:0:
448,192,82125,128,0,82312:0:0:0:0:
64,192,82312,1,0,0:0:0:0:
320,192,82406,1,0,0:0:0:0:
192,192,82500,1,0,0:0:0:0:
448,192,82593,1,0,0:0:0:0:
192,192,82687,128,0,83062:0:0:0:0:
64,192,82687,128,0,83062:0:0:0:0:
320,192,83062,1,0,0:0:0:0:
192,192,83156,1,0,0:0:0:0:
64,192,83250,1,0,0:0:0:0:
448,192,83250,1,0,0:0:0:0:
320,192,83250,1,0,0:0:0:0:
448,192,83437,1,0,0:0:0:0:
64,192,83437,1,0,0:0:0:0:
192,192,83437,1,0,0:0:0:0:
448,192,83625,1,0,0:0:0:0:
320,192,83625,1,0,0:0:0:0:
192,192,83625,1,0,0:0:0:0:
192,192,83812,1,0,0:0:0:0:
320,192,83812,1,0,0:0:0:0:
64,192,83812,1,0,0:0:0:0:
320,192,84000,1,0,0:0:0:0:
192,192,84000,1,0,0:0:0:0:
64,192,84093,1,0,0:0:0:0:
448,192,84093,1,0,0:0:0:0:
192,192,84187,1,0,0:0:0:0:
320,192,84281,1,0,0:0:0:0:
64,192,84375,1,0,0:0:0:0:
448,192,84375,1,0,0:0:0:0:
192,192,84468,1,0,0:0:0:0:
448,192,84562,1,0,0:0:0:0:
64,192,84562,1,0,0:0:0:0:
320,192,84656,1,0,0:0:0:0:
448,192,84750,5,0,0:0:0:0:
192,192,84750,1,0,0:0:0:0:
320,192,84843,1,0,0:0:0:0:
64,192,84843,1,0,0:0:0:0:
192,192,84937,128,0,85125:0:0:0:0:
64,192,85125,128,0,85312:0:0:0:0:
320,192,85125,128,0,85312:0:0:0:0:
448,192,85312,1,0,0:0:0:0:
192,192,85406,1,0,0:0:0:0:
64,192,85500,1,0,0:0:0:0:
320,192,85500,1,0,0:0:0:0:
448,192,85593,1,0,0:0:0:0:
192,192,85687,128,0,85968:0:0:0:0:
320,192,85687,128,0,85968:0:0:0:0:
64,192,86062,1,0,0:0:0:0:
448,192,86062,1,0,0:0:0:0:
320,192,86156,1,0,0:0:0:0:
448,192,86250,1,0,0:0:0:0:
64,192,86250,1,0,0:0:0:0:
192,192,86250,1,0,0:0:0:0:
64,192,86437,1,0,0:0:0:0:
192,192,86437,1,0,0:0:0:0:
320,192,86437,1,0,0:0:0:0:
320,192,86625,1,0,0:0:0:0:
64,192,86625,1,0,0:0:0:0:
448,192,86625,1,0,0:0:0:0:
192,192,86812,1,0,0:0:0:0:
64,192,86812,1,0,0:0:0:0:
320,192,86812,1,0,0:0:0:0:
448,192,86906,1,0,0:0:0:0:
320,192,87000,1,0,0:0:0:0:
64,192,87000,1,0,0:0:0:0:
192,192,87093,1,0,0:0:0:0:
448,192,87093,1,0,0:0:0:0:
320,192,87187,1,0,0:0:0:0:
192,192,87281,1,0,0:0:0:0:
448,192,87375,1,0,0:0:0:0:
64,192,87375,1,0,0:0:0:0:
320,192,87375,1,0,0:0:0:0:
192,192,87468,1,0,0:0:0:0:
64,192,87562,1,0,0:0:0:0:
320,192,87656,1,0,0:0:0:0:
192,192,87750,1,0,0:0:0:0:
448,192,87750,1,0,0:0:0:0:
320,192,87843,1,0,0:0:0:0:
64,192,87843,1,0,0:0:0:0:
192,192,87937,128,0,88125:0:0:0:0:
320,192,88125,128,0,88312:0:0:0:0:
64,192,88125,128,0,88312:0:0:0:0:
448,192,88312,1,0,0:0:0:0:
192,192,88406,1,0,0:0:0:0:
320,192,88500,1,0,0:0:0:0:
64,192,88593,1,0,0:0:0:0:
448,192,88687,128,0,89062:0:0:0:0:
320,192,88687,128,0,89062:0:0:0:0:
192,192,89062,1,0,0:0:0:0:
320,192,89156,1,0,0:0:0:0:
192,192,89250,1,0,0:0:0:0:
448,192,89250,1,0,0:0:0:0:
64,192,89250,1,0,0:0:0:0:
448,192,89437,1,0,0:0:0:0:
64,192,89437,1,0,0:0:0:0:
320,192,89437,1,0,0:0:0:0:
192,192,89625,1,0,0:0:0:0:
320,192,89625,1,0,0:0:0:0:
64,192,89625,1,0,0:0:0:0:
320,192,89812,1,0,0:0:0:0:
448,192,89812,1,0,0:0:0:0:
192,192,89812,1,0,0:0:0:0:
192,192,90000,1,0,0:0:0:0:
320,192,90000,1,0,0:0:0:0:
448,192,90093,1,0,0:0:0:0:
64,192,90093,1,0,0:0:0:0:
320,192,90187,5,0,0:0:0:0:
192,192,90281,1,0,0:0:0:0:
448,192,90375,1,0,0:0:0:0:
64,192,90375,1,0,0:0:0:0:
320,192,90468,1,0,0:0:0:0:
448,192,90562,1,0,0:0:0:0:
192,192,90562,1,0,0:0:0:0:
320,192,90656,1,0,0:0:0:0:
192,192,90750,128,0,90843:0:0:0:0:
192,192,90937,128,0,91031:0:0:0:0:
192,192,91125,128,0,91218:0:0:0:0:
192,192,91312,128,0,91406:0:0:0:0:
448,192,91500,1,0,0:0:0:0:
320,192,91500,1,0,0:0:0:0:
64,192,91593,1,0,0:0:0:0:
320,192,91687,1,0,0:0:0:0:
192,192,91687,1,0,0:0:0:0:
448,192,91781,128,0,91968:0:0:0:0:
64,192,91781,128,0,91968:0:0:0:0:
320,192,91968,128,0,92062:0:0:0:0:
192,192,92062,128,0,92156:0:0:0:0:
448,192,92156,128,0,92250:0:0:0:0:
192,192,92250,128,0,92343:0:0:0:0:
192,192,92437,128,0,92531:0:0:0:0:
192,192,92625,128,0,92718:0:0:0:0:
192,192,92812,128,0,92906:0:0:0:0:
448,192,93000,1,0,0:0:0:0:
320,192,93000,1,0,0:0:0:0:
192,192,93093,1,0,0:0:0:0:
64,192,93093,1,0,0:0:0:0:
320,192,93187,1,0,0:0:0:0:
448,192,93281,128,0,93468:0:0:0:0:
64,192,93281,128,0,93468:0:0:0:0:
192,192,93468,128,0,93562:0:0:0:0:
320,192,93562,128,0,93656:0:0:0:0:
448,192,93656,128,0,93750:0:0:0:0:
320,192,93750,128,0,93843:0:0:0:0:
320,192,93937,128,0,94031:0:0:0:0:
320,192,94125,128,0,94218:0:0:0:0:
320,192,94312,128,0,94406:0:0:0:0:
448,192,94500,1,0,0:0:0:0:
64,192,94500,1,0,0:0:0:0:
320,192,94593,1,0,0:0:0:0:
192,192,94593,1,0,0:0:0:0:
192,192,94687,1,0,0:0:0:0:
448,192,94781,128,0,94968:0:0:0:0:
64,192,94781,128,0,94968:0:0:0:0:
320,192,94968,128,0,95062:0:0:0:0:
192,192,95062,128,0,95156:0:0:0:0:
64,192,95156,128,0,95250:0:0:0:0:
192,192,95250,128,0,95343:0:0:0:0:
192,192,95437,128,0,95531:0:0:0:0:
192,192,95625,128,0,95718:0:0:0:0:
192,192,95812,128,0,95906:0:0:0:0:
64,192,96000,1,0,0:0:0:0:
448,192,96000,1,0,0:0:0:0:
320,192,96093,1,0,0:0:0:0:
192,192,96093,1,0,0:0:0:0:
448,192,96187,1,0,0:0:0:0:
320,192,96281,128,0,96468:0:0:0:0:
64,192,96281,128,0,96468:0:0:0:0:
192,192,96468,128,0,96562:0:0:0:0:
320,192,96562,128,0,96656:0:0:0:0:
448,192,96656,128,0,96750:0:0:0:0:
192,192,96750,128,0,96843:0:0:0:0:
192,192,96937,128,0,97031:0:0:0:0:
192,192,97125,128,0,97218:0:0:0:0:
192,192,97312,128,0,97406:0:0:0:0:
320,192,97500,1,0,0:0:0:0:
448,192,97500,1,0,0:0:0:0:
64,192,97593,1,0,0:0:0:0:
192,192,97687,1,0,0:0:0:0:
320,192,97687,1,0,0:0:0:0:
64,192,97781,128,0,97968:0:0:0:0:
448,192,97781,128,0,97968:0:0:0:0:
320,192,97968,128,0,98062:0:0:0:0:
192,192,98062,128,0,98156:0:0:0:0:
448,192,98156,128,0,98250:0:0:0:0:
192,192,98250,128,0,98343:0:0:0:0:
192,192,98437,128,0,98531:0:0:0:0:
192,192,98625,128,0,98718:0:0:0:0:
192,192,98812,128,0,98906:0:0:0:0:
320,192,99000,1,0,0:0:0:0:
448,192,99000,1,0,0:0:0:0:
192,192,99093,1,0,0:0:0:0:
64,192,99093,1,0,0:0:0:0:
320,192,99187,1,0,0:0:0:0:
64,192,99281,128,0,99468:0:0:0:0:
448,192,99281,128,0,99468:0:0:0:0:
192,192,99468,128,0,99562:0:0:0:0:
320,192,99562,128,0,99656:0:0:0:0:
448,192,99656,128,0,99750:0:0:0:0:
320,192,99750,128,0,99843:0:0:0:0:
320,192,99937,128,0,100031:0:0:0:0:
320,192,100125,128,0,100218:0:0:0:0:
320,192,100312,128,0,100406:0:0:0:0:
64,192,100500,1,0,0:0:0:0:
448,192,100500,1,0,0:0:0:0:
192,192,100593,1,0,0:0:0:0:
320,192,100593,1,0,0:0:0:0:
192,192,100687,1,0,0:0:0:0:
64,192,100781,128,0,100968:0:0:0:0:
448,192,100781,128,0,100968:0:0:0:0:
320,192,100968,128,0,101062:0:0:0:0:
192,192,101062,128,0,101156:0:0:0:0:
448,192,101156,128,0,101250:0:0:0:0:
64,192,101250,1,0,0:0:0:0:
192,192,101250,1,0,0:0:0:0:
64,192,101437,1,0,0:0:0:0:
192,192,101437,1,0,0:0:0:0:
64,192,101625,1,0,0:0:0:0:
192,192,101625,1,0,0:0:0:0:
64,192,101812,1,0,0:0:0:0:
192,192,101812,1,0,0:0:0:0:
448,192,102000,1,0,0:0:0:0:
320,192,102046,1,0,0:0:0:0:
192,192,102093,1,0,0:0:0:0:
64,192,102140,1,0,0:0:0:0:
448,192,102187,1,0,0:0:0:0:
320,192,102234,1,0,0:0:0:0:
192,192,102281,1,0,0:0:0:0:
64,192,102328,1,0,0:0:0:0:
448,192,102375,1,0,0:0:0:0:
320,192,102421,1,0,0:0:0:0:
192,192,102468,1,0,0:0:0:0:
64,192,102515,1,0,0:0:0:0:
448,192,102562,1,0,0:0:0:0:
320,192,102609,1,0,0:0:0:0:
192,192,102656,1,0,0:0:0:0:
64,192,102703,1,0,0:0:0:0:
