osu file format v14

[General]
AudioFilename: PANIC HOLIC.mp3
AudioLeadIn: 0
PreviewTime: 81844
Countdown: 0
SampleSet: Soft
StackLeniency: 0.7
Mode: 3
LetterboxInBreaks: 1
SpecialStyle: 0
WidescreenStoryboard: 1

[Editor]
DistanceSpacing: 1
BeatDivisor: 4
GridSize: 8
TimelineZoom: 1.8

[Metadata]
Title:4key & 7key Fantasy Last. Vol.
TitleUnicode:4key & 7key Fantasy Last. Vol.
Artist:Final Mania Dimension
ArtistUnicode:Final Mania Dimension
Creator:Un-known
Version:C-SHOW - PANIC HOLIC [4key Maximum]
Source:
Tags:
BeatmapID:671217
BeatmapSetID:298447

[Difficulty]
HPDrainRate:8
CircleSize:4
OverallDifficulty:8
ApproachRate:5
SliderMultiplier:1.4
SliderTickRate:1

[Events]
//Background and Video events
0,0,"4.jpg",0,0
//Break Periods
//Storyboard Layer 0 (Background)
//Storyboard Layer 1 (Fail)
//Storyboard Layer 2 (Pass)
//Storyboard Layer 3 (Foreground)
//Storyboard Sound Samples

[TimingPoints]
1117,272.727272727273,4,2,0,50,1,0
29480,-100,4,2,0,50,0,1
44753,-100,4,2,0,50,0,0
81844,-100,4,2,0,50,0,1
99279,-100,4,2,0,50,0,0

[HitObjects]
64,192,1117,5,0,0:0:0:0:
192,192,1117,1,0,0:0:0:0:
192,192,1253,1,0,0:0:0:0:
64,192,1253,1,0,0:0:0:0:
64,192,1389,1,0,0:0:0:0:
192,192,1389,1,0,0:0:0:0:
64,192,1662,1,0,0:0:0:0:
192,192,1662,1,0,0:0:0:0:
320,192,1662,1,0,0:0:0:0:
448,192,1662,1,0,0:0:0:0:
64,192,1935,1,0,0:0:0:0:
192,192,2003,1,0,0:0:0:0:
320,192,2071,1,0,0:0:0:0:
448,192,2139,1,0,0:0:0:0:
64,192,2207,1,0,0:0:0:0:
192,192,2207,1,0,0:0:0:0:
320,192,2344,1,0,0:0:0:0:
448,192,2344,1,0,0:0:0:0:
64,192,2480,1,0,0:0:0:0:
448,192,2617,1,0,0:0:0:0:
192,192,2753,1,0,0:0:0:0:
320,192,2753,1,0,0:0:0:0:
64,192,2889,1,0,0:0:0:0:
320,192,3026,1,0,0:0:0:0:
448,192,3026,1,0,0:0:0:0:
64,192,3298,1,0,0:0:0:0:
320,192,3298,1,0,0:0:0:0:
448,192,3298,1,0,0:0:0:0:
64,192,3435,1,0,0:0:0:0:
64,192,3571,1,0,0:0:0:0:
64,192,3707,1,0,0:0:0:0:
64,192,3844,1,0,0:0:0:0:
320,192,3844,1,0,0:0:0:0:
448,192,3844,1,0,0:0:0:0:
320,192,3980,1,0,0:0:0:0:
320,192,4117,1,0,0:0:0:0:
320,192,4253,1,0,0:0:0:0:
320,192,4389,1,0,0:0:0:0:
448,192,4389,1,0,0:0:0:0:
64,192,4389,1,0,0:0:0:0:
448,192,4526,1,0,0:0:0:0:
448,192,4662,1,0,0:0:0:0:
448,192,4798,1,0,0:0:0:0:
448,192,4935,1,0,0:0:0:0:
192,192,4935,1,0,0:0:0:0:
64,192,4935,1,0,0:0:0:0:
192,192,5071,1,0,0:0:0:0:
192,192,5207,1,0,0:0:0:0:
192,192,5344,1,0,0:0:0:0:
192,192,5480,1,0,0:0:0:0:
448,192,5480,1,0,0:0:0:0:
64,192,5480,1,0,0:0:0:0:
448,192,5617,1,0,0:0:0:0:
448,192,5753,1,0,0:0:0:0:
448,192,5889,1,0,0:0:0:0:
64,192,6026,1,0,0:0:0:0:
448,192,6026,1,0,0:0:0:0:
192,192,6026,1,0,0:0:0:0:
192,192,6162,1,0,0:0:0:0:
192,192,6298,1,0,0:0:0:0:
192,192,6435,1,0,0:0:0:0:
448,192,6571,1,0,0:0:0:0:
64,192,6571,1,0,0:0:0:0:
192,192,6571,1,0,0:0:0:0:
64,192,6707,1,0,0:0:0:0:
64,192,6844,1,0,0:0:0:0:
64,192,6980,1,0,0:0:0:0:
64,192,7117,1,0,0:0:0:0:
192,192,7117,128,0,7185:0:0:0:0:
192,192,7321,128,0,7389:0:0:0:0:
192,192,7526,128,0,7594:0:0:0:0:
448,192,7662,1,0,0:0:0:0:
64,192,7662,1,0,0:0:0:0:
320,192,7662,1,0,0:0:0:0:
64,192,7798,1,0,0:0:0:0:
64,192,7935,1,0,0:0:0:0:
64,192,8071,1,0,0:0:0:0:
320,192,8207,1,0,0:0:0:0:
64,192,8207,1,0,0:0:0:0:
448,192,8207,1,0,0:0:0:0:
320,192,8344,1,0,0:0:0:0:
320,192,8480,1,0,0:0:0:0:
320,192,8617,1,0,0:0:0:0:
320,192,8753,1,0,0:0:0:0:
448,192,8753,1,0,0:0:0:0:
64,192,8753,1,0,0:0:0:0:
448,192,8889,1,0,0:0:0:0:
448,192,9026,1,0,0:0:0:0:
448,192,9162,1,0,0:0:0:0:
64,192,9298,1,0,0:0:0:0:
448,192,9298,1,0,0:0:0:0:
192,192,9298,1,0,0:0:0:0:
192,192,9435,1,0,0:0:0:0:
192,192,9571,1,0,0:0:0:0:
192,192,9707,1,0,0:0:0:0:
320,192,9844,1,0,0:0:0:0:
448,192,9844,1,0,0:0:0:0:
64,192,9844,1,0,0:0:0:0:
448,192,10117,1,0,0:0:0:0:
320,192,10117,1,0,0:0:0:0:
64,192,10117,1,0,0:0:0:0:
192,192,10253,1,0,0:0:0:0:
448,192,10389,1,0,0:0:0:0:
320,192,10389,1,0,0:0:0:0:
64,192,10389,1,0,0:0:0:0:
64,192,10526,1,0,0:0:0:0:
448,192,10662,1,0,0:0:0:0:
320,192,10662,1,0,0:0:0:0:
64,192,10662,1,0,0:0:0:0:
192,192,10798,1,0,0:0:0:0:
64,192,10935,1,0,0:0:0:0:
320,192,10935,1,0,0:0:0:0:
448,192,10935,1,0,0:0:0:0:
192,192,11071,1,0,0:0:0:0:
320,192,11207,1,0,0:0:0:0:
448,192,11207,1,0,0:0:0:0:
64,192,11207,1,0,0:0:0:0:
192,192,11344,1,0,0:0:0:0:
448,192,11344,1,0,0:0:0:0:
64,192,11480,1,0,0:0:0:0:
192,192,11548,1,0,0:0:0:0:
320,192,11617,1,0,0:0:0:0:
448,192,11685,1,0,0:0:0:0:
320,192,11753,1,0,0:0:0:0:
192,192,11821,1,0,0:0:0:0:
64,192,11889,1,0,0:0:0:0:
192,192,11957,1,0,0:0:0:0:
320,192,12026,1,0,0:0:0:0:
448,192,12026,1,0,0:0:0:0:
64,192,12026,1,0,0:0:0:0:
64,192,12162,1,0,0:0:0:0:
192,192,12162,1,0,0:0:0:0:
448,192,12298,1,0,0:0:0:0:
64,192,12435,1,0,0:0:0:0:
320,192,12571,1,0,0:0:0:0:
192,192,12571,1,0,0:0:0:0:
64,192,12707,1,0,0:0:0:0:
320,192,12844,1,0,0:0:0:0:
448,192,12980,1,0,0:0:0:0:
192,192,12980,1,0,0:0:0:0:
320,192,13117,1,0,0:0:0:0:
64,192,13117,1,0,0:0:0:0:
192,192,13185,1,0,0:0:0:0:
320,192,13253,1,0,0:0:0:0:
448,192,13321,1,0,0:0:0:0:
192,192,13389,1,0,0:0:0:0:
320,192,13526,1,0,0:0:0:0:
192,192,13662,1,0,0:0:0:0:
64,192,13662,1,0,0:0:0:0:
448,192,13798,1,0,0:0:0:0:
320,192,13935,1,0,0:0:0:0:
192,192,13935,1,0,0:0:0:0:
448,192,14071,1,0,0:0:0:0:
64,192,14071,1,0,0:0:0:0:
320,192,14207,1,0,0:0:0:0:
448,192,14207,1,0,0:0:0:0:
192,192,14344,1,0,0:0:0:0:
64,192,14344,1,0,0:0:0:0:
320,192,14480,1,0,0:0:0:0:
192,192,14617,1,0,0:0:0:0:
448,192,14753,1,0,0:0:0:0:
320,192,14753,1,0,0:0:0:0:
64,192,14889,1,0,0:0:0:0:
192,192,15026,1,0,0:0:0:0:
448,192,15026,1,0,0:0:0:0:
320,192,15162,1,0,0:0:0:0:
64,192,15162,1,0,0:0:0:0:
448,192,15298,1,0,0:0:0:0:
192,192,15298,1,0,0:0:0:0:
64,192,15298,1,0,0:0:0:0:
320,192,15298,1,0,0:0:0:0:
192,192,15571,1,0,0:0:0:0:
320,192,15571,1,0,0:0:0:0:
320,192,15707,1,0,0:0:0:0:
192,192,15707,1,0,0:0:0:0:
448,192,15707,1,0,0:0:0:0:
64,192,15707,1,0,0:0:0:0:
320,192,16253,1,0,0:0:0:0:
192,192,16253,1,0,0:0:0:0:
448,192,16389,1,0,0:0:0:0:
320,192,16389,1,0,0:0:0:0:
64,192,16389,1,0,0:0:0:0:
192,192,16389,1,0,0:0:0:0:
192,192,16526,1,0,0:0:0:0:
64,192,16526,1,0,0:0:0:0:
448,192,16662,1,0,0:0:0:0:
64,192,16798,1,0,0:0:0:0:
192,192,16935,1,0,0:0:0:0:
320,192,16935,1,0,0:0:0:0:
64,192,17071,1,0,0:0:0:0:
320,192,17207,1,0,0:0:0:0:
448,192,17344,1,0,0:0:0:0:
192,192,17344,1,0,0:0:0:0:
320,192,17480,1,0,0:0:0:0:
64,192,17480,1,0,0:0:0:0:
192,192,17548,1,0,0:0:0:0:
320,192,17617,1,0,0:0:0:0:
448,192,17685,1,0,0:0:0:0:
192,192,17753,1,0,0:0:0:0:
320,192,17889,1,0,0:0:0:0:
192,192,18026,1,0,0:0:0:0:
64,192,18026,1,0,0:0:0:0:
448,192,18162,1,0,0:0:0:0:
192,192,18298,1,0,0:0:0:0:
320,192,18298,1,0,0:0:0:0:
64,192,18435,1,0,0:0:0:0:
448,192,18435,1,0,0:0:0:0:
448,192,18571,1,0,0:0:0:0:
320,192,18571,1,0,0:0:0:0:
64,192,18707,1,0,0:0:0:0:
192,192,18707,1,0,0:0:0:0:
320,192,18844,1,0,0:0:0:0:
192,192,18980,1,0,0:0:0:0:
448,192,19117,1,0,0:0:0:0:
320,192,19117,1,0,0:0:0:0:
64,192,19253,1,0,0:0:0:0:
448,192,19389,1,0,0:0:0:0:
192,192,19389,1,0,0:0:0:0:
320,192,19526,1,0,0:0:0:0:
64,192,19526,1,0,0:0:0:0:
192,192,19662,1,0,0:0:0:0:
320,192,19662,1,0,0:0:0:0:
64,192,19662,1,0,0:0:0:0:
448,192,19662,1,0,0:0:0:0:
192,192,19935,1,0,0:0:0:0:
320,192,19935,1,0,0:0:0:0:
448,192,20071,1,0,0:0:0:0:
64,192,20071,1,0,0:0:0:0:
320,192,20071,1,0,0:0:0:0:
192,192,20071,1,0,0:0:0:0:
64,192,20344,1,0,0:0:0:0:
192,192,20344,1,0,0:0:0:0:
448,192,20344,1,0,0:0:0:0:
320,192,20344,1,0,0:0:0:0:
320,192,20753,1,0,0:0:0:0:
448,192,20753,1,0,0:0:0:0:
64,192,20889,1,0,0:0:0:0:
192,192,20889,1,0,0:0:0:0:
448,192,21026,1,0,0:0:0:0:
64,192,21162,1,0,0:0:0:0:
320,192,21298,1,0,0:0:0:0:
192,192,21298,1,0,0:0:0:0:
64,192,21435,1,0,0:0:0:0:
320,192,21571,1,0,0:0:0:0:
192,192,21707,1,0,0:0:0:0:
448,192,21707,1,0,0:0:0:0:
64,192,21844,1,0,0:0:0:0:
320,192,21844,1,0,0:0:0:0:
192,192,21912,1,0,0:0:0:0:
320,192,21980,1,0,0:0:0:0:
448,192,22048,1,0,0:0:0:0:
192,192,22117,1,0,0:0:0:0:
320,192,22253,1,0,0:0:0:0:
64,192,22389,1,0,0:0:0:0:
192,192,22389,1,0,0:0:0:0:
448,192,22526,1,0,0:0:0:0:
320,192,22662,1,0,0:0:0:0:
192,192,22662,1,0,0:0:0:0:
448,192,22798,1,0,0:0:0:0:
64,192,22798,1,0,0:0:0:0:
320,192,22935,1,0,0:0:0:0:
448,192,22935,1,0,0:0:0:0:
192,192,23071,1,0,0:0:0:0:
64,192,23071,1,0,0:0:0:0:
320,192,23207,1,0,0:0:0:0:
192,192,23344,1,0,0:0:0:0:
320,192,23480,1,0,0:0:0:0:
448,192,23480,1,0,0:0:0:0:
64,192,23617,1,0,0:0:0:0:
192,192,23753,1,0,0:0:0:0:
448,192,23753,1,0,0:0:0:0:
64,192,23889,1,0,0:0:0:0:
320,192,23889,1,0,0:0:0:0:
448,192,24026,1,0,0:0:0:0:
192,192,24026,1,0,0:0:0:0:
320,192,24298,1,0,0:0:0:0:
192,192,24298,1,0,0:0:0:0:
448,192,24435,1,0,0:0:0:0:
64,192,24435,1,0,0:0:0:0:
192,192,24707,1,0,0:0:0:0:
320,192,24707,1,0,0:0:0:0:
192,192,24844,1,0,0:0:0:0:
320,192,24844,1,0,0:0:0:0:
320,192,24980,1,0,0:0:0:0:
192,192,24980,1,0,0:0:0:0:
448,192,25117,1,0,0:0:0:0:
64,192,25117,1,0,0:0:0:0:
192,192,25253,1,0,0:0:0:0:
320,192,25253,1,0,0:0:0:0:
448,192,25389,1,0,0:0:0:0:
64,192,25526,1,0,0:0:0:0:
192,192,25662,1,0,0:0:0:0:
320,192,25662,1,0,0:0:0:0:
64,192,25798,1,0,0:0:0:0:
320,192,25935,1,0,0:0:0:0:
448,192,26071,1,0,0:0:0:0:
192,192,26071,1,0,0:0:0:0:
320,192,26207,1,0,0:0:0:0:
64,192,26207,1,0,0:0:0:0:
192,192,26276,1,0,0:0:0:0:
320,192,26344,1,0,0:0:0:0:
448,192,26412,1,0,0:0:0:0:
320,192,26480,1,0,0:0:0:0:
192,192,26617,1,0,0:0:0:0:
320,192,26753,1,0,0:0:0:0:
448,192,26753,1,0,0:0:0:0:
64,192,26889,1,0,0:0:0:0:
192,192,27026,1,0,0:0:0:0:
320,192,27026,1,0,0:0:0:0:
64,192,27162,1,0,0:0:0:0:
448,192,27162,1,0,0:0:0:0:
448,192,27298,1,0,0:0:0:0:
320,192,27298,1,0,0:0:0:0:
64,192,27435,1,0,0:0:0:0:
192,192,27435,1,0,0:0:0:0:
320,192,27571,1,0,0:0:0:0:
192,192,27707,1,0,0:0:0:0:
448,192,27844,1,0,0:0:0:0:
320,192,27844,1,0,0:0:0:0:
64,192,27980,1,0,0:0:0:0:
64,192,28117,1,0,0:0:0:0:
320,192,28117,1,0,0:0:0:0:
192,192,28253,1,0,0:0:0:0:
448,192,28253,1,0,0:0:0:0:
320,192,28389,1,0,0:0:0:0:
64,192,28389,1,0,0:0:0:0:
448,192,28389,128,0,28662:0:0:0:0:
192,192,28662,1,0,0:0:0:0:
64,192,28730,1,0,0:0:0:0:
192,192,28798,1,0,0:0:0:0:
320,192,28867,1,0,0:0:0:0:
448,192,28935,1,0,0:0:0:0:
320,192,29003,1,0,0:0:0:0:
192,192,29071,128,0,29480:0:0:0:0:
320,192,29480,1,0,0:0:0:0:
448,192,29480,1,0,0:0:0:0:
192,192,29617,1,0,0:0:0:0:
64,192,29617,1,0,0:0:0:0:
448,192,29617,1,0,0:0:0:0:
192,192,29753,1,0,0:0:0:0:
320,192,29753,1,0,0:0:0:0:
64,192,29889,1,0,0:0:0:0:
320,192,29889,1,0,0:0:0:0:
448,192,29889,1,0,0:0:0:0:
192,192,30026,1,0,0:0:0:0:
64,192,30026,1,0,0:0:0:0:
448,192,30026,1,0,0:0:0:0:
320,192,30162,1,0,0:0:0:0:
64,192,30162,1,0,0:0:0:0:
192,192,30298,1,0,0:0:0:0:
320,192,30298,1,0,0:0:0:0:
448,192,30298,1,0,0:0:0:0:
64,192,30435,1,0,0:0:0:0:
192,192,30435,1,0,0:0:0:0:
320,192,30435,1,0,0:0:0:0:
320,192,30571,1,0,0:0:0:0:
64,192,30571,1,0,0:0:0:0:
448,192,30571,1,0,0:0:0:0:
320,192,30707,1,0,0:0:0:0:
192,192,30707,1,0,0:0:0:0:
64,192,30844,1,0,0:0:0:0:
192,192,30844,1,0,0:0:0:0:
448,192,30844,1,0,0:0:0:0:
64,192,30980,1,0,0:0:0:0:
320,192,30980,1,0,0:0:0:0:
448,192,30980,1,0,0:0:0:0:
320,192,31117,1,0,0:0:0:0:
192,192,31117,1,0,0:0:0:0:
64,192,31117,1,0,0:0:0:0:
320,192,31253,1,0,0:0:0:0:
448,192,31253,1,0,0:0:0:0:
448,192,31389,1,0,0:0:0:0:
192,192,31389,1,0,0:0:0:0:
64,192,31389,1,0,0:0:0:0:
320,192,31526,1,0,0:0:0:0:
64,192,31526,1,0,0:0:0:0:
448,192,31526,1,0,0:0:0:0:
192,192,31662,1,0,0:0:0:0:
320,192,31662,1,0,0:0:0:0:
448,192,31662,1,0,0:0:0:0:
320,192,31798,1,0,0:0:0:0:
64,192,31798,1,0,0:0:0:0:
192,192,31798,1,0,0:0:0:0:
448,192,31935,1,0,0:0:0:0:
320,192,31935,1,0,0:0:0:0:
192,192,32071,1,0,0:0:0:0:
448,192,32071,1,0,0:0:0:0:
64,192,32071,1,0,0:0:0:0:
64,192,32207,1,0,0:0:0:0:
320,192,32207,1,0,0:0:0:0:
448,192,32207,1,0,0:0:0:0:
192,192,32344,1,0,0:0:0:0:
320,192,32344,1,0,0:0:0:0:
448,192,32480,1,0,0:0:0:0:
320,192,32480,1,0,0:0:0:0:
192,192,32480,1,0,0:0:0:0:
320,192,32617,1,0,0:0:0:0:
64,192,32617,1,0,0:0:0:0:
192,192,32617,1,0,0:0:0:0:
192,192,32753,1,0,0:0:0:0:
448,192,32753,1,0,0:0:0:0:
64,192,32753,1,0,0:0:0:0:
320,192,32889,1,0,0:0:0:0:
192,192,32889,1,0,0:0:0:0:
320,192,33026,1,0,0:0:0:0:
192,192,33026,1,0,0:0:0:0:
64,192,33162,1,0,0:0:0:0:
320,192,33162,1,0,0:0:0:0:
448,192,33162,1,0,0:0:0:0:
192,192,33298,1,0,0:0:0:0:
320,192,33298,1,0,0:0:0:0:
64,192,33435,1,0,0:0:0:0:
320,192,33435,1,0,0:0:0:0:
192,192,33571,1,0,0:0:0:0:
448,192,33571,1,0,0:0:0:0:
320,192,33707,1,0,0:0:0:0:
448,192,33707,1,0,0:0:0:0:
192,192,33844,1,0,0:0:0:0:
64,192,33844,1,0,0:0:0:0:
448,192,33980,1,0,0:0:0:0:
320,192,33980,1,0,0:0:0:0:
64,192,33980,1,0,0:0:0:0:
192,192,34117,1,0,0:0:0:0:
320,192,34117,1,0,0:0:0:0:
192,192,34253,1,0,0:0:0:0:
64,192,34253,1,0,0:0:0:0:
448,192,34253,1,0,0:0:0:0:
64,192,34389,1,0,0:0:0:0:
320,192,34389,1,0,0:0:0:0:
448,192,34389,1,0,0:0:0:0:
448,192,34526,1,0,0:0:0:0:
192,192,34526,1,0,0:0:0:0:
64,192,34662,1,0,0:0:0:0:
320,192,34662,1,0,0:0:0:0:
192,192,34662,1,0,0:0:0:0:
320,192,34798,1,0,0:0:0:0:
192,192,34798,1,0,0:0:0:0:
448,192,34798,1,0,0:0:0:0:
64,192,34935,1,0,0:0:0:0:
192,192,34935,1,0,0:0:0:0:
448,192,34935,1,0,0:0:0:0:
320,192,35071,1,0,0:0:0:0:
192,192,35071,1,0,0:0:0:0:
64,192,35207,1,0,0:0:0:0:
448,192,35207,1,0,0:0:0:0:
320,192,35207,1,0,0:0:0:0:
64,192,35344,1,0,0:0:0:0:
192,192,35344,1,0,0:0:0:0:
448,192,35344,1,0,0:0:0:0:
448,192,35480,1,0,0:0:0:0:
192,192,35480,1,0,0:0:0:0:
320,192,35480,1,0,0:0:0:0:
64,192,35617,1,0,0:0:0:0:
192,192,35617,1,0,0:0:0:0:
64,192,35753,1,0,0:0:0:0:
448,192,35753,1,0,0:0:0:0:
320,192,35753,1,0,0:0:0:0:
192,192,35889,1,0,0:0:0:0:
448,192,35889,1,0,0:0:0:0:
64,192,35889,1,0,0:0:0:0:
320,192,36026,1,0,0:0:0:0:
64,192,36026,1,0,0:0:0:0:
192,192,36026,1,0,0:0:0:0:
448,192,36162,1,0,0:0:0:0:
192,192,36162,1,0,0:0:0:0:
320,192,36162,1,0,0:0:0:0:
64,192,36298,1,0,0:0:0:0:
192,192,36298,1,0,0:0:0:0:
320,192,36435,1,0,0:0:0:0:
64,192,36435,1,0,0:0:0:0:
448,192,36435,1,0,0:0:0:0:
192,192,36571,1,0,0:0:0:0:
448,192,36571,1,0,0:0:0:0:
64,192,36571,1,0,0:0:0:0:
320,192,36707,1,0,0:0:0:0:
192,192,36707,1,0,0:0:0:0:
320,192,36844,1,0,0:0:0:0:
64,192,36844,1,0,0:0:0:0:
192,192,36844,1,0,0:0:0:0:
320,192,36980,1,0,0:0:0:0:
192,192,36980,1,0,0:0:0:0:
448,192,36980,1,0,0:0:0:0:
64,192,37117,1,0,0:0:0:0:
320,192,37117,1,0,0:0:0:0:
448,192,37117,1,0,0:0:0:0:
320,192,37253,1,0,0:0:0:0:
192,192,37253,1,0,0:0:0:0:
192,192,37389,1,0,0:0:0:0:
320,192,37389,1,0,0:0:0:0:
64,192,37526,1,0,0:0:0:0:
448,192,37526,1,0,0:0:0:0:
192,192,37526,1,0,0:0:0:0:
320,192,37662,1,0,0:0:0:0:
192,192,37662,1,0,0:0:0:0:
192,192,37798,1,0,0:0:0:0:
448,192,37798,1,0,0:0:0:0:
320,192,37935,1,0,0:0:0:0:
64,192,37935,1,0,0:0:0:0:
192,192,38071,1,0,0:0:0:0:
64,192,38071,1,0,0:0:0:0:
448,192,38207,1,0,0:0:0:0:
320,192,38207,1,0,0:0:0:0:
448,192,38344,1,0,0:0:0:0:
192,192,38344,1,0,0:0:0:0:
64,192,38344,1,0,0:0:0:0:
192,192,38480,1,0,0:0:0:0:
320,192,38480,1,0,0:0:0:0:
64,192,38617,1,0,0:0:0:0:
448,192,38617,1,0,0:0:0:0:
320,192,38617,1,0,0:0:0:0:
64,192,38753,1,0,0:0:0:0:
192,192,38753,1,0,0:0:0:0:
448,192,38753,1,0,0:0:0:0:
320,192,38889,1,0,0:0:0:0:
64,192,38889,1,0,0:0:0:0:
320,192,39026,1,0,0:0:0:0:
192,192,39026,1,0,0:0:0:0:
448,192,39026,1,0,0:0:0:0:
64,192,39162,1,0,0:0:0:0:
320,192,39162,1,0,0:0:0:0:
192,192,39162,1,0,0:0:0:0:
64,192,39298,1,0,0:0:0:0:
320,192,39298,1,0,0:0:0:0:
448,192,39298,1,0,0:0:0:0:
320,192,39435,1,0,0:0:0:0:
192,192,39435,1,0,0:0:0:0:
192,192,39571,1,0,0:0:0:0:
64,192,39571,1,0,0:0:0:0:
448,192,39571,1,0,0:0:0:0:
64,192,39707,1,0,0:0:0:0:
320,192,39707,1,0,0:0:0:0:
448,192,39707,1,0,0:0:0:0:
192,192,39844,1,0,0:0:0:0:
320,192,39844,1,0,0:0:0:0:
64,192,39844,1,0,0:0:0:0:
320,192,39980,1,0,0:0:0:0:
448,192,39980,1,0,0:0:0:0:
192,192,40117,1,0,0:0:0:0:
64,192,40117,1,0,0:0:0:0:
448,192,40117,1,0,0:0:0:0:
448,192,40253,1,0,0:0:0:0:
64,192,40253,1,0,0:0:0:0:
320,192,40253,1,0,0:0:0:0:
320,192,40389,1,0,0:0:0:0:
448,192,40389,1,0,0:0:0:0:
192,192,40389,1,0,0:0:0:0:
192,192,40526,1,0,0:0:0:0:
320,192,40526,1,0,0:0:0:0:
64,192,40526,1,0,0:0:0:0:
320,192,40662,1,0,0:0:0:0:
448,192,40662,1,0,0:0:0:0:
64,192,40798,1,0,0:0:0:0:
448,192,40798,1,0,0:0:0:0:
192,192,40798,1,0,0:0:0:0:
448,192,40935,1,0,0:0:0:0:
64,192,40935,1,0,0:0:0:0:
320,192,40935,1,0,0:0:0:0:
320,192,41071,1,0,0:0:0:0:
192,192,41071,1,0,0:0:0:0:
320,192,41207,1,0,0:0:0:0:
448,192,41207,1,0,0:0:0:0:
192,192,41207,1,0,0:0:0:0:
64,192,41344,1,0,0:0:0:0:
320,192,41344,1,0,0:0:0:0:
192,192,41344,1,0,0:0:0:0:
64,192,41480,1,0,0:0:0:0:
192,192,41480,1,0,0:0:0:0:
448,192,41480,1,0,0:0:0:0:
192,192,41617,1,0,0:0:0:0:
320,192,41617,1,0,0:0:0:0:
64,192,41753,1,0,0:0:0:0:
320,192,41753,1,0,0:0:0:0:
192,192,41889,1,0,0:0:0:0:
320,192,41889,1,0,0:0:0:0:
448,192,41889,1,0,0:0:0:0:
64,192,41889,1,0,0:0:0:0:
64,192,42298,1,0,0:0:0:0:
192,192,42298,1,0,0:0:0:0:
320,192,42435,1,0,0:0:0:0:
448,192,42435,1,0,0:0:0:0:
192,192,42571,1,0,0:0:0:0:
64,192,42571,1,0,0:0:0:0:
448,192,42707,1,0,0:0:0:0:
320,192,42707,1,0,0:0:0:0:
64,192,42707,1,0,0:0:0:0:
192,192,42844,1,0,0:0:0:0:
320,192,42844,1,0,0:0:0:0:
192,192,42980,1,0,0:0:0:0:
64,192,42980,1,0,0:0:0:0:
448,192,42980,1,0,0:0:0:0:
64,192,43117,1,0,0:0:0:0:
320,192,43117,1,0,0:0:0:0:
448,192,43117,1,0,0:0:0:0:
448,192,43253,1,0,0:0:0:0:
192,192,43253,1,0,0:0:0:0:
64,192,43389,1,0,0:0:0:0:
320,192,43389,1,0,0:0:0:0:
192,192,43389,1,0,0:0:0:0:
320,192,43526,1,0,0:0:0:0:
192,192,43526,1,0,0:0:0:0:
448,192,43526,1,0,0:0:0:0:
64,192,43662,1,0,0:0:0:0:
192,192,43662,1,0,0:0:0:0:
448,192,43662,1,0,0:0:0:0:
320,192,43798,1,0,0:0:0:0:
192,192,43798,1,0,0:0:0:0:
64,192,43935,1,0,0:0:0:0:
448,192,43935,1,0,0:0:0:0:
320,192,43935,1,0,0:0:0:0:
64,192,44071,1,0,0:0:0:0:
192,192,44071,1,0,0:0:0:0:
448,192,44071,1,0,0:0:0:0:
448,192,44207,1,0,0:0:0:0:
192,192,44207,1,0,0:0:0:0:
320,192,44207,1,0,0:0:0:0:
64,192,44344,1,0,0:0:0:0:
192,192,44344,1,0,0:0:0:0:
64,192,44480,1,0,0:0:0:0:
448,192,44480,1,0,0:0:0:0:
320,192,44480,1,0,0:0:0:0:
192,192,44617,1,0,0:0:0:0:
448,192,44617,1,0,0:0:0:0:
64,192,44617,1,0,0:0:0:0:
320,192,44753,1,0,0:0:0:0:
64,192,44753,1,0,0:0:0:0:
192,192,44753,1,0,0:0:0:0:
320,192,44889,1,0,0:0:0:0:
448,192,44889,1,0,0:0:0:0:
64,192,45162,1,0,0:0:0:0:
64,192,45298,1,0,0:0:0:0:
320,192,45298,1,0,0:0:0:0:
448,192,45298,1,0,0:0:0:0:
192,192,45571,1,0,0:0:0:0:
320,192,45707,1,0,0:0:0:0:
192,192,45844,1,0,0:0:0:0:
64,192,45844,1,0,0:0:0:0:
448,192,45844,1,0,0:0:0:0:
320,192,45844,128,0,46389:0:0:0:0:
448,192,46389,128,0,46662:0:0:0:0:
64,192,46662,1,0,0:0:0:0:
192,192,46730,1,0,0:0:0:0:
320,192,46798,1,0,0:0:0:0:
448,192,46867,1,0,0:0:0:0:
64,192,46935,1,0,0:0:0:0:
192,192,46935,1,0,0:0:0:0:
320,192,46935,1,0,0:0:0:0:
64,192,47207,1,0,0:0:0:0:
192,192,47207,1,0,0:0:0:0:
320,192,47276,1,0,0:0:0:0:
448,192,47276,1,0,0:0:0:0:
192,192,47344,1,0,0:0:0:0:
64,192,47344,1,0,0:0:0:0:
448,192,47412,1,0,0:0:0:0:
320,192,47412,1,0,0:0:0:0:
64,192,47480,1,0,0:0:0:0:
192,192,47480,1,0,0:0:0:0:
320,192,47617,1,0,0:0:0:0:
448,192,47617,1,0,0:0:0:0:
320,192,47753,1,0,0:0:0:0:
448,192,47753,1,0,0:0:0:0:
320,192,47889,1,0,0:0:0:0:
448,192,47889,1,0,0:0:0:0:
64,192,48026,1,0,0:0:0:0:
320,192,48026,1,0,0:0:0:0:
448,192,48026,1,0,0:0:0:0:
64,192,48162,1,0,0:0:0:0:
192,192,48162,1,0,0:0:0:0:
192,192,48298,1,0,0:0:0:0:
64,192,48298,1,0,0:0:0:0:
64,192,48435,1,0,0:0:0:0:
192,192,48435,1,0,0:0:0:0:
64,192,48571,1,0,0:0:0:0:
192,192,48571,1,0,0:0:0:0:
448,192,48571,1,0,0:0:0:0:
320,192,48571,1,0,0:0:0:0:
320,192,48844,128,0,49117:0:0:0:0:
448,192,48844,1,0,0:0:0:0:
64,192,49117,1,0,0:0:0:0:
448,192,49117,1,0,0:0:0:0:
192,192,49185,1,0,0:0:0:0:
320,192,49253,1,0,0:0:0:0:
448,192,49321,1,0,0:0:0:0:
320,192,49389,1,0,0:0:0:0:
192,192,49457,1,0,0:0:0:0:
64,192,49526,1,0,0:0:0:0:
192,192,49594,1,0,0:0:0:0:
64,192,49662,1,0,0:0:0:0:
320,192,49662,1,0,0:0:0:0:
448,192,49662,1,0,0:0:0:0:
320,192,49935,1,0,0:0:0:0:
192,192,49935,1,0,0:0:0:0:
192,192,50207,1,0,0:0:0:0:
64,192,50207,1,0,0:0:0:0:
448,192,50207,1,0,0:0:0:0:
320,192,50344,1,0,0:0:0:0:
192,192,50344,1,0,0:0:0:0:
192,192,50480,1,0,0:0:0:0:
320,192,50480,1,0,0:0:0:0:
320,192,50617,1,0,0:0:0:0:
192,192,50617,1,0,0:0:0:0:
320,192,50753,1,0,0:0:0:0:
64,192,50753,1,0,0:0:0:0:
448,192,50753,1,0,0:0:0:0:
192,192,50753,128,0,51298:0:0:0:0:
64,192,51298,128,0,51503:0:0:0:0:
320,192,51298,128,0,51503:0:0:0:0:
448,192,51298,128,0,51503:0:0:0:0:
64,192,51571,128,0,51776:0:0:0:0:
192,192,51571,128,0,51776:0:0:0:0:
448,192,51571,128,0,51776:0:0:0:0:
64,192,51844,1,0,0:0:0:0:
192,192,51844,1,0,0:0:0:0:
320,192,51844,1,0,0:0:0:0:
448,192,51844,1,0,0:0:0:0:
64,192,51980,1,0,0:0:0:0:
192,192,51980,1,0,0:0:0:0:
192,192,52117,1,0,0:0:0:0:
64,192,52117,1,0,0:0:0:0:
64,192,52253,1,0,0:0:0:0:
192,192,52253,1,0,0:0:0:0:
64,192,52389,1,0,0:0:0:0:
320,192,52389,1,0,0:0:0:0:
448,192,52389,1,0,0:0:0:0:
192,192,52662,1,0,0:0:0:0:
448,192,52662,1,0,0:0:0:0:
320,192,52798,1,0,0:0:0:0:
64,192,52798,1,0,0:0:0:0:
448,192,52935,1,0,0:0:0:0:
64,192,52935,1,0,0:0:0:0:
192,192,52935,1,0,0:0:0:0:
320,192,53071,1,0,0:0:0:0:
192,192,53071,1,0,0:0:0:0:
64,192,53207,1,0,0:0:0:0:
448,192,53207,1,0,0:0:0:0:
192,192,53344,1,0,0:0:0:0:
320,192,53344,1,0,0:0:0:0:
64,192,53480,1,0,0:0:0:0:
320,192,53480,1,0,0:0:0:0:
448,192,53480,1,0,0:0:0:0:
192,192,53617,1,0,0:0:0:0:
320,192,53685,1,0,0:0:0:0:
448,192,53753,1,0,0:0:0:0:
320,192,53821,1,0,0:0:0:0:
192,192,53889,1,0,0:0:0:0:
64,192,53957,1,0,0:0:0:0:
320,192,54026,1,0,0:0:0:0:
448,192,54026,1,0,0:0:0:0:
192,192,54162,1,0,0:0:0:0:
320,192,54162,1,0,0:0:0:0:
64,192,54298,1,0,0:0:0:0:
320,192,54298,1,0,0:0:0:0:
192,192,54435,1,0,0:0:0:0:
448,192,54435,1,0,0:0:0:0:
320,192,54571,1,0,0:0:0:0:
448,192,54571,1,0,0:0:0:0:
192,192,54707,1,0,0:0:0:0:
64,192,54844,1,0,0:0:0:0:
320,192,54980,1,0,0:0:0:0:
64,192,55117,1,0,0:0:0:0:
192,192,55117,1,0,0:0:0:0:
320,192,55117,1,0,0:0:0:0:
448,192,55117,1,0,0:0:0:0:
320,192,55253,1,0,0:0:0:0:
192,192,55253,1,0,0:0:0:0:
64,192,55389,1,0,0:0:0:0:
320,192,55389,1,0,0:0:0:0:
192,192,55526,1,0,0:0:0:0:
64,192,55526,1,0,0:0:0:0:
448,192,55526,1,0,0:0:0:0:
64,192,55662,1,0,0:0:0:0:
448,192,55662,1,0,0:0:0:0:
320,192,55662,1,0,0:0:0:0:
192,192,55662,128,0,55935:0:0:0:0:
320,192,55935,1,0,0:0:0:0:
448,192,55935,1,0,0:0:0:0:
448,192,56071,1,0,0:0:0:0:
320,192,56071,1,0,0:0:0:0:
64,192,56207,1,0,0:0:0:0:
192,192,56207,1,0,0:0:0:0:
448,192,56207,1,0,0:0:0:0:
320,192,56344,1,0,0:0:0:0:
192,192,56480,1,0,0:0:0:0:
64,192,56480,1,0,0:0:0:0:
64,192,56617,1,0,0:0:0:0:
192,192,56617,1,0,0:0:0:0:
64,192,56753,1,0,0:0:0:0:
320,192,56753,1,0,0:0:0:0:
448,192,56753,1,0,0:0:0:0:
320,192,56889,1,0,0:0:0:0:
448,192,56889,1,0,0:0:0:0:
448,192,57026,1,0,0:0:0:0:
320,192,57026,1,0,0:0:0:0:
320,192,57162,1,0,0:0:0:0:
448,192,57162,1,0,0:0:0:0:
64,192,57298,1,0,0:0:0:0:
192,192,57298,1,0,0:0:0:0:
448,192,57298,1,0,0:0:0:0:
320,192,57435,1,0,0:0:0:0:
192,192,57571,128,0,57844:0:0:0:0:
320,192,57844,1,0,0:0:0:0:
64,192,57844,1,0,0:0:0:0:
448,192,57980,1,0,0:0:0:0:
320,192,58048,1,0,0:0:0:0:
192,192,58117,1,0,0:0:0:0:
64,192,58185,1,0,0:0:0:0:
192,192,58253,1,0,0:0:0:0:
320,192,58321,1,0,0:0:0:0:
64,192,58389,1,0,0:0:0:0:
192,192,58389,1,0,0:0:0:0:
448,192,58389,128,0,58662:0:0:0:0:
320,192,58662,128,0,58935:0:0:0:0:
64,192,58935,1,0,0:0:0:0:
448,192,58935,1,0,0:0:0:0:
192,192,59071,1,0,0:0:0:0:
64,192,59071,1,0,0:0:0:0:
64,192,59207,1,0,0:0:0:0:
192,192,59207,1,0,0:0:0:0:
192,192,59344,1,0,0:0:0:0:
64,192,59344,1,0,0:0:0:0:
448,192,59480,128,0,60026:0:0:0:0:
320,192,59480,1,0,0:0:0:0:
64,192,59480,1,0,0:0:0:0:
192,192,59889,1,0,0:0:0:0:
320,192,59889,1,0,0:0:0:0:
64,192,60026,1,0,0:0:0:0:
320,192,60026,1,0,0:0:0:0:
192,192,60298,1,0,0:0:0:0:
64,192,60298,1,0,0:0:0:0:
448,192,60298,1,0,0:0:0:0:
64,192,60571,1,0,0:0:0:0:
192,192,60571,1,0,0:0:0:0:
448,192,60571,1,0,0:0:0:0:
448,192,60707,1,0,0:0:0:0:
320,192,60707,1,0,0:0:0:0:
192,192,60844,1,0,0:0:0:0:
64,192,60844,1,0,0:0:0:0:
320,192,60844,1,0,0:0:0:0:
448,192,60844,1,0,0:0:0:0:
448,192,60980,1,0,0:0:0:0:
320,192,60980,1,0,0:0:0:0:
320,192,61117,1,0,0:0:0:0:
448,192,61117,1,0,0:0:0:0:
64,192,61117,1,0,0:0:0:0:
448,192,61389,1,0,0:0:0:0:
192,192,61389,1,0,0:0:0:0:
64,192,61389,1,0,0:0:0:0:
320,192,61662,1,0,0:0:0:0:
448,192,61662,1,0,0:0:0:0:
64,192,61662,1,0,0:0:0:0:
448,192,61935,1,0,0:0:0:0:
192,192,61935,1,0,0:0:0:0:
64,192,61935,1,0,0:0:0:0:
448,192,62207,1,0,0:0:0:0:
320,192,62207,1,0,0:0:0:0:
64,192,62344,1,0,0:0:0:0:
192,192,62344,1,0,0:0:0:0:
448,192,62480,1,0,0:0:0:0:
320,192,62480,1,0,0:0:0:0:
192,192,62617,1,0,0:0:0:0:
64,192,62617,1,0,0:0:0:0:
320,192,62753,1,0,0:0:0:0:
448,192,62753,1,0,0:0:0:0:
64,192,62889,1,0,0:0:0:0:
192,192,62889,1,0,0:0:0:0:
320,192,63026,1,0,0:0:0:0:
448,192,63026,1,0,0:0:0:0:
64,192,63162,1,0,0:0:0:0:
192,192,63162,1,0,0:0:0:0:
320,192,63298,1,0,0:0:0:0:
448,192,63298,1,0,0:0:0:0:
192,192,63367,1,0,0:0:0:0:
64,192,63435,1,0,0:0:0:0:
320,192,63503,1,0,0:0:0:0:
192,192,63571,1,0,0:0:0:0:
320,192,63639,1,0,0:0:0:0:
448,192,63707,1,0,0:0:0:0:
64,192,63707,1,0,0:0:0:0:
320,192,63776,1,0,0:0:0:0:
192,192,63844,1,0,0:0:0:0:
64,192,63912,1,0,0:0:0:0:
192,192,63980,1,0,0:0:0:0:
320,192,64048,1,0,0:0:0:0:
448,192,64117,1,0,0:0:0:0:
192,192,64185,1,0,0:0:0:0:
320,192,64253,1,0,0:0:0:0:
448,192,64321,1,0,0:0:0:0:
64,192,64389,128,0,64457:0:0:0:0:
320,192,64389,1,0,0:0:0:0:
192,192,64389,1,0,0:0:0:0:
192,192,64526,128,0,64594:0:0:0:0:
320,192,64798,128,0,64867:0:0:0:0:
448,192,65071,128,0,65139:0:0:0:0:
320,192,65207,128,0,65276:0:0:0:0:
192,192,65344,128,0,65412:0:0:0:0:
448,192,65617,128,0,65685:0:0:0:0:
192,192,65753,128,0,65821:0:0:0:0:
320,192,65889,128,0,65957:0:0:0:0:
64,192,66026,128,0,66094:0:0:0:0:
320,192,66162,128,0,66230:0:0:0:0:
192,192,66298,128,0,66367:0:0:0:0:
448,192,66298,1,0,0:0:0:0:
64,192,66298,1,0,0:0:0:0:
448,192,66435,128,0,66503:0:0:0:0:
64,192,66571,128,0,66639:0:0:0:0:
192,192,66571,1,0,0:0:0:0:
320,192,66571,1,0,0:0:0:0:
320,192,66707,128,0,66776:0:0:0:0:
448,192,66980,128,0,67048:0:0:0:0:
192,192,67253,128,0,67321:0:0:0:0:
320,192,67389,128,0,67457:0:0:0:0:
448,192,67526,128,0,67594:0:0:0:0:
320,192,67662,128,0,67730:0:0:0:0:
192,192,67662,1,0,0:0:0:0:
64,192,67662,1,0,0:0:0:0:
64,192,67798,128,0,67867:0:0:0:0:
192,192,67935,128,0,68003:0:0:0:0:
320,192,68071,128,0,68139:0:0:0:0:
64,192,68071,1,0,0:0:0:0:
448,192,68071,1,0,0:0:0:0:
448,192,68207,128,0,68753:0:0:0:0:
192,192,68480,1,0,0:0:0:0:
320,192,68480,1,0,0:0:0:0:
64,192,68753,128,0,68821:0:0:0:0:
320,192,68753,1,0,0:0:0:0:
192,192,68753,1,0,0:0:0:0:
192,192,68889,128,0,68957:0:0:0:0:
320,192,69162,128,0,69230:0:0:0:0:
448,192,69435,128,0,69503:0:0:0:0:
320,192,69571,128,0,69639:0:0:0:0:
192,192,69707,128,0,69776:0:0:0:0:
448,192,69980,128,0,70048:0:0:0:0:
192,192,70117,128,0,70185:0:0:0:0:
320,192,70253,128,0,70321:0:0:0:0:
64,192,70389,128,0,70457:0:0:0:0:
320,192,70526,128,0,70594:0:0:0:0:
448,192,70662,1,0,0:0:0:0:
192,192,70662,128,0,70730:0:0:0:0:
64,192,70662,1,0,0:0:0:0:
448,192,70798,128,0,70867:0:0:0:0:
64,192,70935,128,0,71003:0:0:0:0:
192,192,70935,1,0,0:0:0:0:
320,192,70935,1,0,0:0:0:0:
320,192,71071,128,0,71139:0:0:0:0:
448,192,71344,128,0,71412:0:0:0:0:
192,192,71617,128,0,71685:0:0:0:0:
320,192,71753,128,0,71821:0:0:0:0:
448,192,71889,128,0,71957:0:0:0:0:
64,192,72026,1,0,0:0:0:0:
192,192,72026,1,0,0:0:0:0:
320,192,72026,128,0,72094:0:0:0:0:
64,192,72162,128,0,72230:0:0:0:0:
192,192,72298,128,0,72367:0:0:0:0:
320,192,72298,1,0,0:0:0:0:
448,192,72298,1,0,0:0:0:0:
320,192,72435,128,0,72503:0:0:0:0:
448,192,72707,128,0,73117:0:0:0:0:
192,192,72707,1,0,0:0:0:0:
320,192,72707,1,0,0:0:0:0:
64,192,73117,1,0,0:0:0:0:
320,192,73117,1,0,0:0:0:0:
192,192,73117,1,0,0:0:0:0:
448,192,73253,1,0,0:0:0:0:
448,192,73526,1,0,0:0:0:0:
448,192,73798,1,0,0:0:0:0:
320,192,73935,1,0,0:0:0:0:
192,192,74071,1,0,0:0:0:0:
64,192,74207,1,0,0:0:0:0:
320,192,74207,1,0,0:0:0:0:
448,192,74207,1,0,0:0:0:0:
64,192,74344,1,0,0:0:0:0:
64,192,74617,1,0,0:0:0:0:
64,192,74889,1,0,0:0:0:0:
192,192,75026,1,0,0:0:0:0:
320,192,75162,1,0,0:0:0:0:
192,192,75298,1,0,0:0:0:0:
64,192,75298,1,0,0:0:0:0:
448,192,75298,1,0,0:0:0:0:
448,192,75435,1,0,0:0:0:0:
448,192,75707,1,0,0:0:0:0:
448,192,75980,1,0,0:0:0:0:
320,192,76117,1,0,0:0:0:0:
192,192,76253,1,0,0:0:0:0:
320,192,76389,1,0,0:0:0:0:
448,192,76389,1,0,0:0:0:0:
64,192,76389,1,0,0:0:0:0:
64,192,76526,1,0,0:0:0:0:
64,192,76798,1,0,0:0:0:0:
64,192,77071,1,0,0:0:0:0:
448,192,77071,1,0,0:0:0:0:
320,192,77071,1,0,0:0:0:0:
192,192,77207,128,0,77480:0:0:0:0:
64,192,77480,1,0,0:0:0:0:
320,192,77480,1,0,0:0:0:0:
448,192,77480,1,0,0:0:0:0:
320,192,77753,128,0,78026:0:0:0:0:
448,192,77753,128,0,78026:0:0:0:0:
64,192,78026,1,0,0:0:0:0:
192,192,78026,1,0,0:0:0:0:
192,192,78298,128,0,78571:0:0:0:0:
320,192,78298,128,0,78571:0:0:0:0:
448,192,78571,1,0,0:0:0:0:
64,192,78571,1,0,0:0:0:0:
64,192,78844,128,0,78980:0:0:0:0:
192,192,78844,128,0,78980:0:0:0:0:
320,192,78844,128,0,78980:0:0:0:0:
448,192,78844,128,0,78980:0:0:0:0:
64,192,79117,1,0,0:0:0:0:
192,192,79117,1,0,0:0:0:0:
320,192,79117,1,0,0:0:0:0:
448,192,79117,1,0,0:0:0:0:
64,192,79389,128,0,79526:0:0:0:0:
192,192,79389,128,0,79526:0:0:0:0:
320,192,79389,128,0,79526:0:0:0:0:
448,192,79389,128,0,79526:0:0:0:0:
64,192,79662,1,0,0:0:0:0:
192,192,79662,1,0,0:0:0:0:
320,192,79662,1,0,0:0:0:0:
448,192,79662,1,0,0:0:0:0:
64,192,79798,1,0,0:0:0:0:
192,192,79867,1,0,0:0:0:0:
320,192,79935,1,0,0:0:0:0:
448,192,80003,1,0,0:0:0:0:
64,192,80071,1,0,0:0:0:0:
192,192,80139,1,0,0:0:0:0:
320,192,80207,1,0,0:0:0:0:
448,192,80276,1,0,0:0:0:0:
64,192,80344,1,0,0:0:0:0:
192,192,80412,1,0,0:0:0:0:
320,192,80480,1,0,0:0:0:0:
448,192,80548,1,0,0:0:0:0:
320,192,80617,1,0,0:0:0:0:
192,192,80685,1,0,0:0:0:0:
320,192,80753,1,0,0:0:0:0:
448,192,80753,1,0,0:0:0:0:
192,192,80889,1,0,0:0:0:0:
448,192,80889,1,0,0:0:0:0:
64,192,81026,1,0,0:0:0:0:
320,192,81026,1,0,0:0:0:0:
192,192,81162,1,0,0:0:0:0:
64,192,81162,1,0,0:0:0:0:
448,192,81298,1,0,0:0:0:0:
320,192,81367,1,0,0:0:0:0:
192,192,81435,1,0,0:0:0:0:
64,192,81503,1,0,0:0:0:0:
320,192,81571,128,0,81844:0:0:0:0:
448,192,81571,128,0,81844:0:0:0:0:
192,192,81844,1,0,0:0:0:0:
64,192,81844,1,0,0:0:0:0:
64,192,81980,1,0,0:0:0:0:
320,192,81980,1,0,0:0:0:0:
448,192,81980,1,0,0:0:0:0:
192,192,82117,1,0,0:0:0:0:
320,192,82117,1,0,0:0:0:0:
64,192,82253,1,0,0:0:0:0:
192,192,82253,1,0,0:0:0:0:
448,192,82253,1,0,0:0:0:0:
320,192,82389,1,0,0:0:0:0:
448,192,82389,1,0,0:0:0:0:
448,192,82526,1,0,0:0:0:0:
192,192,82526,1,0,0:0:0:0:
320,192,82526,1,0,0:0:0:0:
320,192,82662,1,0,0:0:0:0:
64,192,82662,1,0,0:0:0:0:
192,192,82662,1,0,0:0:0:0:
448,192,82798,1,0,0:0:0:0:
64,192,82798,1,0,0:0:0:0:
192,192,82798,1,0,0:0:0:0:
320,192,82935,1,0,0:0:0:0:
192,192,82935,1,0,0:0:0:0:
64,192,83071,1,0,0:0:0:0:
320,192,83071,1,0,0:0:0:0:
448,192,83071,1,0,0:0:0:0:
192,192,83207,1,0,0:0:0:0:
320,192,83207,1,0,0:0:0:0:
448,192,83207,1,0,0:0:0:0:
192,192,83344,1,0,0:0:0:0:
64,192,83344,1,0,0:0:0:0:
448,192,83344,1,0,0:0:0:0:
320,192,83480,1,0,0:0:0:0:
192,192,83480,1,0,0:0:0:0:
64,192,83480,1,0,0:0:0:0:
448,192,83617,1,0,0:0:0:0:
64,192,83617,1,0,0:0:0:0:
320,192,83617,1,0,0:0:0:0:
64,192,83753,1,0,0:0:0:0:
192,192,83753,1,0,0:0:0:0:
320,192,83753,1,0,0:0:0:0:
192,192,83889,1,0,0:0:0:0:
320,192,83889,1,0,0:0:0:0:
448,192,83889,1,0,0:0:0:0:
192,192,84026,1,0,0:0:0:0:
64,192,84026,1,0,0:0:0:0:
448,192,84026,1,0,0:0:0:0:
192,192,84162,1,0,0:0:0:0:
320,192,84162,1,0,0:0:0:0:
64,192,84162,1,0,0:0:0:0:
192,192,84298,1,0,0:0:0:0:
320,192,84298,1,0,0:0:0:0:
448,192,84435,1,0,0:0:0:0:
64,192,84435,1,0,0:0:0:0:
320,192,84435,1,0,0:0:0:0:
320,192,84571,1,0,0:0:0:0:
192,192,84571,1,0,0:0:0:0:
448,192,84707,1,0,0:0:0:0:
192,192,84707,1,0,0:0:0:0:
64,192,84707,1,0,0:0:0:0:
320,192,84844,1,0,0:0:0:0:
64,192,84844,1,0,0:0:0:0:
448,192,84844,1,0,0:0:0:0:
192,192,84980,1,0,0:0:0:0:
320,192,84980,1,0,0:0:0:0:
448,192,84980,1,0,0:0:0:0:
64,192,85117,1,0,0:0:0:0:
320,192,85117,1,0,0:0:0:0:
192,192,85117,1,0,0:0:0:0:
192,192,85253,1,0,0:0:0:0:
448,192,85253,1,0,0:0:0:0:
64,192,85253,1,0,0:0:0:0:
320,192,85389,1,0,0:0:0:0:
64,192,85389,1,0,0:0:0:0:
448,192,85389,1,0,0:0:0:0:
448,192,85526,1,0,0:0:0:0:
192,192,85526,1,0,0:0:0:0:
320,192,85526,1,0,0:0:0:0:
320,192,85662,1,0,0:0:0:0:
64,192,85662,1,0,0:0:0:0:
192,192,85662,1,0,0:0:0:0:
320,192,85798,1,0,0:0:0:0:
448,192,85798,1,0,0:0:0:0:
64,192,85935,1,0,0:0:0:0:
192,192,85935,1,0,0:0:0:0:
64,192,86071,1,0,0:0:0:0:
320,192,86071,1,0,0:0:0:0:
64,192,86207,1,0,0:0:0:0:
320,192,86207,1,0,0:0:0:0:
448,192,86207,1,0,0:0:0:0:
192,192,86344,1,0,0:0:0:0:
448,192,86344,1,0,0:0:0:0:
64,192,86344,1,0,0:0:0:0:
192,192,86480,1,0,0:0:0:0:
320,192,86480,1,0,0:0:0:0:
64,192,86617,1,0,0:0:0:0:
320,192,86617,1,0,0:0:0:0:
448,192,86617,1,0,0:0:0:0:
64,192,86753,1,0,0:0:0:0:
192,192,86753,1,0,0:0:0:0:
192,192,86889,1,0,0:0:0:0:
64,192,86889,1,0,0:0:0:0:
320,192,86889,1,0,0:0:0:0:
448,192,87026,1,0,0:0:0:0:
192,192,87026,1,0,0:0:0:0:
320,192,87026,1,0,0:0:0:0:
320,192,87162,1,0,0:0:0:0:
64,192,87162,1,0,0:0:0:0:
448,192,87162,1,0,0:0:0:0:
192,192,87298,1,0,0:0:0:0:
320,192,87298,1,0,0:0:0:0:
192,192,87435,1,0,0:0:0:0:
64,192,87435,1,0,0:0:0:0:
448,192,87435,1,0,0:0:0:0:
192,192,87571,1,0,0:0:0:0:
64,192,87571,1,0,0:0:0:0:
320,192,87571,1,0,0:0:0:0:
448,192,87707,1,0,0:0:0:0:
320,192,87707,1,0,0:0:0:0:
64,192,87707,1,0,0:0:0:0:
320,192,87844,1,0,0:0:0:0:
192,192,87844,1,0,0:0:0:0:
448,192,87844,1,0,0:0:0:0:
64,192,87980,1,0,0:0:0:0:
448,192,87980,1,0,0:0:0:0:
192,192,87980,1,0,0:0:0:0:
448,192,88117,1,0,0:0:0:0:
192,192,88117,1,0,0:0:0:0:
320,192,88117,1,0,0:0:0:0:
64,192,88253,1,0,0:0:0:0:
192,192,88253,1,0,0:0:0:0:
320,192,88253,1,0,0:0:0:0:
64,192,88389,1,0,0:0:0:0:
448,192,88389,1,0,0:0:0:0:
320,192,88389,1,0,0:0:0:0:
448,192,88526,1,0,0:0:0:0:
320,192,88526,1,0,0:0:0:0:
192,192,88526,1,0,0:0:0:0:
320,192,88662,1,0,0:0:0:0:
192,192,88662,1,0,0:0:0:0:
192,192,88798,1,0,0:0:0:0:
448,192,88798,1,0,0:0:0:0:
64,192,88798,1,0,0:0:0:0:
320,192,88935,1,0,0:0:0:0:
192,192,88935,1,0,0:0:0:0:
64,192,89071,1,0,0:0:0:0:
448,192,89071,1,0,0:0:0:0:
320,192,89071,1,0,0:0:0:0:
448,192,89207,1,0,0:0:0:0:
192,192,89207,1,0,0:0:0:0:
64,192,89207,1,0,0:0:0:0:
64,192,89344,1,0,0:0:0:0:
320,192,89344,1,0,0:0:0:0:
192,192,89344,1,0,0:0:0:0:
320,192,89480,1,0,0:0:0:0:
192,192,89480,1,0,0:0:0:0:
448,192,89480,1,0,0:0:0:0:
64,192,89617,1,0,0:0:0:0:
320,192,89617,1,0,0:0:0:0:
448,192,89617,1,0,0:0:0:0:
64,192,89753,1,0,0:0:0:0:
448,192,89753,1,0,0:0:0:0:
192,192,89753,1,0,0:0:0:0:
192,192,89889,1,0,0:0:0:0:
320,192,89889,1,0,0:0:0:0:
64,192,89889,1,0,0:0:0:0:
192,192,90026,1,0,0:0:0:0:
448,192,90026,1,0,0:0:0:0:
320,192,90026,1,0,0:0:0:0:
192,192,90162,1,0,0:0:0:0:
64,192,90162,1,0,0:0:0:0:
448,192,90298,1,0,0:0:0:0:
320,192,90298,1,0,0:0:0:0:
192,192,90435,1,0,0:0:0:0:
448,192,90435,1,0,0:0:0:0:
192,192,90571,1,0,0:0:0:0:
64,192,90571,1,0,0:0:0:0:
448,192,90707,1,0,0:0:0:0:
64,192,90707,1,0,0:0:0:0:
320,192,90707,1,0,0:0:0:0:
192,192,90707,1,0,0:0:0:0:
192,192,90844,1,0,0:0:0:0:
320,192,90844,1,0,0:0:0:0:
64,192,90980,1,0,0:0:0:0:
192,192,90980,1,0,0:0:0:0:
448,192,90980,1,0,0:0:0:0:
320,192,90980,1,0,0:0:0:0:
320,192,91117,1,0,0:0:0:0:
448,192,91117,1,0,0:0:0:0:
192,192,91253,1,0,0:0:0:0:
448,192,91253,1,0,0:0:0:0:
320,192,91253,1,0,0:0:0:0:
64,192,91253,1,0,0:0:0:0:
448,192,91389,1,0,0:0:0:0:
320,192,91389,1,0,0:0:0:0:
64,192,91389,1,0,0:0:0:0:
64,192,91526,1,0,0:0:0:0:
448,192,91526,1,0,0:0:0:0:
192,192,91526,1,0,0:0:0:0:
320,192,91526,1,0,0:0:0:0:
192,192,91662,1,0,0:0:0:0:
320,192,91662,1,0,0:0:0:0:
64,192,91798,1,0,0:0:0:0:
448,192,91798,1,0,0:0:0:0:
320,192,91798,1,0,0:0:0:0:
192,192,91798,1,0,0:0:0:0:
192,192,91935,1,0,0:0:0:0:
448,192,91935,1,0,0:0:0:0:
64,192,91935,1,0,0:0:0:0:
448,192,92071,1,0,0:0:0:0:
192,192,92071,1,0,0:0:0:0:
64,192,92071,1,0,0:0:0:0:
320,192,92071,1,0,0:0:0:0:
64,192,92207,1,0,0:0:0:0:
320,192,92207,1,0,0:0:0:0:
192,192,92207,1,0,0:0:0:0:
320,192,92344,1,0,0:0:0:0:
64,192,92344,1,0,0:0:0:0:
448,192,92344,1,0,0:0:0:0:
192,192,92344,1,0,0:0:0:0:
448,192,92480,1,0,0:0:0:0:
320,192,92480,1,0,0:0:0:0:
64,192,92480,1,0,0:0:0:0:
192,192,92617,1,0,0:0:0:0:
320,192,92617,1,0,0:0:0:0:
448,192,92617,1,0,0:0:0:0:
64,192,92617,1,0,0:0:0:0:
192,192,92753,1,0,0:0:0:0:
64,192,92753,1,0,0:0:0:0:
448,192,92753,1,0,0:0:0:0:
320,192,92889,1,0,0:0:0:0:
192,192,92889,1,0,0:0:0:0:
64,192,92889,1,0,0:0:0:0:
448,192,92889,1,0,0:0:0:0:
320,192,93026,1,0,0:0:0:0:
192,192,93026,1,0,0:0:0:0:
448,192,93162,1,0,0:0:0:0:
64,192,93162,1,0,0:0:0:0:
320,192,93162,1,0,0:0:0:0:
192,192,93162,1,0,0:0:0:0:
320,192,93298,1,0,0:0:0:0:
192,192,93298,1,0,0:0:0:0:
192,192,93435,1,0,0:0:0:0:
64,192,93435,1,0,0:0:0:0:
448,192,93435,1,0,0:0:0:0:
320,192,93435,1,0,0:0:0:0:
448,192,93571,1,0,0:0:0:0:
192,192,93571,1,0,0:0:0:0:
64,192,93571,1,0,0:0:0:0:
320,192,93707,1,0,0:0:0:0:
192,192,93707,1,0,0:0:0:0:
448,192,93707,1,0,0:0:0:0:
64,192,93707,1,0,0:0:0:0:
64,192,93844,1,0,0:0:0:0:
320,192,93844,1,0,0:0:0:0:
448,192,93844,1,0,0:0:0:0:
64,192,93980,1,0,0:0:0:0:
192,192,93980,1,0,0:0:0:0:
448,192,93980,1,0,0:0:0:0:
320,192,93980,1,0,0:0:0:0:
192,192,94117,1,0,0:0:0:0:
64,192,94117,1,0,0:0:0:0:
448,192,94117,1,0,0:0:0:0:
448,192,94253,1,0,0:0:0:0:
192,192,94253,1,0,0:0:0:0:
320,192,94253,1,0,0:0:0:0:
64,192,94253,1,0,0:0:0:0:
448,192,94389,1,0,0:0:0:0:
64,192,94389,1,0,0:0:0:0:
320,192,94389,1,0,0:0:0:0:
448,192,94526,1,0,0:0:0:0:
320,192,94526,1,0,0:0:0:0:
64,192,94526,1,0,0:0:0:0:
192,192,94526,1,0,0:0:0:0:
320,192,94662,1,0,0:0:0:0:
192,192,94662,1,0,0:0:0:0:
64,192,94798,1,0,0:0:0:0:
448,192,94798,1,0,0:0:0:0:
320,192,94798,1,0,0:0:0:0:
192,192,94798,1,0,0:0:0:0:
448,192,94935,1,0,0:0:0:0:
320,192,94935,1,0,0:0:0:0:
64,192,95071,1,0,0:0:0:0:
320,192,95071,1,0,0:0:0:0:
192,192,95071,1,0,0:0:0:0:
448,192,95071,1,0,0:0:0:0:
192,192,95207,1,0,0:0:0:0:
320,192,95207,1,0,0:0:0:0:
448,192,95344,1,0,0:0:0:0:
64,192,95344,1,0,0:0:0:0:
320,192,95344,1,0,0:0:0:0:
192,192,95344,1,0,0:0:0:0:
192,192,95480,1,0,0:0:0:0:
64,192,95480,1,0,0:0:0:0:
320,192,95617,1,0,0:0:0:0:
448,192,95617,1,0,0:0:0:0:
64,192,95617,1,0,0:0:0:0:
192,192,95617,1,0,0:0:0:0:
448,192,95753,1,0,0:0:0:0:
192,192,95753,1,0,0:0:0:0:
64,192,95753,1,0,0:0:0:0:
192,192,95889,1,0,0:0:0:0:
448,192,95889,1,0,0:0:0:0:
64,192,95889,1,0,0:0:0:0:
320,192,95889,1,0,0:0:0:0:
320,192,96026,1,0,0:0:0:0:
192,192,96026,1,0,0:0:0:0:
448,192,96162,1,0,0:0:0:0:
192,192,96162,1,0,0:0:0:0:
320,192,96162,1,0,0:0:0:0:
64,192,96162,1,0,0:0:0:0:
64,192,96298,1,0,0:0:0:0:
448,192,96298,1,0,0:0:0:0:
320,192,96298,1,0,0:0:0:0:
64,192,96435,1,0,0:0:0:0:
320,192,96435,1,0,0:0:0:0:
448,192,96435,1,0,0:0:0:0:
192,192,96435,1,0,0:0:0:0:
448,192,96571,1,0,0:0:0:0:
320,192,96571,1,0,0:0:0:0:
192,192,96571,1,0,0:0:0:0:
192,192,96707,1,0,0:0:0:0:
448,192,96707,1,0,0:0:0:0:
320,192,96707,1,0,0:0:0:0:
64,192,96707,1,0,0:0:0:0:
64,192,96844,1,0,0:0:0:0:
448,192,96844,1,0,0:0:0:0:
192,192,96844,1,0,0:0:0:0:
192,192,96980,1,0,0:0:0:0:
448,192,96980,1,0,0:0:0:0:
64,192,96980,1,0,0:0:0:0:
320,192,96980,1,0,0:0:0:0:
448,192,97117,1,0,0:0:0:0:
64,192,97117,1,0,0:0:0:0:
320,192,97117,1,0,0:0:0:0:
448,192,97253,1,0,0:0:0:0:
64,192,97253,1,0,0:0:0:0:
192,192,97253,1,0,0:0:0:0:
320,192,97253,1,0,0:0:0:0:
192,192,97389,1,0,0:0:0:0:
320,192,97389,1,0,0:0:0:0:
192,192,97526,1,0,0:0:0:0:
320,192,97526,1,0,0:0:0:0:
64,192,97526,1,0,0:0:0:0:
448,192,97526,1,0,0:0:0:0:
320,192,97662,1,0,0:0:0:0:
192,192,97662,1,0,0:0:0:0:
320,192,97798,1,0,0:0:0:0:
192,192,97798,1,0,0:0:0:0:
448,192,97798,1,0,0:0:0:0:
64,192,97798,1,0,0:0:0:0:
448,192,97935,1,0,0:0:0:0:
64,192,97935,1,0,0:0:0:0:
320,192,97935,1,0,0:0:0:0:
192,192,98071,1,0,0:0:0:0:
64,192,98071,1,0,0:0:0:0:
320,192,98071,1,0,0:0:0:0:
448,192,98071,1,0,0:0:0:0:
192,192,98207,1,0,0:0:0:0:
64,192,98207,1,0,0:0:0:0:
320,192,98276,1,0,0:0:0:0:
448,192,98276,1,0,0:0:0:0:
192,192,98344,1,0,0:0:0:0:
64,192,98344,1,0,0:0:0:0:
320,192,98412,1,0,0:0:0:0:
448,192,98412,1,0,0:0:0:0:
64,192,98480,1,0,0:0:0:0:
192,192,98480,1,0,0:0:0:0:
320,192,98548,1,0,0:0:0:0:
448,192,98548,1,0,0:0:0:0:
64,192,98617,1,0,0:0:0:0:
192,192,98617,1,0,0:0:0:0:
448,192,98685,1,0,0:0:0:0:
320,192,98685,1,0,0:0:0:0:
64,192,98889,1,0,0:0:0:0:
192,192,98889,1,0,0:0:0:0:
320,192,98889,1,0,0:0:0:0:
448,192,98889,1,0,0:0:0:0:
64,192,99298,1,0,0:0:0:0:
192,192,99298,1,0,0:0:0:0:
320,192,99298,1,0,0:0:0:0:
448,192,99298,1,0,0:0:0:0:
64,192,99571,1,0,0:0:0:0:
64,192,99844,1,0,0:0:0:0:
64,192,100117,1,0,0:0:0:0:
64,192,100389,1,0,0:0:0:0:
64,192,100662,1,0,0:0:0:0:
64,192,100935,1,0,0:0:0:0:
192,192,101071,1,0,0:0:0:0:
320,192,101071,1,0,0:0:0:0:
448,192,101071,1,0,0:0:0:0:
64,192,101071,1,0,0:0:0:0:
64,192,101480,1,0,0:0:0:0:
192,192,101480,1,0,0:0:0:0:
320,192,101480,1,0,0:0:0:0:
448,192,101480,1,0,0:0:0:0:
