osu file format v14

[General]
AudioFilename: PANIC HOLIC.mp3
AudioLeadIn: 0
PreviewTime: 81825
Countdown: 0
SampleSet: Soft
StackLeniency: 0.7
Mode: 3
LetterboxInBreaks: 1
SpecialStyle: 0
WidescreenStoryboard: 1

[Editor]
DistanceSpacing: 1
BeatDivisor: 4
GridSize: 8
TimelineZoom: 1.7

[Metadata]
Title:4key & 7key Fantasy Last. Vol.
TitleUnicode:4key & 7key Fantasy Last. Vol.
Artist:Final Mania Dimension
ArtistUnicode:Final Mania Dimension
Creator:Un-known
Version:C-SHOW - PANIC HOLIC [4key Hard]
Source:
Tags:
BeatmapID:675005
BeatmapSetID:298447

[Difficulty]
HPDrainRate:7
CircleSize:4
OverallDifficulty:7
ApproachRate:5
SliderMultiplier:1.4
SliderTickRate:1

[Events]
//Background and Video events
0,0,"4.jpg",0,0
//Break Periods
//Storyboard Layer 0 (Background)
//Storyboard Layer 1 (Fail)
//Storyboard Layer 2 (Pass)
//Storyboard Layer 3 (Foreground)
//Storyboard Sound Samples

[TimingPoints]
1117,272.727272727273,4,2,0,50,1,0
29461,-100,4,2,0,50,0,1
44734,-100,4,2,0,50,0,0
81825,-100,4,2,0,50,0,1
99279,-100,4,2,0,50,0,0

[HitObjects]
64,192,1098,5,0,0:0:0:0:
192,192,1098,1,0,0:0:0:0:
320,192,1234,1,0,0:0:0:0:
64,192,1370,1,0,0:0:0:0:
448,192,1370,1,0,0:0:0:0:
64,192,1643,1,0,0:0:0:0:
192,192,1643,1,0,0:0:0:0:
448,192,1643,1,0,0:0:0:0:
448,192,1916,128,0,2188:0:0:0:0:
64,192,2188,1,0,0:0:0:0:
192,192,2188,1,0,0:0:0:0:
320,192,2325,1,0,0:0:0:0:
448,192,2325,1,0,0:0:0:0:
64,192,2461,1,0,0:0:0:0:
448,192,2598,1,0,0:0:0:0:
192,192,2734,1,0,0:0:0:0:
320,192,2734,1,0,0:0:0:0:
64,192,2870,1,0,0:0:0:0:
320,192,3007,1,0,0:0:0:0:
448,192,3007,1,0,0:0:0:0:
320,192,3279,1,0,0:0:0:0:
448,192,3279,1,0,0:0:0:0:
192,192,3416,1,0,0:0:0:0:
64,192,3552,1,0,0:0:0:0:
192,192,3688,1,0,0:0:0:0:
64,192,3825,1,0,0:0:0:0:
448,192,3825,1,0,0:0:0:0:
320,192,3961,1,0,0:0:0:0:
192,192,4098,1,0,0:0:0:0:
64,192,4234,1,0,0:0:0:0:
320,192,4370,1,0,0:0:0:0:
448,192,4370,1,0,0:0:0:0:
192,192,4507,1,0,0:0:0:0:
320,192,4643,1,0,0:0:0:0:
448,192,4779,1,0,0:0:0:0:
192,192,4916,1,0,0:0:0:0:
64,192,4916,1,0,0:0:0:0:
320,192,5052,1,0,0:0:0:0:
64,192,5188,1,0,0:0:0:0:
192,192,5325,1,0,0:0:0:0:
448,192,5461,1,0,0:0:0:0:
64,192,5461,1,0,0:0:0:0:
320,192,5598,1,0,0:0:0:0:
192,192,5734,1,0,0:0:0:0:
320,192,5870,1,0,0:0:0:0:
64,192,6007,1,0,0:0:0:0:
192,192,6007,1,0,0:0:0:0:
448,192,6143,1,0,0:0:0:0:
320,192,6279,1,0,0:0:0:0:
192,192,6416,1,0,0:0:0:0:
448,192,6552,1,0,0:0:0:0:
64,192,6552,1,0,0:0:0:0:
320,192,6688,1,0,0:0:0:0:
64,192,6825,1,0,0:0:0:0:
192,192,6961,1,0,0:0:0:0:
320,192,7098,128,0,7166:0:0:0:0:
320,192,7302,128,0,7370:0:0:0:0:
320,192,7507,128,0,7575:0:0:0:0:
64,192,7643,1,0,0:0:0:0:
448,192,7643,1,0,0:0:0:0:
192,192,7779,1,0,0:0:0:0:
64,192,7916,1,0,0:0:0:0:
192,192,8052,1,0,0:0:0:0:
64,192,8188,1,0,0:0:0:0:
448,192,8188,1,0,0:0:0:0:
320,192,8325,1,0,0:0:0:0:
192,192,8461,1,0,0:0:0:0:
64,192,8598,1,0,0:0:0:0:
320,192,8734,1,0,0:0:0:0:
448,192,8734,1,0,0:0:0:0:
192,192,8870,1,0,0:0:0:0:
320,192,9007,1,0,0:0:0:0:
448,192,9143,1,0,0:0:0:0:
192,192,9279,1,0,0:0:0:0:
64,192,9279,1,0,0:0:0:0:
320,192,9416,1,0,0:0:0:0:
64,192,9552,1,0,0:0:0:0:
192,192,9688,1,0,0:0:0:0:
448,192,9825,1,0,0:0:0:0:
64,192,9825,1,0,0:0:0:0:
320,192,10098,1,0,0:0:0:0:
64,192,10098,1,0,0:0:0:0:
192,192,10234,1,0,0:0:0:0:
448,192,10370,1,0,0:0:0:0:
320,192,10370,1,0,0:0:0:0:
192,192,10507,1,0,0:0:0:0:
320,192,10643,1,0,0:0:0:0:
64,192,10643,1,0,0:0:0:0:
448,192,10779,1,0,0:0:0:0:
64,192,10916,1,0,0:0:0:0:
192,192,10916,1,0,0:0:0:0:
320,192,11052,1,0,0:0:0:0:
448,192,11188,1,0,0:0:0:0:
64,192,11188,1,0,0:0:0:0:
192,192,11325,1,0,0:0:0:0:
448,192,11325,1,0,0:0:0:0:
320,192,11461,128,0,12007:0:0:0:0:
64,192,11461,128,0,12007:0:0:0:0:
448,192,12007,1,0,0:0:0:0:
192,192,12007,1,0,0:0:0:0:
64,192,12143,1,0,0:0:0:0:
320,192,12143,1,0,0:0:0:0:
320,192,12552,1,0,0:0:0:0:
192,192,12552,1,0,0:0:0:0:
448,192,12961,1,0,0:0:0:0:
192,192,12961,1,0,0:0:0:0:
320,192,13098,1,0,0:0:0:0:
64,192,13098,1,0,0:0:0:0:
192,192,13166,1,0,0:0:0:0:
320,192,13234,1,0,0:0:0:0:
448,192,13302,1,0,0:0:0:0:
192,192,13643,1,0,0:0:0:0:
64,192,13643,1,0,0:0:0:0:
320,192,13916,1,0,0:0:0:0:
192,192,13916,1,0,0:0:0:0:
448,192,14052,1,0,0:0:0:0:
64,192,14052,1,0,0:0:0:0:
320,192,14188,1,0,0:0:0:0:
448,192,14188,1,0,0:0:0:0:
192,192,14325,1,0,0:0:0:0:
64,192,14325,1,0,0:0:0:0:
448,192,14734,1,0,0:0:0:0:
320,192,14734,1,0,0:0:0:0:
192,192,15007,1,0,0:0:0:0:
448,192,15007,1,0,0:0:0:0:
320,192,15143,1,0,0:0:0:0:
64,192,15143,1,0,0:0:0:0:
448,192,15279,1,0,0:0:0:0:
64,192,15279,1,0,0:0:0:0:
192,192,15552,1,0,0:0:0:0:
320,192,15552,1,0,0:0:0:0:
448,192,15688,1,0,0:0:0:0:
64,192,15688,1,0,0:0:0:0:
320,192,16234,1,0,0:0:0:0:
192,192,16234,1,0,0:0:0:0:
448,192,16370,1,0,0:0:0:0:
64,192,16370,1,0,0:0:0:0:
192,192,16507,1,0,0:0:0:0:
64,192,16507,1,0,0:0:0:0:
192,192,16916,1,0,0:0:0:0:
320,192,16916,1,0,0:0:0:0:
448,192,17325,1,0,0:0:0:0:
192,192,17325,1,0,0:0:0:0:
320,192,17461,1,0,0:0:0:0:
64,192,17461,1,0,0:0:0:0:
192,192,17529,1,0,0:0:0:0:
320,192,17598,1,0,0:0:0:0:
448,192,17666,1,0,0:0:0:0:
192,192,18007,1,0,0:0:0:0:
64,192,18007,1,0,0:0:0:0:
192,192,18279,1,0,0:0:0:0:
320,192,18279,1,0,0:0:0:0:
64,192,18416,1,0,0:0:0:0:
448,192,18416,1,0,0:0:0:0:
448,192,18552,1,0,0:0:0:0:
320,192,18552,1,0,0:0:0:0:
64,192,18688,1,0,0:0:0:0:
192,192,18688,1,0,0:0:0:0:
448,192,19098,1,0,0:0:0:0:
320,192,19098,1,0,0:0:0:0:
448,192,19370,1,0,0:0:0:0:
192,192,19370,1,0,0:0:0:0:
320,192,19507,1,0,0:0:0:0:
64,192,19507,1,0,0:0:0:0:
64,192,19643,1,0,0:0:0:0:
448,192,19643,1,0,0:0:0:0:
192,192,19916,1,0,0:0:0:0:
320,192,19916,1,0,0:0:0:0:
448,192,20052,1,0,0:0:0:0:
64,192,20052,1,0,0:0:0:0:
64,192,20325,1,0,0:0:0:0:
448,192,20325,1,0,0:0:0:0:
320,192,20734,1,0,0:0:0:0:
448,192,20734,1,0,0:0:0:0:
64,192,20870,1,0,0:0:0:0:
192,192,20870,1,0,0:0:0:0:
320,192,21279,1,0,0:0:0:0:
192,192,21279,1,0,0:0:0:0:
192,192,21688,1,0,0:0:0:0:
448,192,21688,1,0,0:0:0:0:
64,192,21825,1,0,0:0:0:0:
320,192,21825,1,0,0:0:0:0:
192,192,21893,1,0,0:0:0:0:
320,192,21961,1,0,0:0:0:0:
448,192,22029,1,0,0:0:0:0:
64,192,22370,1,0,0:0:0:0:
192,192,22370,1,0,0:0:0:0:
320,192,22643,1,0,0:0:0:0:
192,192,22643,1,0,0:0:0:0:
448,192,22779,1,0,0:0:0:0:
64,192,22779,1,0,0:0:0:0:
320,192,22916,1,0,0:0:0:0:
448,192,22916,1,0,0:0:0:0:
192,192,23052,1,0,0:0:0:0:
64,192,23052,1,0,0:0:0:0:
320,192,23461,1,0,0:0:0:0:
448,192,23461,1,0,0:0:0:0:
192,192,23734,1,0,0:0:0:0:
448,192,23734,1,0,0:0:0:0:
64,192,23870,1,0,0:0:0:0:
320,192,23870,1,0,0:0:0:0:
448,192,24007,1,0,0:0:0:0:
192,192,24007,1,0,0:0:0:0:
320,192,24279,1,0,0:0:0:0:
192,192,24279,1,0,0:0:0:0:
448,192,24416,1,0,0:0:0:0:
64,192,24416,1,0,0:0:0:0:
64,192,24688,1,0,0:0:0:0:
320,192,24688,1,0,0:0:0:0:
192,192,24825,1,0,0:0:0:0:
448,192,24825,1,0,0:0:0:0:
320,192,24961,1,0,0:0:0:0:
448,192,24961,1,0,0:0:0:0:
192,192,25098,1,0,0:0:0:0:
64,192,25098,1,0,0:0:0:0:
192,192,25234,1,0,0:0:0:0:
320,192,25234,1,0,0:0:0:0:
192,192,25643,1,0,0:0:0:0:
320,192,25643,1,0,0:0:0:0:
448,192,26052,1,0,0:0:0:0:
192,192,26052,1,0,0:0:0:0:
320,192,26188,1,0,0:0:0:0:
64,192,26188,1,0,0:0:0:0:
192,192,26257,1,0,0:0:0:0:
320,192,26325,1,0,0:0:0:0:
448,192,26393,1,0,0:0:0:0:
320,192,26461,1,0,0:0:0:0:
320,192,26734,1,0,0:0:0:0:
448,192,26734,1,0,0:0:0:0:
192,192,27007,1,0,0:0:0:0:
320,192,27007,1,0,0:0:0:0:
64,192,27143,1,0,0:0:0:0:
448,192,27143,1,0,0:0:0:0:
448,192,27279,1,0,0:0:0:0:
320,192,27279,1,0,0:0:0:0:
64,192,27416,1,0,0:0:0:0:
192,192,27416,1,0,0:0:0:0:
448,192,27825,1,0,0:0:0:0:
320,192,27825,1,0,0:0:0:0:
64,192,28098,1,0,0:0:0:0:
320,192,28098,1,0,0:0:0:0:
192,192,28234,1,0,0:0:0:0:
448,192,28234,1,0,0:0:0:0:
320,192,28370,1,0,0:0:0:0:
64,192,28370,1,0,0:0:0:0:
448,192,28370,128,0,28643:0:0:0:0:
64,192,28643,128,0,29052:0:0:0:0:
320,192,28643,128,0,29052:0:0:0:0:
192,192,29052,128,0,29461:0:0:0:0:
320,192,29461,1,0,0:0:0:0:
448,192,29461,1,0,0:0:0:0:
192,192,29598,1,0,0:0:0:0:
64,192,29598,1,0,0:0:0:0:
320,192,29734,1,0,0:0:0:0:
192,192,29870,1,0,0:0:0:0:
320,192,29870,1,0,0:0:0:0:
64,192,30007,1,0,0:0:0:0:
448,192,30007,1,0,0:0:0:0:
192,192,30143,1,0,0:0:0:0:
320,192,30279,1,0,0:0:0:0:
448,192,30279,1,0,0:0:0:0:
192,192,30416,1,0,0:0:0:0:
320,192,30416,1,0,0:0:0:0:
192,192,30552,1,0,0:0:0:0:
64,192,30552,1,0,0:0:0:0:
320,192,30688,1,0,0:0:0:0:
64,192,30825,1,0,0:0:0:0:
192,192,30825,1,0,0:0:0:0:
320,192,30961,1,0,0:0:0:0:
448,192,30961,1,0,0:0:0:0:
192,192,31098,1,0,0:0:0:0:
64,192,31098,1,0,0:0:0:0:
192,192,31234,1,0,0:0:0:0:
320,192,31370,1,0,0:0:0:0:
64,192,31370,1,0,0:0:0:0:
320,192,31507,1,0,0:0:0:0:
192,192,31643,1,0,0:0:0:0:
448,192,31643,1,0,0:0:0:0:
320,192,31779,1,0,0:0:0:0:
448,192,31779,1,0,0:0:0:0:
64,192,31916,1,0,0:0:0:0:
192,192,32052,1,0,0:0:0:0:
320,192,32052,1,0,0:0:0:0:
64,192,32188,1,0,0:0:0:0:
448,192,32188,1,0,0:0:0:0:
320,192,32325,1,0,0:0:0:0:
192,192,32461,1,0,0:0:0:0:
448,192,32461,1,0,0:0:0:0:
320,192,32598,1,0,0:0:0:0:
64,192,32598,1,0,0:0:0:0:
192,192,32734,1,0,0:0:0:0:
64,192,32734,1,0,0:0:0:0:
320,192,32870,1,0,0:0:0:0:
320,192,33007,1,0,0:0:0:0:
448,192,33007,1,0,0:0:0:0:
192,192,33143,1,0,0:0:0:0:
64,192,33143,1,0,0:0:0:0:
448,192,33279,1,0,0:0:0:0:
64,192,33416,1,0,0:0:0:0:
192,192,33552,1,0,0:0:0:0:
320,192,33552,1,0,0:0:0:0:
320,192,33688,1,0,0:0:0:0:
64,192,33688,1,0,0:0:0:0:
192,192,33825,1,0,0:0:0:0:
448,192,33825,1,0,0:0:0:0:
320,192,33961,1,0,0:0:0:0:
448,192,33961,1,0,0:0:0:0:
192,192,34098,1,0,0:0:0:0:
64,192,34234,1,0,0:0:0:0:
192,192,34234,1,0,0:0:0:0:
320,192,34370,1,0,0:0:0:0:
448,192,34370,1,0,0:0:0:0:
64,192,34507,1,0,0:0:0:0:
320,192,34643,1,0,0:0:0:0:
192,192,34779,1,0,0:0:0:0:
448,192,34779,1,0,0:0:0:0:
320,192,34916,1,0,0:0:0:0:
64,192,34916,1,0,0:0:0:0:
192,192,35052,1,0,0:0:0:0:
320,192,35188,1,0,0:0:0:0:
448,192,35188,1,0,0:0:0:0:
64,192,35325,1,0,0:0:0:0:
192,192,35325,1,0,0:0:0:0:
320,192,35461,1,0,0:0:0:0:
448,192,35461,1,0,0:0:0:0:
64,192,35598,1,0,0:0:0:0:
192,192,35734,1,0,0:0:0:0:
320,192,35734,1,0,0:0:0:0:
448,192,35870,1,0,0:0:0:0:
64,192,36007,1,0,0:0:0:0:
320,192,36007,1,0,0:0:0:0:
192,192,36143,1,0,0:0:0:0:
448,192,36143,1,0,0:0:0:0:
64,192,36279,1,0,0:0:0:0:
320,192,36416,1,0,0:0:0:0:
448,192,36416,1,0,0:0:0:0:
0,0,36552,5,0,0:0:0:0:
448,192,36552,1,0,0:0:0:0:
192,192,36688,1,0,0:0:0:0:
320,192,36825,1,0,0:0:0:0:
448,192,36961,1,0,0:0:0:0:
192,192,36961,1,0,0:0:0:0:
320,192,37098,1,0,0:0:0:0:
64,192,37098,1,0,0:0:0:0:
192,192,37234,1,0,0:0:0:0:
192,192,37370,1,0,0:0:0:0:
448,192,37370,1,0,0:0:0:0:
320,192,37507,1,0,0:0:0:0:
448,192,37507,1,0,0:0:0:0:
320,192,37916,128,0,38188:0:0:0:0:
448,192,37916,128,0,38188:0:0:0:0:
64,192,38188,1,0,0:0:0:0:
192,192,38188,1,0,0:0:0:0:
320,192,38325,1,0,0:0:0:0:
448,192,38325,1,0,0:0:0:0:
192,192,38461,1,0,0:0:0:0:
192,192,38598,1,0,0:0:0:0:
320,192,38598,1,0,0:0:0:0:
448,192,38734,1,0,0:0:0:0:
64,192,38734,1,0,0:0:0:0:
320,192,38870,1,0,0:0:0:0:
192,192,39007,1,0,0:0:0:0:
64,192,39007,1,0,0:0:0:0:
320,192,39143,1,0,0:0:0:0:
192,192,39143,1,0,0:0:0:0:
448,192,39279,1,0,0:0:0:0:
320,192,39279,1,0,0:0:0:0:
192,192,39416,1,0,0:0:0:0:
320,192,39552,1,0,0:0:0:0:
448,192,39552,1,0,0:0:0:0:
192,192,39688,1,0,0:0:0:0:
64,192,39688,1,0,0:0:0:0:
320,192,39825,1,0,0:0:0:0:
448,192,39825,1,0,0:0:0:0:
320,192,39961,1,0,0:0:0:0:
192,192,40098,1,0,0:0:0:0:
448,192,40098,1,0,0:0:0:0:
192,192,40234,1,0,0:0:0:0:
320,192,40370,1,0,0:0:0:0:
64,192,40370,1,0,0:0:0:0:
192,192,40507,1,0,0:0:0:0:
64,192,40507,1,0,0:0:0:0:
448,192,40643,1,0,0:0:0:0:
192,192,40779,1,0,0:0:0:0:
320,192,40779,1,0,0:0:0:0:
448,192,40916,1,0,0:0:0:0:
64,192,40916,1,0,0:0:0:0:
192,192,41052,1,0,0:0:0:0:
64,192,41188,1,0,0:0:0:0:
320,192,41188,1,0,0:0:0:0:
192,192,41325,1,0,0:0:0:0:
448,192,41325,1,0,0:0:0:0:
320,192,41461,1,0,0:0:0:0:
448,192,41461,1,0,0:0:0:0:
192,192,41598,1,0,0:0:0:0:
192,192,41734,1,0,0:0:0:0:
64,192,41734,1,0,0:0:0:0:
448,192,41870,1,0,0:0:0:0:
320,192,41870,1,0,0:0:0:0:
64,192,42007,1,0,0:0:0:0:
448,192,42143,1,0,0:0:0:0:
320,192,42279,1,0,0:0:0:0:
192,192,42279,1,0,0:0:0:0:
448,192,42416,1,0,0:0:0:0:
192,192,42416,1,0,0:0:0:0:
320,192,42552,1,0,0:0:0:0:
64,192,42552,1,0,0:0:0:0:
64,192,42688,1,0,0:0:0:0:
192,192,42688,1,0,0:0:0:0:
320,192,42825,1,0,0:0:0:0:
320,192,42961,1,0,0:0:0:0:
448,192,42961,1,0,0:0:0:0:
64,192,43098,1,0,0:0:0:0:
192,192,43098,1,0,0:0:0:0:
448,192,43234,1,0,0:0:0:0:
192,192,43370,1,0,0:0:0:0:
64,192,43507,1,0,0:0:0:0:
320,192,43507,1,0,0:0:0:0:
192,192,43643,1,0,0:0:0:0:
448,192,43643,1,0,0:0:0:0:
320,192,43779,1,0,0:0:0:0:
64,192,43916,1,0,0:0:0:0:
192,192,43916,1,0,0:0:0:0:
448,192,44052,5,0,0:0:0:0:
320,192,44052,1,0,0:0:0:0:
64,192,44188,1,0,0:0:0:0:
192,192,44188,1,0,0:0:0:0:
448,192,44325,1,0,0:0:0:0:
192,192,44461,1,0,0:0:0:0:
320,192,44461,1,0,0:0:0:0:
64,192,44598,1,0,0:0:0:0:
448,192,44734,1,0,0:0:0:0:
192,192,44734,1,0,0:0:0:0:
64,192,44734,1,0,0:0:0:0:
320,192,44870,1,0,0:0:0:0:
192,192,44870,1,0,0:0:0:0:
192,192,45143,1,0,0:0:0:0:
320,192,45143,1,0,0:0:0:0:
64,192,45279,1,0,0:0:0:0:
320,192,45279,1,0,0:0:0:0:
448,192,45279,1,0,0:0:0:0:
192,192,45552,1,0,0:0:0:0:
320,192,45688,1,0,0:0:0:0:
192,192,45825,1,0,0:0:0:0:
64,192,45825,1,0,0:0:0:0:
448,192,45825,1,0,0:0:0:0:
320,192,45825,128,0,46370:0:0:0:0:
448,192,46370,128,0,46643:0:0:0:0:
64,192,46643,128,0,46916:0:0:0:0:
192,192,46643,128,0,46916:0:0:0:0:
64,192,47188,1,0,0:0:0:0:
192,192,47257,1,0,0:0:0:0:
320,192,47325,1,0,0:0:0:0:
448,192,47393,1,0,0:0:0:0:
320,192,47461,1,0,0:0:0:0:
64,192,47598,1,0,0:0:0:0:
192,192,47598,1,0,0:0:0:0:
320,192,47734,1,0,0:0:0:0:
448,192,47734,1,0,0:0:0:0:
64,192,47870,1,0,0:0:0:0:
192,192,47870,1,0,0:0:0:0:
320,192,48143,1,0,0:0:0:0:
448,192,48143,1,0,0:0:0:0:
192,192,48279,1,0,0:0:0:0:
64,192,48279,1,0,0:0:0:0:
320,192,48416,1,0,0:0:0:0:
448,192,48416,1,0,0:0:0:0:
320,192,48825,128,0,49098:0:0:0:0:
448,192,48825,1,0,0:0:0:0:
448,192,49098,1,0,0:0:0:0:
64,192,49098,128,0,49234:0:0:0:0:
192,192,49234,128,0,49370:0:0:0:0:
448,192,49370,128,0,49507:0:0:0:0:
320,192,49507,128,0,49643:0:0:0:0:
64,192,49643,1,0,0:0:0:0:
448,192,49643,1,0,0:0:0:0:
448,192,49916,1,0,0:0:0:0:
192,192,49916,1,0,0:0:0:0:
192,192,50188,1,0,0:0:0:0:
64,192,50188,1,0,0:0:0:0:
448,192,50188,1,0,0:0:0:0:
320,192,50325,1,0,0:0:0:0:
192,192,50461,1,0,0:0:0:0:
448,192,50461,1,0,0:0:0:0:
64,192,50598,1,0,0:0:0:0:
320,192,50734,1,0,0:0:0:0:
448,192,50734,1,0,0:0:0:0:
192,192,50734,128,0,51279:0:0:0:0:
320,192,51279,128,0,51552:0:0:0:0:
448,192,51279,128,0,51552:0:0:0:0:
64,192,51552,128,0,51757:0:0:0:0:
192,192,51552,128,0,51757:0:0:0:0:
64,192,51961,1,0,0:0:0:0:
320,192,51961,1,0,0:0:0:0:
192,192,52098,1,0,0:0:0:0:
448,192,52098,1,0,0:0:0:0:
64,192,52234,1,0,0:0:0:0:
320,192,52234,1,0,0:0:0:0:
192,192,52643,1,0,0:0:0:0:
448,192,52643,1,0,0:0:0:0:
320,192,52779,1,0,0:0:0:0:
64,192,52779,1,0,0:0:0:0:
448,192,52916,1,0,0:0:0:0:
192,192,52916,1,0,0:0:0:0:
320,192,53052,1,0,0:0:0:0:
64,192,53188,1,0,0:0:0:0:
448,192,53188,1,0,0:0:0:0:
192,192,53325,1,0,0:0:0:0:
64,192,53461,1,0,0:0:0:0:
320,192,53461,1,0,0:0:0:0:
448,192,53461,1,0,0:0:0:0:
192,192,53598,128,0,53734:0:0:0:0:
320,192,53734,128,0,53870:0:0:0:0:
64,192,53870,128,0,54007:0:0:0:0:
320,192,54007,1,0,0:0:0:0:
448,192,54007,1,0,0:0:0:0:
192,192,54143,1,0,0:0:0:0:
64,192,54279,1,0,0:0:0:0:
320,192,54279,1,0,0:0:0:0:
448,192,54416,1,0,0:0:0:0:
192,192,54552,1,0,0:0:0:0:
64,192,54552,1,0,0:0:0:0:
320,192,54688,1,0,0:0:0:0:
448,192,54825,1,0,0:0:0:0:
320,192,54961,1,0,0:0:0:0:
64,192,55098,1,0,0:0:0:0:
320,192,55098,1,0,0:0:0:0:
448,192,55098,1,0,0:0:0:0:
192,192,55234,1,0,0:0:0:0:
64,192,55370,1,0,0:0:0:0:
192,192,55370,1,0,0:0:0:0:
448,192,55370,1,0,0:0:0:0:
320,192,55507,1,0,0:0:0:0:
64,192,55643,1,0,0:0:0:0:
192,192,55643,128,0,55916:0:0:0:0:
320,192,55916,1,0,0:0:0:0:
448,192,55916,1,0,0:0:0:0:
192,192,56052,1,0,0:0:0:0:
64,192,56052,1,0,0:0:0:0:
320,192,56325,1,0,0:0:0:0:
448,192,56461,1,0,0:0:0:0:
64,192,56461,1,0,0:0:0:0:
320,192,56598,1,0,0:0:0:0:
192,192,56598,1,0,0:0:0:0:
320,192,56870,1,0,0:0:0:0:
448,192,56870,1,0,0:0:0:0:
192,192,57007,1,0,0:0:0:0:
64,192,57007,1,0,0:0:0:0:
320,192,57143,1,0,0:0:0:0:
448,192,57143,1,0,0:0:0:0:
320,192,57416,1,0,0:0:0:0:
192,192,57552,128,0,57825:0:0:0:0:
320,192,57825,1,0,0:0:0:0:
64,192,57825,1,0,0:0:0:0:
448,192,57961,128,0,58098:0:0:0:0:
192,192,58098,128,0,58234:0:0:0:0:
320,192,58234,128,0,58370:0:0:0:0:
64,192,58370,1,0,0:0:0:0:
192,192,58370,1,0,0:0:0:0:
448,192,58370,128,0,58643:0:0:0:0:
320,192,58643,128,0,58916:0:0:0:0:
64,192,58916,128,0,59052:0:0:0:0:
448,192,58916,128,0,59052:0:0:0:0:
192,192,59052,128,0,59188:0:0:0:0:
320,192,59188,128,0,59325:0:0:0:0:
192,192,59325,128,0,59461:0:0:0:0:
448,192,59461,128,0,60007:0:0:0:0:
320,192,59461,1,0,0:0:0:0:
64,192,59461,1,0,0:0:0:0:
64,192,60007,1,0,0:0:0:0:
192,192,60007,1,0,0:0:0:0:
320,192,60143,1,0,0:0:0:0:
320,192,60279,1,0,0:0:0:0:
448,192,60279,1,0,0:0:0:0:
64,192,60416,1,0,0:0:0:0:
192,192,60552,1,0,0:0:0:0:
320,192,60552,1,0,0:0:0:0:
448,192,60688,1,0,0:0:0:0:
64,192,60825,1,0,0:0:0:0:
320,192,60825,1,0,0:0:0:0:
192,192,60961,1,0,0:0:0:0:
192,192,61098,1,0,0:0:0:0:
448,192,61098,1,0,0:0:0:0:
448,192,61234,1,0,0:0:0:0:
320,192,61370,1,0,0:0:0:0:
64,192,61370,1,0,0:0:0:0:
192,192,61507,1,0,0:0:0:0:
192,192,61643,1,0,0:0:0:0:
64,192,61643,1,0,0:0:0:0:
320,192,61779,1,0,0:0:0:0:
448,192,61916,1,0,0:0:0:0:
320,192,61916,1,0,0:0:0:0:
192,192,62052,1,0,0:0:0:0:
448,192,62188,1,0,0:0:0:0:
320,192,62188,1,0,0:0:0:0:
64,192,62325,1,0,0:0:0:0:
192,192,62325,1,0,0:0:0:0:
448,192,62461,1,0,0:0:0:0:
320,192,62461,1,0,0:0:0:0:
192,192,62598,1,0,0:0:0:0:
64,192,62598,1,0,0:0:0:0:
320,192,62734,1,0,0:0:0:0:
448,192,62734,1,0,0:0:0:0:
64,192,62870,1,0,0:0:0:0:
192,192,62870,1,0,0:0:0:0:
320,192,63007,1,0,0:0:0:0:
448,192,63007,1,0,0:0:0:0:
64,192,63143,1,0,0:0:0:0:
192,192,63143,1,0,0:0:0:0:
320,192,63279,1,0,0:0:0:0:
448,192,63279,1,0,0:0:0:0:
192,192,63348,1,0,0:0:0:0:
64,192,63416,1,0,0:0:0:0:
320,192,63484,1,0,0:0:0:0:
192,192,63552,1,0,0:0:0:0:
320,192,63620,1,0,0:0:0:0:
448,192,63688,1,0,0:0:0:0:
64,192,63688,1,0,0:0:0:0:
320,192,63757,1,0,0:0:0:0:
192,192,63825,1,0,0:0:0:0:
64,192,63893,1,0,0:0:0:0:
192,192,63961,1,0,0:0:0:0:
320,192,64029,1,0,0:0:0:0:
448,192,64098,1,0,0:0:0:0:
192,192,64166,1,0,0:0:0:0:
320,192,64234,1,0,0:0:0:0:
448,192,64302,1,0,0:0:0:0:
64,192,64370,128,0,64438:0:0:0:0:
192,192,64507,128,0,64575:0:0:0:0:
320,192,64779,128,0,64848:0:0:0:0:
448,192,65052,128,0,65120:0:0:0:0:
320,192,65188,128,0,65257:0:0:0:0:
192,192,65325,128,0,65393:0:0:0:0:
448,192,65598,128,0,65666:0:0:0:0:
192,192,65734,128,0,65802:0:0:0:0:
320,192,65870,128,0,65938:0:0:0:0:
64,192,66007,128,0,66075:0:0:0:0:
320,192,66143,128,0,66211:0:0:0:0:
192,192,66279,128,0,66348:0:0:0:0:
448,192,66416,128,0,66484:0:0:0:0:
64,192,66552,128,0,66620:0:0:0:0:
320,192,66688,128,0,66757:0:0:0:0:
448,192,66961,128,0,67029:0:0:0:0:
192,192,67234,128,0,67302:0:0:0:0:
320,192,67370,128,0,67438:0:0:0:0:
448,192,67507,128,0,67575:0:0:0:0:
320,192,67643,128,0,67711:0:0:0:0:
64,192,67779,128,0,67848:0:0:0:0:
192,192,67916,128,0,67984:0:0:0:0:
320,192,68052,128,0,68120:0:0:0:0:
448,192,68188,128,0,68734:0:0:0:0:
64,192,68734,128,0,68802:0:0:0:0:
192,192,68870,128,0,68938:0:0:0:0:
320,192,69143,128,0,69211:0:0:0:0:
448,192,69416,128,0,69484:0:0:0:0:
320,192,69552,128,0,69620:0:0:0:0:
192,192,69688,128,0,69757:0:0:0:0:
448,192,69961,128,0,70029:0:0:0:0:
192,192,70098,128,0,70166:0:0:0:0:
320,192,70234,128,0,70302:0:0:0:0:
64,192,70370,128,0,70438:0:0:0:0:
320,192,70507,128,0,70575:0:0:0:0:
192,192,70643,128,0,70711:0:0:0:0:
448,192,70779,128,0,70848:0:0:0:0:
64,192,70916,128,0,70984:0:0:0:0:
320,192,71052,128,0,71120:0:0:0:0:
448,192,71325,128,0,71393:0:0:0:0:
192,192,71598,128,0,71666:0:0:0:0:
320,192,71734,128,0,71802:0:0:0:0:
448,192,71870,128,0,71938:0:0:0:0:
320,192,72007,128,0,72075:0:0:0:0:
64,192,72143,128,0,72211:0:0:0:0:
192,192,72279,128,0,72348:0:0:0:0:
320,192,72416,128,0,72484:0:0:0:0:
448,192,72688,128,0,73098:0:0:0:0:
448,192,73234,1,0,0:0:0:0:
448,192,73507,1,0,0:0:0:0:
448,192,73779,1,0,0:0:0:0:
320,192,73916,1,0,0:0:0:0:
192,192,74052,1,0,0:0:0:0:
64,192,74188,1,0,0:0:0:0:
320,192,74188,1,0,0:0:0:0:
448,192,74188,1,0,0:0:0:0:
64,192,74325,1,0,0:0:0:0:
64,192,74598,1,0,0:0:0:0:
64,192,74870,1,0,0:0:0:0:
192,192,75007,1,0,0:0:0:0:
320,192,75143,1,0,0:0:0:0:
192,192,75279,1,0,0:0:0:0:
64,192,75279,1,0,0:0:0:0:
448,192,75279,1,0,0:0:0:0:
448,192,75416,1,0,0:0:0:0:
448,192,75688,1,0,0:0:0:0:
448,192,75961,1,0,0:0:0:0:
320,192,76098,1,0,0:0:0:0:
192,192,76234,1,0,0:0:0:0:
320,192,76370,1,0,0:0:0:0:
448,192,76370,1,0,0:0:0:0:
64,192,76370,1,0,0:0:0:0:
64,192,76507,1,0,0:0:0:0:
64,192,76779,1,0,0:0:0:0:
64,192,77052,1,0,0:0:0:0:
448,192,77052,1,0,0:0:0:0:
320,192,77052,1,0,0:0:0:0:
192,192,77188,128,0,77461:0:0:0:0:
64,192,77461,1,0,0:0:0:0:
448,192,77461,1,0,0:0:0:0:
448,192,77734,128,0,78007:0:0:0:0:
64,192,78007,1,0,0:0:0:0:
192,192,78007,1,0,0:0:0:0:
192,192,78279,128,0,78552:0:0:0:0:
448,192,78552,1,0,0:0:0:0:
64,192,78552,1,0,0:0:0:0:
64,192,78825,128,0,78961:0:0:0:0:
448,192,78825,128,0,78961:0:0:0:0:
64,192,79098,1,0,0:0:0:0:
448,192,79098,1,0,0:0:0:0:
64,192,79370,128,0,79507:0:0:0:0:
448,192,79370,128,0,79507:0:0:0:0:
64,192,79643,1,0,0:0:0:0:
448,192,79643,1,0,0:0:0:0:
64,192,79779,1,0,0:0:0:0:
192,192,79848,1,0,0:0:0:0:
320,192,79916,1,0,0:0:0:0:
448,192,79984,1,0,0:0:0:0:
64,192,80052,1,0,0:0:0:0:
192,192,80120,1,0,0:0:0:0:
320,192,80188,1,0,0:0:0:0:
448,192,80257,1,0,0:0:0:0:
64,192,80325,1,0,0:0:0:0:
192,192,80393,1,0,0:0:0:0:
320,192,80461,1,0,0:0:0:0:
448,192,80529,1,0,0:0:0:0:
320,192,80598,1,0,0:0:0:0:
192,192,80666,1,0,0:0:0:0:
320,192,80734,1,0,0:0:0:0:
448,192,80734,1,0,0:0:0:0:
192,192,80870,1,0,0:0:0:0:
448,192,80870,1,0,0:0:0:0:
64,192,81007,1,0,0:0:0:0:
320,192,81007,1,0,0:0:0:0:
192,192,81143,1,0,0:0:0:0:
64,192,81143,1,0,0:0:0:0:
448,192,81279,1,0,0:0:0:0:
320,192,81348,1,0,0:0:0:0:
192,192,81416,1,0,0:0:0:0:
64,192,81484,1,0,0:0:0:0:
320,192,81552,128,0,81825:0:0:0:0:
448,192,81552,128,0,81825:0:0:0:0:
192,192,81825,1,0,0:0:0:0:
64,192,81825,1,0,0:0:0:0:
192,192,81961,1,0,0:0:0:0:
320,192,81961,1,0,0:0:0:0:
64,192,82098,1,0,0:0:0:0:
320,192,82234,1,0,0:0:0:0:
448,192,82234,1,0,0:0:0:0:
192,192,82370,1,0,0:0:0:0:
192,192,82507,1,0,0:0:0:0:
320,192,82507,1,0,0:0:0:0:
64,192,82643,1,0,0:0:0:0:
448,192,82643,1,0,0:0:0:0:
320,192,82779,1,0,0:0:0:0:
192,192,82779,1,0,0:0:0:0:
448,192,82916,1,0,0:0:0:0:
64,192,83052,1,0,0:0:0:0:
192,192,83052,1,0,0:0:0:0:
192,192,83188,1,0,0:0:0:0:
320,192,83188,1,0,0:0:0:0:
192,192,83325,1,0,0:0:0:0:
448,192,83325,1,0,0:0:0:0:
320,192,83461,1,0,0:0:0:0:
448,192,83461,1,0,0:0:0:0:
192,192,83598,1,0,0:0:0:0:
64,192,83598,1,0,0:0:0:0:
192,192,83734,1,0,0:0:0:0:
320,192,83734,1,0,0:0:0:0:
448,192,83870,1,0,0:0:0:0:
192,192,83870,1,0,0:0:0:0:
320,192,84007,1,0,0:0:0:0:
64,192,84007,1,0,0:0:0:0:
192,192,84143,1,0,0:0:0:0:
64,192,84143,1,0,0:0:0:0:
448,192,84279,1,0,0:0:0:0:
320,192,84416,1,0,0:0:0:0:
192,192,84416,1,0,0:0:0:0:
192,192,84552,1,0,0:0:0:0:
64,192,84688,1,0,0:0:0:0:
320,192,84688,1,0,0:0:0:0:
192,192,84825,1,0,0:0:0:0:
448,192,84825,1,0,0:0:0:0:
320,192,84961,1,0,0:0:0:0:
448,192,84961,1,0,0:0:0:0:
192,192,85098,1,0,0:0:0:0:
320,192,85098,1,0,0:0:0:0:
64,192,85234,1,0,0:0:0:0:
320,192,85234,1,0,0:0:0:0:
192,192,85370,1,0,0:0:0:0:
448,192,85370,1,0,0:0:0:0:
320,192,85507,1,0,0:0:0:0:
448,192,85507,1,0,0:0:0:0:
192,192,85643,1,0,0:0:0:0:
64,192,85643,1,0,0:0:0:0:
320,192,85779,1,0,0:0:0:0:
192,192,85916,1,0,0:0:0:0:
320,192,86052,1,0,0:0:0:0:
320,192,86188,1,0,0:0:0:0:
448,192,86188,1,0,0:0:0:0:
320,192,86325,1,0,0:0:0:0:
192,192,86325,1,0,0:0:0:0:
448,192,86461,1,0,0:0:0:0:
192,192,86598,1,0,0:0:0:0:
64,192,86598,1,0,0:0:0:0:
320,192,86734,1,0,0:0:0:0:
320,192,86870,1,0,0:0:0:0:
192,192,86870,1,0,0:0:0:0:
64,192,87007,1,0,0:0:0:0:
448,192,87007,1,0,0:0:0:0:
192,192,87143,1,0,0:0:0:0:
320,192,87143,1,0,0:0:0:0:
64,192,87279,1,0,0:0:0:0:
448,192,87416,1,0,0:0:0:0:
320,192,87416,1,0,0:0:0:0:
320,192,87552,1,0,0:0:0:0:
192,192,87552,1,0,0:0:0:0:
320,192,87688,1,0,0:0:0:0:
64,192,87688,1,0,0:0:0:0:
64,192,87825,1,0,0:0:0:0:
192,192,87825,1,0,0:0:0:0:
320,192,87961,1,0,0:0:0:0:
448,192,87961,1,0,0:0:0:0:
320,192,88098,1,0,0:0:0:0:
192,192,88098,1,0,0:0:0:0:
320,192,88234,1,0,0:0:0:0:
64,192,88234,1,0,0:0:0:0:
192,192,88370,1,0,0:0:0:0:
448,192,88370,1,0,0:0:0:0:
320,192,88507,1,0,0:0:0:0:
448,192,88507,1,0,0:0:0:0:
64,192,88643,1,0,0:0:0:0:
192,192,88779,1,0,0:0:0:0:
320,192,88779,1,0,0:0:0:0:
320,192,88916,1,0,0:0:0:0:
448,192,89052,1,0,0:0:0:0:
192,192,89052,1,0,0:0:0:0:
64,192,89188,1,0,0:0:0:0:
320,192,89188,1,0,0:0:0:0:
64,192,89325,1,0,0:0:0:0:
192,192,89325,1,0,0:0:0:0:
320,192,89461,5,0,0:0:0:0:
192,192,89461,1,0,0:0:0:0:
448,192,89598,1,0,0:0:0:0:
192,192,89598,1,0,0:0:0:0:
64,192,89734,1,0,0:0:0:0:
320,192,89734,1,0,0:0:0:0:
192,192,89870,1,0,0:0:0:0:
64,192,89870,1,0,0:0:0:0:
320,192,90007,1,0,0:0:0:0:
448,192,90007,1,0,0:0:0:0:
192,192,90143,1,0,0:0:0:0:
320,192,90279,1,0,0:0:0:0:
192,192,90416,1,0,0:0:0:0:
64,192,90552,1,0,0:0:0:0:
192,192,90552,1,0,0:0:0:0:
192,192,90688,1,0,0:0:0:0:
320,192,90688,1,0,0:0:0:0:
448,192,90688,1,0,0:0:0:0:
64,192,90825,1,0,0:0:0:0:
448,192,90961,1,0,0:0:0:0:
320,192,90961,1,0,0:0:0:0:
64,192,90961,1,0,0:0:0:0:
192,192,91098,1,0,0:0:0:0:
320,192,91234,1,0,0:0:0:0:
192,192,91234,1,0,0:0:0:0:
448,192,91234,1,0,0:0:0:0:
448,192,91370,1,0,0:0:0:0:
64,192,91370,1,0,0:0:0:0:
192,192,91507,1,0,0:0:0:0:
320,192,91507,1,0,0:0:0:0:
64,192,91507,1,0,0:0:0:0:
448,192,91643,1,0,0:0:0:0:
64,192,91779,1,0,0:0:0:0:
192,192,91779,1,0,0:0:0:0:
448,192,91779,1,0,0:0:0:0:
320,192,91916,1,0,0:0:0:0:
192,192,91916,1,0,0:0:0:0:
448,192,92052,1,0,0:0:0:0:
192,192,92052,1,0,0:0:0:0:
64,192,92052,1,0,0:0:0:0:
320,192,92188,1,0,0:0:0:0:
448,192,92188,1,0,0:0:0:0:
192,192,92325,1,0,0:0:0:0:
64,192,92325,1,0,0:0:0:0:
448,192,92325,1,0,0:0:0:0:
320,192,92461,1,0,0:0:0:0:
192,192,92461,1,0,0:0:0:0:
192,192,92598,1,0,0:0:0:0:
448,192,92598,1,0,0:0:0:0:
64,192,92598,1,0,0:0:0:0:
64,192,92734,1,0,0:0:0:0:
320,192,92734,1,0,0:0:0:0:
192,192,92870,1,0,0:0:0:0:
64,192,92870,1,0,0:0:0:0:
448,192,92870,1,0,0:0:0:0:
448,192,93007,1,0,0:0:0:0:
320,192,93143,1,0,0:0:0:0:
192,192,93143,1,0,0:0:0:0:
64,192,93143,1,0,0:0:0:0:
192,192,93279,1,0,0:0:0:0:
320,192,93416,1,0,0:0:0:0:
64,192,93416,1,0,0:0:0:0:
448,192,93416,1,0,0:0:0:0:
448,192,93552,1,0,0:0:0:0:
192,192,93552,1,0,0:0:0:0:
448,192,93688,1,0,0:0:0:0:
320,192,93688,1,0,0:0:0:0:
64,192,93688,1,0,0:0:0:0:
192,192,93825,1,0,0:0:0:0:
320,192,93825,1,0,0:0:0:0:
64,192,93961,1,0,0:0:0:0:
320,192,93961,1,0,0:0:0:0:
448,192,93961,1,0,0:0:0:0:
448,192,94098,1,0,0:0:0:0:
192,192,94098,1,0,0:0:0:0:
448,192,94234,1,0,0:0:0:0:
320,192,94234,1,0,0:0:0:0:
64,192,94234,1,0,0:0:0:0:
64,192,94370,1,0,0:0:0:0:
192,192,94370,1,0,0:0:0:0:
320,192,94507,1,0,0:0:0:0:
448,192,94507,1,0,0:0:0:0:
64,192,94507,1,0,0:0:0:0:
192,192,94643,1,0,0:0:0:0:
192,192,94779,1,0,0:0:0:0:
64,192,94779,1,0,0:0:0:0:
448,192,94779,1,0,0:0:0:0:
320,192,94916,1,0,0:0:0:0:
448,192,94916,1,0,0:0:0:0:
192,192,95052,1,0,0:0:0:0:
320,192,95052,1,0,0:0:0:0:
64,192,95052,1,0,0:0:0:0:
448,192,95188,1,0,0:0:0:0:
192,192,95325,1,0,0:0:0:0:
64,192,95325,1,0,0:0:0:0:
448,192,95325,1,0,0:0:0:0:
320,192,95461,1,0,0:0:0:0:
192,192,95598,1,0,0:0:0:0:
320,192,95598,1,0,0:0:0:0:
448,192,95598,1,0,0:0:0:0:
448,192,95734,1,0,0:0:0:0:
64,192,95734,1,0,0:0:0:0:
320,192,95870,1,0,0:0:0:0:
192,192,95870,1,0,0:0:0:0:
448,192,95870,1,0,0:0:0:0:
64,192,96007,1,0,0:0:0:0:
448,192,96143,1,0,0:0:0:0:
320,192,96143,1,0,0:0:0:0:
64,192,96143,1,0,0:0:0:0:
192,192,96279,1,0,0:0:0:0:
320,192,96279,1,0,0:0:0:0:
64,192,96416,1,0,0:0:0:0:
320,192,96416,1,0,0:0:0:0:
448,192,96416,1,0,0:0:0:0:
192,192,96552,1,0,0:0:0:0:
64,192,96552,1,0,0:0:0:0:
448,192,96688,1,0,0:0:0:0:
320,192,96688,1,0,0:0:0:0:
64,192,96688,1,0,0:0:0:0:
192,192,96825,1,0,0:0:0:0:
320,192,96825,1,0,0:0:0:0:
64,192,96961,1,0,0:0:0:0:
320,192,96961,1,0,0:0:0:0:
448,192,96961,1,0,0:0:0:0:
192,192,97098,1,0,0:0:0:0:
448,192,97098,1,0,0:0:0:0:
320,192,97234,1,0,0:0:0:0:
448,192,97234,1,0,0:0:0:0:
64,192,97234,1,0,0:0:0:0:
64,192,97370,1,0,0:0:0:0:
192,192,97507,1,0,0:0:0:0:
320,192,97507,1,0,0:0:0:0:
448,192,97507,1,0,0:0:0:0:
320,192,97643,1,0,0:0:0:0:
192,192,97779,1,0,0:0:0:0:
448,192,97779,1,0,0:0:0:0:
320,192,97916,1,0,0:0:0:0:
64,192,97916,1,0,0:0:0:0:
192,192,98052,1,0,0:0:0:0:
64,192,98052,1,0,0:0:0:0:
448,192,98188,1,0,0:0:0:0:
320,192,98257,1,0,0:0:0:0:
192,192,98325,1,0,0:0:0:0:
64,192,98393,1,0,0:0:0:0:
192,192,98461,1,0,0:0:0:0:
320,192,98529,1,0,0:0:0:0:
448,192,98598,1,0,0:0:0:0:
320,192,98666,1,0,0:0:0:0:
192,192,98734,1,0,0:0:0:0:
64,192,98870,1,0,0:0:0:0:
320,192,98870,1,0,0:0:0:0:
448,192,98870,1,0,0:0:0:0:
64,192,99279,1,0,0:0:0:0:
192,192,99279,1,0,0:0:0:0:
448,192,99279,1,0,0:0:0:0:
64,192,99552,1,0,0:0:0:0:
64,192,99825,1,0,0:0:0:0:
64,192,100098,1,0,0:0:0:0:
64,192,100370,1,0,0:0:0:0:
64,192,100643,1,0,0:0:0:0:
192,192,100916,1,0,0:0:0:0:
320,192,101052,1,0,0:0:0:0:
448,192,101052,1,0,0:0:0:0:
64,192,101052,1,0,0:0:0:0:
64,192,101461,1,0,0:0:0:0:
320,192,101461,1,0,0:0:0:0:
448,192,101461,1,0,0:0:0:0:
