osu file format v14

[General]
AudioFilename: ARM(IOSYS) - KoisuruUchu Sensou!! Abababa Mix.mp3
AudioLeadIn: 0
PreviewTime: 51495
Countdown: 0
SampleSet: Soft
StackLeniency: 0.7
Mode: 3
LetterboxInBreaks: 0
SpecialStyle: 0
WidescreenStoryboard: 1

[Editor]
DistanceSpacing: 1.5
BeatDivisor: 4
GridSize: 4
TimelineZoom: 1.4

[Metadata]
Title:4key & 7key Fantasy Last. Vol.
TitleUnicode:4key & 7key Fantasy Last. Vol.
Artist:Final Mania Dimension
ArtistUnicode:Final Mania Dimension
Creator:Un-known
Version:ARM - KoisuruUchu Sensou!! Ababa Mix [4key Hard]
Source:
Tags:
BeatmapID:686307
BeatmapSetID:298447

[Difficulty]
HPDrainRate:8
CircleSize:4
OverallDifficulty:8
ApproachRate:5
SliderMultiplier:1.4
SliderTickRate:1

[Events]
//Background and Video events
0,0,"2.png",0,0
//Break Periods
//Storyboard Layer 0 (Background)
//Storyboard Layer 1 (Fail)
//Storyboard Layer 2 (Pass)
//Storyboard Layer 3 (Foreground)
//Storyboard Sound Samples

[TimingPoints]
1095,300,4,2,0,30,1,0
51495,-100,4,2,0,30,0,1
70695,-100,4,2,0,30,0,0
89895,-100,4,2,0,30,0,1
101895,-100,4,2,0,30,0,0

[HitObjects]
448,192,1095,5,0,0:0:0:0:
320,192,1095,1,0,0:0:0:0:
64,192,1245,1,0,0:0:0:0:
64,192,1395,1,0,0:0:0:0:
320,192,1545,1,0,0:0:0:0:
192,192,1695,1,0,0:0:0:0:
192,192,1845,1,0,0:0:0:0:
448,192,1995,1,0,0:0:0:0:
320,192,2145,1,0,0:0:0:0:
320,192,2295,1,0,0:0:0:0:
448,192,2445,1,0,0:0:0:0:
448,192,2595,1,0,0:0:0:0:
448,192,2745,1,0,0:0:0:0:
192,192,3045,1,0,0:0:0:0:
64,192,3045,1,0,0:0:0:0:
448,192,3195,1,0,0:0:0:0:
320,192,3195,1,0,0:0:0:0:
64,192,3345,1,0,0:0:0:0:
448,192,3345,1,0,0:0:0:0:
320,192,3495,1,0,0:0:0:0:
192,192,3495,1,0,0:0:0:0:
64,192,3645,1,0,0:0:0:0:
64,192,3795,1,0,0:0:0:0:
320,192,3945,1,0,0:0:0:0:
192,192,4095,1,0,0:0:0:0:
192,192,4245,1,0,0:0:0:0:
448,192,4395,1,0,0:0:0:0:
320,192,4545,1,0,0:0:0:0:
320,192,4695,1,0,0:0:0:0:
448,192,4845,1,0,0:0:0:0:
448,192,4995,1,0,0:0:0:0:
448,192,5145,1,0,0:0:0:0:
448,192,5445,1,0,0:0:0:0:
320,192,5445,1,0,0:0:0:0:
448,192,5595,1,0,0:0:0:0:
320,192,5595,1,0,0:0:0:0:
64,192,5745,1,0,0:0:0:0:
192,192,5745,1,0,0:0:0:0:
64,192,5895,1,0,0:0:0:0:
192,192,5895,1,0,0:0:0:0:
320,192,6045,1,0,0:0:0:0:
320,192,6195,1,0,0:0:0:0:
320,192,6345,1,0,0:0:0:0:
320,192,6495,1,0,0:0:0:0:
192,192,6645,1,0,0:0:0:0:
448,192,6645,1,0,0:0:0:0:
448,192,6795,1,0,0:0:0:0:
192,192,6795,1,0,0:0:0:0:
64,192,6945,1,0,0:0:0:0:
320,192,6945,1,0,0:0:0:0:
320,192,7095,1,0,0:0:0:0:
64,192,7095,1,0,0:0:0:0:
192,192,7245,1,0,0:0:0:0:
192,192,7395,1,0,0:0:0:0:
192,192,7545,1,0,0:0:0:0:
192,192,7695,1,0,0:0:0:0:
64,192,7845,1,0,0:0:0:0:
448,192,7845,1,0,0:0:0:0:
320,192,7995,1,0,0:0:0:0:
192,192,7995,1,0,0:0:0:0:
192,192,8145,1,0,0:0:0:0:
320,192,8145,1,0,0:0:0:0:
448,192,8295,1,0,0:0:0:0:
64,192,8295,1,0,0:0:0:0:
320,192,8445,1,0,0:0:0:0:
448,192,8595,1,0,0:0:0:0:
192,192,8745,1,0,0:0:0:0:
64,192,8895,1,0,0:0:0:0:
320,192,8895,1,0,0:0:0:0:
192,192,9045,1,0,0:0:0:0:
448,192,9195,1,0,0:0:0:0:
320,192,9270,1,0,0:0:0:0:
192,192,9345,1,0,0:0:0:0:
64,192,9420,1,0,0:0:0:0:
320,192,9495,1,0,0:0:0:0:
448,192,9495,1,0,0:0:0:0:
64,192,9645,1,0,0:0:0:0:
320,192,9645,1,0,0:0:0:0:
192,192,9720,1,0,0:0:0:0:
320,192,9795,1,0,0:0:0:0:
448,192,9795,1,0,0:0:0:0:
64,192,9945,1,0,0:0:0:0:
448,192,9945,1,0,0:0:0:0:
192,192,10020,1,0,0:0:0:0:
64,192,10095,1,0,0:0:0:0:
320,192,10095,1,0,0:0:0:0:
64,192,10395,1,0,0:0:0:0:
192,192,10395,1,0,0:0:0:0:
448,192,10395,1,0,0:0:0:0:
192,192,10695,1,0,0:0:0:0:
448,192,10695,1,0,0:0:0:0:
320,192,10845,1,0,0:0:0:0:
192,192,10995,1,0,0:0:0:0:
64,192,10995,1,0,0:0:0:0:
448,192,10995,1,0,0:0:0:0:
320,192,11145,1,0,0:0:0:0:
192,192,11295,1,0,0:0:0:0:
448,192,11295,1,0,0:0:0:0:
64,192,11445,1,0,0:0:0:0:
192,192,11595,1,0,0:0:0:0:
320,192,11595,1,0,0:0:0:0:
448,192,11595,1,0,0:0:0:0:
192,192,11745,1,0,0:0:0:0:
448,192,11895,1,0,0:0:0:0:
64,192,11895,1,0,0:0:0:0:
320,192,12045,1,0,0:0:0:0:
64,192,12195,1,0,0:0:0:0:
192,192,12195,1,0,0:0:0:0:
448,192,12195,1,0,0:0:0:0:
320,192,12345,1,0,0:0:0:0:
448,192,12495,1,0,0:0:0:0:
192,192,12495,1,0,0:0:0:0:
64,192,12645,1,0,0:0:0:0:
192,192,12795,1,0,0:0:0:0:
320,192,12795,1,0,0:0:0:0:
64,192,12795,1,0,0:0:0:0:
320,192,12945,1,0,0:0:0:0:
64,192,13095,1,0,0:0:0:0:
448,192,13095,1,0,0:0:0:0:
192,192,13245,1,0,0:0:0:0:
192,192,13395,1,0,0:0:0:0:
320,192,13395,1,0,0:0:0:0:
448,192,13395,1,0,0:0:0:0:
64,192,13545,1,0,0:0:0:0:
64,192,13695,1,0,0:0:0:0:
320,192,13695,1,0,0:0:0:0:
192,192,13845,1,0,0:0:0:0:
64,192,13995,1,0,0:0:0:0:
320,192,13995,1,0,0:0:0:0:
448,192,13995,1,0,0:0:0:0:
320,192,14145,1,0,0:0:0:0:
448,192,14295,1,0,0:0:0:0:
64,192,14295,1,0,0:0:0:0:
448,192,14445,1,0,0:0:0:0:
192,192,14595,1,0,0:0:0:0:
64,192,14595,1,0,0:0:0:0:
320,192,14595,1,0,0:0:0:0:
64,192,14745,1,0,0:0:0:0:
192,192,14895,1,0,0:0:0:0:
448,192,14895,1,0,0:0:0:0:
320,192,15045,1,0,0:0:0:0:
448,192,15195,1,0,0:0:0:0:
192,192,15195,1,0,0:0:0:0:
64,192,15195,1,0,0:0:0:0:
320,192,15345,1,0,0:0:0:0:
192,192,15495,1,0,0:0:0:0:
448,192,15495,1,0,0:0:0:0:
320,192,15645,1,0,0:0:0:0:
64,192,15795,1,0,0:0:0:0:
192,192,15795,1,0,0:0:0:0:
448,192,15795,1,0,0:0:0:0:
320,192,15945,1,0,0:0:0:0:
192,192,16095,1,0,0:0:0:0:
448,192,16095,1,0,0:0:0:0:
64,192,16245,1,0,0:0:0:0:
192,192,16395,1,0,0:0:0:0:
448,192,16395,1,0,0:0:0:0:
320,192,16395,1,0,0:0:0:0:
192,192,16545,1,0,0:0:0:0:
64,192,16695,1,0,0:0:0:0:
320,192,16770,1,0,0:0:0:0:
192,192,16845,1,0,0:0:0:0:
448,192,16920,1,0,0:0:0:0:
320,192,16995,1,0,0:0:0:0:
192,192,17070,1,0,0:0:0:0:
320,192,17145,1,0,0:0:0:0:
64,192,17220,1,0,0:0:0:0:
192,192,17295,1,0,0:0:0:0:
320,192,17370,1,0,0:0:0:0:
448,192,17445,1,0,0:0:0:0:
320,192,17520,1,0,0:0:0:0:
192,192,17595,1,0,0:0:0:0:
64,192,17670,1,0,0:0:0:0:
320,192,17745,1,0,0:0:0:0:
64,192,17895,128,0,18345:0:0:0:0:
192,192,17895,128,0,18345:0:0:0:0:
448,192,18345,128,0,18570:0:0:0:0:
320,192,18345,128,0,18645:0:0:0:0:
64,192,18645,1,0,0:0:0:0:
192,192,18645,1,0,0:0:0:0:
448,192,18795,1,0,0:0:0:0:
320,192,18795,1,0,0:0:0:0:
64,192,19095,128,0,19245:0:0:0:0:
448,192,19095,128,0,19245:0:0:0:0:
192,192,19245,128,0,19545:0:0:0:0:
320,192,19245,128,0,19545:0:0:0:0:
448,192,19545,128,0,19845:0:0:0:0:
64,192,19545,128,0,19845:0:0:0:0:
192,192,19845,1,0,0:0:0:0:
320,192,19845,1,0,0:0:0:0:
448,192,19995,1,0,0:0:0:0:
64,192,19995,1,0,0:0:0:0:
64,192,20295,1,0,0:0:0:0:
320,192,20295,1,0,0:0:0:0:
192,192,20445,1,0,0:0:0:0:
448,192,20595,1,0,0:0:0:0:
320,192,20595,1,0,0:0:0:0:
64,192,20595,1,0,0:0:0:0:
192,192,20745,1,0,0:0:0:0:
320,192,20895,1,0,0:0:0:0:
448,192,21045,1,0,0:0:0:0:
192,192,21045,1,0,0:0:0:0:
64,192,21195,1,0,0:0:0:0:
192,192,21195,1,0,0:0:0:0:
320,192,21195,1,0,0:0:0:0:
320,192,21345,1,0,0:0:0:0:
64,192,21495,1,0,0:0:0:0:
448,192,21495,1,0,0:0:0:0:
192,192,21645,1,0,0:0:0:0:
64,192,21795,1,0,0:0:0:0:
448,192,21795,1,0,0:0:0:0:
320,192,21795,1,0,0:0:0:0:
192,192,21945,1,0,0:0:0:0:
448,192,21945,1,0,0:0:0:0:
320,192,22095,1,0,0:0:0:0:
448,192,22245,1,0,0:0:0:0:
64,192,22245,1,0,0:0:0:0:
448,192,22395,1,0,0:0:0:0:
320,192,22395,1,0,0:0:0:0:
192,192,22395,1,0,0:0:0:0:
192,192,22545,1,0,0:0:0:0:
448,192,22695,1,0,0:0:0:0:
64,192,22695,1,0,0:0:0:0:
320,192,22845,1,0,0:0:0:0:
320,192,22995,1,0,0:0:0:0:
192,192,22995,1,0,0:0:0:0:
64,192,22995,1,0,0:0:0:0:
448,192,23145,1,0,0:0:0:0:
192,192,23295,1,0,0:0:0:0:
320,192,23445,1,0,0:0:0:0:
64,192,23445,1,0,0:0:0:0:
64,192,23595,1,0,0:0:0:0:
192,192,23595,1,0,0:0:0:0:
448,192,23595,1,0,0:0:0:0:
192,192,23745,1,0,0:0:0:0:
64,192,23895,1,0,0:0:0:0:
192,192,23970,1,0,0:0:0:0:
320,192,24045,1,0,0:0:0:0:
448,192,24120,1,0,0:0:0:0:
192,192,24195,1,0,0:0:0:0:
320,192,24270,1,0,0:0:0:0:
192,192,24345,1,0,0:0:0:0:
64,192,24420,1,0,0:0:0:0:
192,192,24495,1,0,0:0:0:0:
320,192,24570,1,0,0:0:0:0:
192,192,24645,1,0,0:0:0:0:
448,192,24720,1,0,0:0:0:0:
192,192,24795,1,0,0:0:0:0:
64,192,24870,1,0,0:0:0:0:
320,192,24945,1,0,0:0:0:0:
192,192,25020,1,0,0:0:0:0:
64,192,25095,1,0,0:0:0:0:
320,192,25095,1,0,0:0:0:0:
320,192,25245,1,0,0:0:0:0:
448,192,25395,1,0,0:0:0:0:
192,192,25395,1,0,0:0:0:0:
64,192,25395,1,0,0:0:0:0:
320,192,25545,1,0,0:0:0:0:
64,192,25695,1,0,0:0:0:0:
192,192,25845,1,0,0:0:0:0:
448,192,25845,1,0,0:0:0:0:
64,192,25995,1,0,0:0:0:0:
320,192,25995,1,0,0:0:0:0:
448,192,25995,1,0,0:0:0:0:
192,192,26145,1,0,0:0:0:0:
64,192,26295,128,0,26595:0:0:0:0:
320,192,26295,128,0,26595:0:0:0:0:
192,192,26595,128,0,26745:0:0:0:0:
448,192,26595,128,0,26745:0:0:0:0:
64,192,26745,128,0,27045:0:0:0:0:
320,192,26745,128,0,27045:0:0:0:0:
192,192,27045,1,0,0:0:0:0:
448,192,27045,1,0,0:0:0:0:
320,192,27195,1,0,0:0:0:0:
64,192,27195,1,0,0:0:0:0:
64,192,27495,1,0,0:0:0:0:
192,192,27495,1,0,0:0:0:0:
448,192,27495,1,0,0:0:0:0:
320,192,27645,1,0,0:0:0:0:
192,192,27795,1,0,0:0:0:0:
64,192,27945,1,0,0:0:0:0:
320,192,27945,1,0,0:0:0:0:
192,192,28020,1,0,0:0:0:0:
448,192,28020,1,0,0:0:0:0:
64,192,28245,1,0,0:0:0:0:
448,192,28245,1,0,0:0:0:0:
320,192,28245,1,0,0:0:0:0:
320,192,28395,1,0,0:0:0:0:
192,192,28395,1,0,0:0:0:0:
448,192,28695,1,0,0:0:0:0:
320,192,28770,1,0,0:0:0:0:
64,192,28845,1,0,0:0:0:0:
320,192,28920,1,0,0:0:0:0:
192,192,28995,1,0,0:0:0:0:
448,192,29070,1,0,0:0:0:0:
320,192,29145,1,0,0:0:0:0:
192,192,29220,1,0,0:0:0:0:
448,192,29295,1,0,0:0:0:0:
320,192,29295,1,0,0:0:0:0:
192,192,29445,1,0,0:0:0:0:
320,192,29445,1,0,0:0:0:0:
192,192,29595,1,0,0:0:0:0:
64,192,29595,1,0,0:0:0:0:
320,192,29895,1,0,0:0:0:0:
448,192,29895,1,0,0:0:0:0:
192,192,30045,1,0,0:0:0:0:
64,192,30195,1,0,0:0:0:0:
192,192,30195,1,0,0:0:0:0:
448,192,30345,1,0,0:0:0:0:
320,192,30495,1,0,0:0:0:0:
320,192,30645,1,0,0:0:0:0:
192,192,30645,1,0,0:0:0:0:
64,192,30795,1,0,0:0:0:0:
448,192,30795,1,0,0:0:0:0:
192,192,30945,1,0,0:0:0:0:
192,192,31095,1,0,0:0:0:0:
64,192,31095,1,0,0:0:0:0:
448,192,31245,1,0,0:0:0:0:
320,192,31395,1,0,0:0:0:0:
448,192,31395,1,0,0:0:0:0:
192,192,31545,1,0,0:0:0:0:
64,192,31545,1,0,0:0:0:0:
320,192,31695,1,0,0:0:0:0:
192,192,31845,1,0,0:0:0:0:
320,192,31845,1,0,0:0:0:0:
64,192,31995,1,0,0:0:0:0:
448,192,31995,1,0,0:0:0:0:
192,192,32145,1,0,0:0:0:0:
64,192,32295,1,0,0:0:0:0:
320,192,32295,1,0,0:0:0:0:
448,192,32445,1,0,0:0:0:0:
192,192,32595,1,0,0:0:0:0:
448,192,32595,1,0,0:0:0:0:
320,192,32745,1,0,0:0:0:0:
64,192,32895,1,0,0:0:0:0:
448,192,33045,1,0,0:0:0:0:
192,192,33045,1,0,0:0:0:0:
320,192,33195,1,0,0:0:0:0:
64,192,33195,1,0,0:0:0:0:
192,192,33345,1,0,0:0:0:0:
320,192,33495,1,0,0:0:0:0:
448,192,33495,1,0,0:0:0:0:
192,192,33645,1,0,0:0:0:0:
64,192,33795,1,0,0:0:0:0:
320,192,33795,1,0,0:0:0:0:
192,192,33945,1,0,0:0:0:0:
448,192,33945,1,0,0:0:0:0:
64,192,34095,1,0,0:0:0:0:
320,192,34245,1,0,0:0:0:0:
448,192,34245,1,0,0:0:0:0:
192,192,34395,1,0,0:0:0:0:
64,192,34395,1,0,0:0:0:0:
320,192,34545,1,0,0:0:0:0:
64,192,34695,1,0,0:0:0:0:
448,192,34695,1,0,0:0:0:0:
192,192,34845,1,0,0:0:0:0:
320,192,34995,1,0,0:0:0:0:
448,192,34995,1,0,0:0:0:0:
192,192,35145,1,0,0:0:0:0:
448,192,35295,1,0,0:0:0:0:
64,192,35445,1,0,0:0:0:0:
192,192,35445,1,0,0:0:0:0:
320,192,35595,1,0,0:0:0:0:
448,192,35595,1,0,0:0:0:0:
64,192,35745,1,0,0:0:0:0:
320,192,35895,1,0,0:0:0:0:
448,192,35895,1,0,0:0:0:0:
448,192,36045,1,0,0:0:0:0:
320,192,36045,1,0,0:0:0:0:
192,192,36195,1,0,0:0:0:0:
64,192,36195,1,0,0:0:0:0:
320,192,36345,1,0,0:0:0:0:
448,192,36345,1,0,0:0:0:0:
192,192,36495,1,0,0:0:0:0:
64,192,36645,1,0,0:0:0:0:
320,192,36645,1,0,0:0:0:0:
192,192,36720,1,0,0:0:0:0:
320,192,36795,1,0,0:0:0:0:
448,192,36945,1,0,0:0:0:0:
192,192,36945,1,0,0:0:0:0:
320,192,37020,1,0,0:0:0:0:
192,192,37095,1,0,0:0:0:0:
64,192,37095,1,0,0:0:0:0:
192,192,37245,1,0,0:0:0:0:
448,192,37395,1,0,0:0:0:0:
320,192,37395,1,0,0:0:0:0:
192,192,37545,1,0,0:0:0:0:
320,192,37545,1,0,0:0:0:0:
64,192,37695,1,0,0:0:0:0:
448,192,37695,1,0,0:0:0:0:
192,192,37845,1,0,0:0:0:0:
448,192,37845,1,0,0:0:0:0:
320,192,37995,1,0,0:0:0:0:
448,192,37995,1,0,0:0:0:0:
320,192,38145,1,0,0:0:0:0:
192,192,38295,1,0,0:0:0:0:
64,192,38295,1,0,0:0:0:0:
320,192,38520,1,0,0:0:0:0:
192,192,38595,1,0,0:0:0:0:
448,192,38595,1,0,0:0:0:0:
192,192,38820,1,0,0:0:0:0:
64,192,38895,1,0,0:0:0:0:
320,192,38895,1,0,0:0:0:0:
64,192,39120,1,0,0:0:0:0:
320,192,39195,1,0,0:0:0:0:
448,192,39195,1,0,0:0:0:0:
448,192,39420,1,0,0:0:0:0:
192,192,39495,1,0,0:0:0:0:
64,192,39495,1,0,0:0:0:0:
64,192,40095,1,0,0:0:0:0:
64,192,41295,1,0,0:0:0:0:
64,192,42495,1,0,0:0:0:0:
64,192,43695,1,0,0:0:0:0:
320,192,43995,1,0,0:0:0:0:
448,192,43995,1,0,0:0:0:0:
64,192,44895,1,0,0:0:0:0:
64,192,46095,1,0,0:0:0:0:
64,192,47295,1,0,0:0:0:0:
320,192,47745,128,0,49095:0:0:0:0:
448,192,47745,128,0,49095:0:0:0:0:
64,192,47745,1,0,0:0:0:0:
192,192,47745,1,0,0:0:0:0:
64,192,49095,1,0,0:0:0:0:
192,192,49170,1,0,0:0:0:0:
448,192,49245,1,0,0:0:0:0:
320,192,49320,1,0,0:0:0:0:
192,192,49395,1,0,0:0:0:0:
64,192,49470,1,0,0:0:0:0:
320,192,49545,1,0,0:0:0:0:
192,192,49620,1,0,0:0:0:0:
320,192,49695,1,0,0:0:0:0:
448,192,49770,1,0,0:0:0:0:
320,192,49845,1,0,0:0:0:0:
192,192,49920,1,0,0:0:0:0:
64,192,49995,1,0,0:0:0:0:
192,192,50070,1,0,0:0:0:0:
320,192,50145,1,0,0:0:0:0:
192,192,50220,1,0,0:0:0:0:
448,192,50295,1,0,0:0:0:0:
320,192,50295,1,0,0:0:0:0:
64,192,50595,1,0,0:0:0:0:
192,192,50595,1,0,0:0:0:0:
320,192,50895,1,0,0:0:0:0:
448,192,50895,1,0,0:0:0:0:
64,192,51195,1,0,0:0:0:0:
192,192,51270,1,0,0:0:0:0:
448,192,51345,1,0,0:0:0:0:
320,192,51420,1,0,0:0:0:0:
448,192,51495,1,0,0:0:0:0:
192,192,51495,1,0,0:0:0:0:
320,192,51645,1,0,0:0:0:0:
64,192,51795,1,0,0:0:0:0:
192,192,51795,1,0,0:0:0:0:
448,192,51795,1,0,0:0:0:0:
320,192,51945,1,0,0:0:0:0:
448,192,52095,1,0,0:0:0:0:
192,192,52095,1,0,0:0:0:0:
64,192,52245,1,0,0:0:0:0:
192,192,52395,1,0,0:0:0:0:
448,192,52395,1,0,0:0:0:0:
320,192,52395,1,0,0:0:0:0:
192,192,52545,1,0,0:0:0:0:
448,192,52695,1,0,0:0:0:0:
64,192,52695,1,0,0:0:0:0:
320,192,52845,1,0,0:0:0:0:
448,192,52995,1,0,0:0:0:0:
64,192,52995,1,0,0:0:0:0:
192,192,52995,1,0,0:0:0:0:
320,192,53145,1,0,0:0:0:0:
192,192,53295,1,0,0:0:0:0:
448,192,53295,1,0,0:0:0:0:
64,192,53445,1,0,0:0:0:0:
192,192,53595,1,0,0:0:0:0:
64,192,53595,1,0,0:0:0:0:
320,192,53595,1,0,0:0:0:0:
320,192,53745,1,0,0:0:0:0:
448,192,53895,1,0,0:0:0:0:
64,192,53895,1,0,0:0:0:0:
192,192,54045,1,0,0:0:0:0:
192,192,54195,1,0,0:0:0:0:
320,192,54195,1,0,0:0:0:0:
448,192,54195,1,0,0:0:0:0:
64,192,54345,1,0,0:0:0:0:
64,192,54495,1,0,0:0:0:0:
320,192,54495,1,0,0:0:0:0:
192,192,54645,1,0,0:0:0:0:
64,192,54795,1,0,0:0:0:0:
320,192,54795,1,0,0:0:0:0:
448,192,54795,1,0,0:0:0:0:
320,192,54945,1,0,0:0:0:0:
448,192,55095,1,0,0:0:0:0:
64,192,55095,1,0,0:0:0:0:
448,192,55245,1,0,0:0:0:0:
192,192,55395,1,0,0:0:0:0:
320,192,55395,1,0,0:0:0:0:
64,192,55395,1,0,0:0:0:0:
64,192,55545,1,0,0:0:0:0:
192,192,55695,1,0,0:0:0:0:
448,192,55695,1,0,0:0:0:0:
320,192,55845,1,0,0:0:0:0:
64,192,55995,1,0,0:0:0:0:
192,192,55995,1,0,0:0:0:0:
448,192,55995,1,0,0:0:0:0:
320,192,56145,1,0,0:0:0:0:
64,192,56295,1,0,0:0:0:0:
320,192,56295,1,0,0:0:0:0:
192,192,56445,1,0,0:0:0:0:
448,192,56595,1,0,0:0:0:0:
64,192,56595,1,0,0:0:0:0:
320,192,56595,1,0,0:0:0:0:
192,192,56745,1,0,0:0:0:0:
64,192,56895,1,0,0:0:0:0:
320,192,56895,1,0,0:0:0:0:
448,192,57045,1,0,0:0:0:0:
320,192,57195,1,0,0:0:0:0:
64,192,57195,1,0,0:0:0:0:
192,192,57195,1,0,0:0:0:0:
320,192,57345,1,0,0:0:0:0:
64,192,57495,1,0,0:0:0:0:
448,192,57495,1,0,0:0:0:0:
192,192,57645,1,0,0:0:0:0:
448,192,57795,1,0,0:0:0:0:
320,192,57795,1,0,0:0:0:0:
64,192,57795,1,0,0:0:0:0:
192,192,57945,1,0,0:0:0:0:
64,192,58095,1,0,0:0:0:0:
320,192,58095,1,0,0:0:0:0:
448,192,58245,1,0,0:0:0:0:
192,192,58395,1,0,0:0:0:0:
448,192,58395,1,0,0:0:0:0:
320,192,58395,1,0,0:0:0:0:
192,192,58545,1,0,0:0:0:0:
320,192,58695,1,0,0:0:0:0:
448,192,58695,1,0,0:0:0:0:
192,192,58845,1,0,0:0:0:0:
64,192,58845,1,0,0:0:0:0:
320,192,58995,1,0,0:0:0:0:
448,192,58995,1,0,0:0:0:0:
64,192,59145,1,0,0:0:0:0:
192,192,59145,1,0,0:0:0:0:
320,192,59295,1,0,0:0:0:0:
448,192,59295,1,0,0:0:0:0:
192,192,59445,1,0,0:0:0:0:
64,192,59445,1,0,0:0:0:0:
320,192,59595,1,0,0:0:0:0:
448,192,59595,1,0,0:0:0:0:
192,192,59745,1,0,0:0:0:0:
320,192,59745,1,0,0:0:0:0:
320,192,60045,1,0,0:0:0:0:
448,192,60045,1,0,0:0:0:0:
64,192,60045,1,0,0:0:0:0:
192,192,60195,1,0,0:0:0:0:
320,192,60195,1,0,0:0:0:0:
64,192,60345,1,0,0:0:0:0:
192,192,60345,1,0,0:0:0:0:
448,192,60345,1,0,0:0:0:0:
320,192,60495,1,0,0:0:0:0:
448,192,60495,1,0,0:0:0:0:
64,192,60645,1,0,0:0:0:0:
192,192,60645,1,0,0:0:0:0:
320,192,60645,1,0,0:0:0:0:
320,192,60795,1,0,0:0:0:0:
192,192,60795,1,0,0:0:0:0:
192,192,60945,1,0,0:0:0:0:
320,192,60945,1,0,0:0:0:0:
448,192,60945,1,0,0:0:0:0:
64,192,61095,1,0,0:0:0:0:
320,192,61095,1,0,0:0:0:0:
192,192,61245,1,0,0:0:0:0:
64,192,61395,1,0,0:0:0:0:
448,192,61395,1,0,0:0:0:0:
320,192,61395,1,0,0:0:0:0:
192,192,61545,1,0,0:0:0:0:
64,192,61695,1,0,0:0:0:0:
320,192,61695,1,0,0:0:0:0:
448,192,61845,1,0,0:0:0:0:
192,192,61995,1,0,0:0:0:0:
320,192,61995,1,0,0:0:0:0:
64,192,61995,1,0,0:0:0:0:
320,192,62145,1,0,0:0:0:0:
448,192,62295,1,0,0:0:0:0:
64,192,62295,1,0,0:0:0:0:
192,192,62445,1,0,0:0:0:0:
320,192,62595,1,0,0:0:0:0:
448,192,62595,1,0,0:0:0:0:
64,192,62595,1,0,0:0:0:0:
192,192,62745,1,0,0:0:0:0:
320,192,62895,1,0,0:0:0:0:
64,192,62895,1,0,0:0:0:0:
448,192,63045,1,0,0:0:0:0:
448,192,63195,1,0,0:0:0:0:
192,192,63195,1,0,0:0:0:0:
320,192,63195,1,0,0:0:0:0:
192,192,63345,1,0,0:0:0:0:
448,192,63495,1,0,0:0:0:0:
64,192,63495,1,0,0:0:0:0:
320,192,63645,1,0,0:0:0:0:
320,192,63795,1,0,0:0:0:0:
192,192,63795,1,0,0:0:0:0:
64,192,63795,1,0,0:0:0:0:
448,192,63945,1,0,0:0:0:0:
448,192,64095,1,0,0:0:0:0:
192,192,64095,1,0,0:0:0:0:
320,192,64245,1,0,0:0:0:0:
448,192,64395,1,0,0:0:0:0:
64,192,64395,1,0,0:0:0:0:
192,192,64395,1,0,0:0:0:0:
192,192,64545,1,0,0:0:0:0:
448,192,64695,1,0,0:0:0:0:
64,192,64695,1,0,0:0:0:0:
64,192,64845,1,0,0:0:0:0:
192,192,64995,1,0,0:0:0:0:
448,192,64995,1,0,0:0:0:0:
320,192,64995,1,0,0:0:0:0:
448,192,65145,1,0,0:0:0:0:
64,192,65295,1,0,0:0:0:0:
320,192,65295,1,0,0:0:0:0:
192,192,65445,1,0,0:0:0:0:
320,192,65595,1,0,0:0:0:0:
64,192,65595,1,0,0:0:0:0:
448,192,65595,1,0,0:0:0:0:
192,192,65745,1,0,0:0:0:0:
448,192,65895,1,0,0:0:0:0:
192,192,65895,1,0,0:0:0:0:
320,192,66045,1,0,0:0:0:0:
192,192,66195,1,0,0:0:0:0:
448,192,66195,1,0,0:0:0:0:
64,192,66195,1,0,0:0:0:0:
320,192,66345,1,0,0:0:0:0:
448,192,66495,1,0,0:0:0:0:
192,192,66495,1,0,0:0:0:0:
64,192,66645,1,0,0:0:0:0:
192,192,66795,1,0,0:0:0:0:
448,192,66795,1,0,0:0:0:0:
320,192,66795,1,0,0:0:0:0:
192,192,66945,1,0,0:0:0:0:
448,192,67095,1,0,0:0:0:0:
64,192,67095,1,0,0:0:0:0:
320,192,67245,1,0,0:0:0:0:
64,192,67395,1,0,0:0:0:0:
448,192,67395,1,0,0:0:0:0:
192,192,67395,1,0,0:0:0:0:
320,192,67545,1,0,0:0:0:0:
192,192,67695,1,0,0:0:0:0:
448,192,67695,1,0,0:0:0:0:
64,192,67845,1,0,0:0:0:0:
64,192,67995,1,0,0:0:0:0:
320,192,67995,1,0,0:0:0:0:
192,192,67995,1,0,0:0:0:0:
320,192,68145,1,0,0:0:0:0:
64,192,68295,1,0,0:0:0:0:
448,192,68295,1,0,0:0:0:0:
192,192,68445,1,0,0:0:0:0:
448,192,68595,1,0,0:0:0:0:
64,192,68595,1,0,0:0:0:0:
320,192,68595,1,0,0:0:0:0:
192,192,68745,1,0,0:0:0:0:
320,192,68895,1,0,0:0:0:0:
64,192,68895,1,0,0:0:0:0:
448,192,69045,1,0,0:0:0:0:
192,192,69195,1,0,0:0:0:0:
320,192,69195,1,0,0:0:0:0:
448,192,69195,1,0,0:0:0:0:
192,192,69345,1,0,0:0:0:0:
320,192,69495,1,0,0:0:0:0:
448,192,69495,1,0,0:0:0:0:
320,192,69645,1,0,0:0:0:0:
448,192,69645,1,0,0:0:0:0:
192,192,69795,1,0,0:0:0:0:
64,192,69945,1,0,0:0:0:0:
320,192,69945,1,0,0:0:0:0:
448,192,69945,128,0,70395:0:0:0:0:
320,192,70395,128,0,70545:0:0:0:0:
192,192,70545,128,0,70695:0:0:0:0:
448,192,70695,128,0,70845:0:0:0:0:
320,192,70695,1,0,0:0:0:0:
64,192,70695,1,0,0:0:0:0:
320,192,70995,128,0,71145:0:0:0:0:
192,192,70995,1,0,0:0:0:0:
64,192,70995,1,0,0:0:0:0:
64,192,71295,128,0,71595:0:0:0:0:
448,192,71295,1,0,0:0:0:0:
192,192,71295,1,0,0:0:0:0:
192,192,71595,128,0,71745:0:0:0:0:
320,192,71595,1,0,0:0:0:0:
448,192,71595,1,0,0:0:0:0:
320,192,71745,128,0,71895:0:0:0:0:
64,192,71895,1,0,0:0:0:0:
448,192,71895,1,0,0:0:0:0:
448,192,72045,128,0,72345:0:0:0:0:
320,192,72195,1,0,0:0:0:0:
64,192,72195,1,0,0:0:0:0:
192,192,72345,128,0,72495:0:0:0:0:
64,192,72495,128,0,72645:0:0:0:0:
320,192,72495,1,0,0:0:0:0:
448,192,72495,1,0,0:0:0:0:
192,192,72645,128,0,72795:0:0:0:0:
320,192,72795,128,0,72945:0:0:0:0:
64,192,72795,1,0,0:0:0:0:
448,192,72795,1,0,0:0:0:0:
448,192,72945,128,0,73095:0:0:0:0:
320,192,73095,128,0,74145:0:0:0:0:
192,192,73095,1,0,0:0:0:0:
64,192,73095,1,0,0:0:0:0:
64,192,73395,1,0,0:0:0:0:
448,192,73395,1,0,0:0:0:0:
448,192,73695,1,0,0:0:0:0:
192,192,73695,1,0,0:0:0:0:
64,192,73995,1,0,0:0:0:0:
192,192,73995,1,0,0:0:0:0:
192,192,74145,128,0,74220:0:0:0:0:
64,192,74220,128,0,74295:0:0:0:0:
448,192,74295,128,0,75195:0:0:0:0:
320,192,74295,1,0,0:0:0:0:
192,192,74295,1,0,0:0:0:0:
320,192,74595,1,0,0:0:0:0:
64,192,74595,1,0,0:0:0:0:
192,192,74895,1,0,0:0:0:0:
64,192,74895,1,0,0:0:0:0:
320,192,75195,1,0,0:0:0:0:
192,192,75195,1,0,0:0:0:0:
64,192,75345,128,0,75495:0:0:0:0:
192,192,75495,128,0,75645:0:0:0:0:
448,192,75495,1,0,0:0:0:0:
320,192,75495,1,0,0:0:0:0:
448,192,75795,128,0,75945:0:0:0:0:
64,192,75795,1,0,0:0:0:0:
320,192,75795,1,0,0:0:0:0:
320,192,76095,128,0,76395:0:0:0:0:
192,192,76095,1,0,0:0:0:0:
64,192,76095,1,0,0:0:0:0:
64,192,76395,128,0,76545:0:0:0:0:
192,192,76395,1,0,0:0:0:0:
448,192,76395,1,0,0:0:0:0:
192,192,76545,128,0,76845:0:0:0:0:
448,192,76695,1,0,0:0:0:0:
320,192,76695,1,0,0:0:0:0:
320,192,76845,128,0,76995:0:0:0:0:
448,192,76995,128,0,77145:0:0:0:0:
64,192,76995,1,0,0:0:0:0:
192,192,76995,1,0,0:0:0:0:
320,192,77145,128,0,77295:0:0:0:0:
192,192,77295,128,0,77445:0:0:0:0:
448,192,77295,1,0,0:0:0:0:
64,192,77295,1,0,0:0:0:0:
64,192,77445,128,0,77595:0:0:0:0:
320,192,77595,128,0,77745:0:0:0:0:
448,192,77595,1,0,0:0:0:0:
192,192,77595,1,0,0:0:0:0:
192,192,77745,128,0,77895:0:0:0:0:
448,192,77895,1,0,0:0:0:0:
320,192,77895,1,0,0:0:0:0:
448,192,78045,1,0,0:0:0:0:
320,192,78045,1,0,0:0:0:0:
64,192,78195,1,0,0:0:0:0:
192,192,78195,1,0,0:0:0:0:
192,192,78345,1,0,0:0:0:0:
64,192,78345,1,0,0:0:0:0:
192,192,78495,1,0,0:0:0:0:
320,192,78495,1,0,0:0:0:0:
320,192,78645,1,0,0:0:0:0:
192,192,78645,1,0,0:0:0:0:
64,192,78795,1,0,0:0:0:0:
448,192,78795,1,0,0:0:0:0:
448,192,78945,1,0,0:0:0:0:
64,192,78945,1,0,0:0:0:0:
192,192,79095,1,0,0:0:0:0:
320,192,79095,1,0,0:0:0:0:
448,192,79095,1,0,0:0:0:0:
320,192,79245,1,0,0:0:0:0:
192,192,79245,1,0,0:0:0:0:
64,192,79395,1,0,0:0:0:0:
192,192,79395,1,0,0:0:0:0:
320,192,79395,1,0,0:0:0:0:
320,192,79545,1,0,0:0:0:0:
448,192,79545,1,0,0:0:0:0:
448,192,79695,1,0,0:0:0:0:
192,192,79695,1,0,0:0:0:0:
64,192,79695,1,0,0:0:0:0:
192,192,79845,1,0,0:0:0:0:
320,192,79845,1,0,0:0:0:0:
64,192,79995,1,0,0:0:0:0:
320,192,79995,1,0,0:0:0:0:
448,192,79995,1,0,0:0:0:0:
192,192,80145,1,0,0:0:0:0:
320,192,80145,1,0,0:0:0:0:
448,192,80295,128,0,82695:0:0:0:0:
64,192,80295,1,0,0:0:0:0:
320,192,80595,1,0,0:0:0:0:
192,192,80895,1,0,0:0:0:0:
64,192,81195,1,0,0:0:0:0:
320,192,81495,1,0,0:0:0:0:
64,192,81795,1,0,0:0:0:0:
192,192,82095,1,0,0:0:0:0:
64,192,82395,1,0,0:0:0:0:
320,192,82695,1,0,0:0:0:0:
64,192,82695,1,0,0:0:0:0:
192,192,82995,1,0,0:0:0:0:
448,192,83295,1,0,0:0:0:0:
64,192,83595,1,0,0:0:0:0:
320,192,83895,1,0,0:0:0:0:
192,192,84195,1,0,0:0:0:0:
64,192,84495,1,0,0:0:0:0:
448,192,84795,1,0,0:0:0:0:
192,192,85095,1,0,0:0:0:0:
64,192,85095,1,0,0:0:0:0:
320,192,85395,1,0,0:0:0:0:
64,192,85695,1,0,0:0:0:0:
448,192,85995,1,0,0:0:0:0:
192,192,86295,1,0,0:0:0:0:
320,192,86295,1,0,0:0:0:0:
320,192,86595,1,0,0:0:0:0:
64,192,86895,1,0,0:0:0:0:
448,192,87195,1,0,0:0:0:0:
448,192,87495,128,0,87570:0:0:0:0:
320,192,87495,1,0,0:0:0:0:
448,192,87645,128,0,87720:0:0:0:0:
64,192,87795,128,0,87870:0:0:0:0:
64,192,87945,128,0,88020:0:0:0:0:
320,192,88095,128,0,88170:0:0:0:0:
320,192,88245,128,0,88320:0:0:0:0:
192,192,88395,128,0,88470:0:0:0:0:
192,192,88545,128,0,88620:0:0:0:0:
64,192,88845,1,0,0:0:0:0:
192,192,88920,1,0,0:0:0:0:
320,192,88995,1,0,0:0:0:0:
192,192,89145,1,0,0:0:0:0:
320,192,89295,1,0,0:0:0:0:
448,192,89295,1,0,0:0:0:0:
448,192,89595,1,0,0:0:0:0:
320,192,89595,1,0,0:0:0:0:
448,192,89895,1,0,0:0:0:0:
192,192,89895,1,0,0:0:0:0:
320,192,90045,1,0,0:0:0:0:
448,192,90195,1,0,0:0:0:0:
64,192,90195,1,0,0:0:0:0:
192,192,90195,1,0,0:0:0:0:
320,192,90345,1,0,0:0:0:0:
192,192,90495,1,0,0:0:0:0:
448,192,90495,1,0,0:0:0:0:
64,192,90645,1,0,0:0:0:0:
448,192,90795,1,0,0:0:0:0:
320,192,90795,1,0,0:0:0:0:
192,192,90795,1,0,0:0:0:0:
192,192,90945,1,0,0:0:0:0:
64,192,91095,1,0,0:0:0:0:
448,192,91095,1,0,0:0:0:0:
320,192,91245,1,0,0:0:0:0:
64,192,91395,1,0,0:0:0:0:
192,192,91395,1,0,0:0:0:0:
448,192,91395,1,0,0:0:0:0:
320,192,91545,1,0,0:0:0:0:
448,192,91695,1,0,0:0:0:0:
192,192,91695,1,0,0:0:0:0:
64,192,91845,1,0,0:0:0:0:
192,192,91995,1,0,0:0:0:0:
64,192,91995,1,0,0:0:0:0:
320,192,91995,1,0,0:0:0:0:
320,192,92145,1,0,0:0:0:0:
64,192,92295,1,0,0:0:0:0:
448,192,92295,1,0,0:0:0:0:
192,192,92445,1,0,0:0:0:0:
320,192,92595,1,0,0:0:0:0:
192,192,92595,1,0,0:0:0:0:
448,192,92595,1,0,0:0:0:0:
64,192,92745,1,0,0:0:0:0:
320,192,92895,1,0,0:0:0:0:
64,192,92895,1,0,0:0:0:0:
192,192,93045,1,0,0:0:0:0:
448,192,93195,1,0,0:0:0:0:
64,192,93195,1,0,0:0:0:0:
320,192,93195,1,0,0:0:0:0:
320,192,93345,1,0,0:0:0:0:
448,192,93495,1,0,0:0:0:0:
64,192,93495,1,0,0:0:0:0:
448,192,93645,1,0,0:0:0:0:
320,192,93795,1,0,0:0:0:0:
64,192,93795,1,0,0:0:0:0:
192,192,93795,1,0,0:0:0:0:
64,192,93945,1,0,0:0:0:0:
448,192,94095,1,0,0:0:0:0:
192,192,94095,1,0,0:0:0:0:
320,192,94245,1,0,0:0:0:0:
64,192,94395,1,0,0:0:0:0:
448,192,94395,1,0,0:0:0:0:
192,192,94395,1,0,0:0:0:0:
320,192,94545,1,0,0:0:0:0:
64,192,94695,1,0,0:0:0:0:
320,192,94695,1,0,0:0:0:0:
192,192,94845,1,0,0:0:0:0:
64,192,94995,1,0,0:0:0:0:
448,192,94995,1,0,0:0:0:0:
320,192,94995,1,0,0:0:0:0:
192,192,95145,1,0,0:0:0:0:
64,192,95295,1,0,0:0:0:0:
320,192,95295,1,0,0:0:0:0:
448,192,95445,1,0,0:0:0:0:
64,192,95595,1,0,0:0:0:0:
320,192,95595,1,0,0:0:0:0:
192,192,95595,1,0,0:0:0:0:
320,192,95745,1,0,0:0:0:0:
320,192,95895,1,0,0:0:0:0:
448,192,95895,1,0,0:0:0:0:
192,192,95970,1,0,0:0:0:0:
64,192,96045,1,0,0:0:0:0:
320,192,96045,1,0,0:0:0:0:
192,192,96195,1,0,0:0:0:0:
448,192,96195,1,0,0:0:0:0:
448,192,96345,1,0,0:0:0:0:
320,192,96345,1,0,0:0:0:0:
192,192,96495,1,0,0:0:0:0:
64,192,96495,1,0,0:0:0:0:
448,192,96795,1,0,0:0:0:0:
64,192,96795,1,0,0:0:0:0:
320,192,96795,1,0,0:0:0:0:
64,192,97095,1,0,0:0:0:0:
192,192,97095,1,0,0:0:0:0:
448,192,97095,1,0,0:0:0:0:
320,192,98295,1,0,0:0:0:0:
448,192,98295,1,0,0:0:0:0:
64,192,98745,1,0,0:0:0:0:
192,192,98745,1,0,0:0:0:0:
192,192,99195,1,0,0:0:0:0:
320,192,99195,1,0,0:0:0:0:
192,192,99495,1,0,0:0:0:0:
448,192,99495,1,0,0:0:0:0:
320,192,99645,1,0,0:0:0:0:
448,192,99795,1,0,0:0:0:0:
64,192,99795,1,0,0:0:0:0:
192,192,99795,1,0,0:0:0:0:
320,192,99945,1,0,0:0:0:0:
448,192,100095,1,0,0:0:0:0:
192,192,100095,1,0,0:0:0:0:
64,192,100245,1,0,0:0:0:0:
448,192,100395,1,0,0:0:0:0:
320,192,100395,1,0,0:0:0:0:
192,192,100395,1,0,0:0:0:0:
192,192,100545,1,0,0:0:0:0:
64,192,100695,1,0,0:0:0:0:
448,192,100695,1,0,0:0:0:0:
320,192,100845,1,0,0:0:0:0:
64,192,100995,1,0,0:0:0:0:
192,192,100995,1,0,0:0:0:0:
448,192,100995,1,0,0:0:0:0:
320,192,101145,1,0,0:0:0:0:
192,192,101295,1,0,0:0:0:0:
448,192,101295,1,0,0:0:0:0:
64,192,101445,1,0,0:0:0:0:
192,192,101595,1,0,0:0:0:0:
64,192,101595,1,0,0:0:0:0:
320,192,101595,1,0,0:0:0:0:
320,192,101745,1,0,0:0:0:0:
192,192,101895,128,0,103095:0:0:0:0:
448,192,101895,128,0,103095:0:0:0:0:
320,192,103095,1,0,0:0:0:0:
64,192,103095,1,0,0:0:0:0:
