osu file format v14

[General]
AudioFilename: Otaser Revolution.mp3
AudioLeadIn: 0
PreviewTime: 67871
Countdown: 0
SampleSet: Soft
StackLeniency: 0.7
Mode: 3
LetterboxInBreaks: 0
EpilepsyWarning: 1
SpecialStyle: 1
WidescreenStoryboard: 1

[Editor]
DistanceSpacing: 1
BeatDivisor: 4
GridSize: 8
TimelineZoom: 1.9

[Metadata]
Title:4key & 7key Fantasy Last. Vol.
TitleUnicode:4key & 7key Fantasy Last. Vol.
Artist:Final Mania Dimension
ArtistUnicode:Final Mania Dimension
Creator:Un-known
Version:ARM (IOSYS) - Otaser*Revolution [4key Normal] [nyaa_void]
Source:
Tags:
BeatmapID:674996
BeatmapSetID:298447

[Difficulty]
HPDrainRate:6
CircleSize:4
OverallDifficulty:6
ApproachRate:5
SliderMultiplier:1.4
SliderTickRate:1

[Events]
//Background and Video events
0,0,"3.jpg",0,0
//Break Periods
//Storyboard Layer 0 (Background)
//Storyboard Layer 1 (Fail)
//Storyboard Layer 2 (Pass)
//Storyboard Layer 3 (Foreground)
//Storyboard Sound Samples

[TimingPoints]
1750,324.324324324324,4,2,0,30,1,0
12128,-100,4,2,0,30,0,1
19912,-100,4,2,0,30,0,0
67912,-100,4,2,0,30,0,1
78128,-100,4,2,0,30,0,0
78290,-100,4,2,0,30,0,1
88668,-100,4,2,0,30,0,0
96452,-100,4,2,0,30,0,1
104236,-100,4,2,0,30,0,0

[HitObjects]
64,192,1750,128,0,4344:0:0:0:0:
320,192,1831,1,0,0:0:0:0:
448,192,1912,1,0,0:0:0:0:
320,192,1993,1,0,0:0:0:0:
192,192,2236,1,0,0:0:0:0:
320,192,2317,1,0,0:0:0:0:
448,192,2398,1,0,0:0:0:0:
192,192,2560,1,0,0:0:0:0:
448,192,2722,1,0,0:0:0:0:
320,192,2885,1,0,0:0:0:0:
192,192,3047,1,0,0:0:0:0:
448,192,3209,1,0,0:0:0:0:
320,192,3371,1,0,0:0:0:0:
448,192,3533,1,0,0:0:0:0:
192,192,3695,1,0,0:0:0:0:
448,192,3858,1,0,0:0:0:0:
320,192,4020,1,0,0:0:0:0:
448,192,4344,128,0,6290:0:0:0:0:
192,192,4344,1,0,0:0:0:0:
320,192,4425,1,0,0:0:0:0:
192,192,4506,1,0,0:0:0:0:
320,192,4587,1,0,0:0:0:0:
64,192,4668,1,0,0:0:0:0:
192,192,4831,1,0,0:0:0:0:
320,192,4912,1,0,0:0:0:0:
192,192,4993,1,0,0:0:0:0:
64,192,5074,1,0,0:0:0:0:
64,192,5317,1,0,0:0:0:0:
192,192,5479,1,0,0:0:0:0:
320,192,5641,1,0,0:0:0:0:
64,192,5804,1,0,0:0:0:0:
192,192,5966,1,0,0:0:0:0:
64,192,6128,1,0,0:0:0:0:
192,192,6290,1,0,0:0:0:0:
448,192,6452,1,0,0:0:0:0:
320,192,6452,1,0,0:0:0:0:
320,192,6614,1,0,0:0:0:0:
448,192,6614,1,0,0:0:0:0:
320,192,6777,1,0,0:0:0:0:
448,192,6777,1,0,0:0:0:0:
64,192,6939,128,0,9533:0:0:0:0:
320,192,6939,128,0,8885:0:0:0:0:
448,192,7263,1,0,0:0:0:0:
192,192,7587,1,0,0:0:0:0:
448,192,7912,1,0,0:0:0:0:
192,192,8236,1,0,0:0:0:0:
448,192,8560,1,0,0:0:0:0:
448,192,8885,1,0,0:0:0:0:
320,192,9047,1,0,0:0:0:0:
448,192,9047,1,0,0:0:0:0:
320,192,9209,1,0,0:0:0:0:
448,192,9209,1,0,0:0:0:0:
448,192,9371,1,0,0:0:0:0:
320,192,9371,1,0,0:0:0:0:
320,192,9533,128,0,10182:0:0:0:0:
448,192,9533,1,0,0:0:0:0:
192,192,9533,128,0,10182:0:0:0:0:
448,192,10182,128,0,10831:0:0:0:0:
64,192,10182,128,0,10831:0:0:0:0:
192,192,10831,128,0,12128:0:0:0:0:
320,192,11479,128,0,12128:0:0:0:0:
64,192,12128,1,0,0:0:0:0:
192,192,12452,1,0,0:0:0:0:
448,192,12452,1,0,0:0:0:0:
192,192,12777,1,0,0:0:0:0:
448,192,12777,1,0,0:0:0:0:
64,192,13101,1,0,0:0:0:0:
320,192,13101,1,0,0:0:0:0:
320,192,13425,1,0,0:0:0:0:
448,192,13425,1,0,0:0:0:0:
64,192,13587,1,0,0:0:0:0:
64,192,13749,1,0,0:0:0:0:
64,192,13912,1,0,0:0:0:0:
320,192,14074,1,0,0:0:0:0:
448,192,14074,128,0,14398:0:0:0:0:
320,192,14398,1,0,0:0:0:0:
192,192,14722,1,0,0:0:0:0:
320,192,14722,1,0,0:0:0:0:
320,192,15047,1,0,0:0:0:0:
448,192,15047,1,0,0:0:0:0:
64,192,15371,1,0,0:0:0:0:
192,192,15371,1,0,0:0:0:0:
320,192,15695,1,0,0:0:0:0:
448,192,15695,1,0,0:0:0:0:
64,192,16020,1,0,0:0:0:0:
192,192,16020,1,0,0:0:0:0:
448,192,16182,1,0,0:0:0:0:
192,192,16344,1,0,0:0:0:0:
320,192,16506,1,0,0:0:0:0:
64,192,16668,1,0,0:0:0:0:
448,192,16668,1,0,0:0:0:0:
64,192,16993,1,0,0:0:0:0:
448,192,16993,1,0,0:0:0:0:
192,192,17317,1,0,0:0:0:0:
320,192,17317,1,0,0:0:0:0:
64,192,17601,1,0,0:0:0:0:
192,192,17601,1,0,0:0:0:0:
64,192,17966,1,0,0:0:0:0:
192,192,17966,1,0,0:0:0:0:
448,192,18128,1,0,0:0:0:0:
320,192,18290,1,0,0:0:0:0:
64,192,18290,1,0,0:0:0:0:
192,192,18452,1,0,0:0:0:0:
64,192,18614,1,0,0:0:0:0:
320,192,18614,1,0,0:0:0:0:
448,192,18777,1,0,0:0:0:0:
448,192,18939,1,0,0:0:0:0:
448,192,19101,1,0,0:0:0:0:
64,192,19263,128,0,19912:0:0:0:0:
320,192,19263,1,0,0:0:0:0:
320,192,19912,1,0,0:0:0:0:
448,192,19912,1,0,0:0:0:0:
192,192,20236,1,0,0:0:0:0:
64,192,20560,1,0,0:0:0:0:
448,192,20560,1,0,0:0:0:0:
320,192,20804,1,0,0:0:0:0:
64,192,21047,1,0,0:0:0:0:
448,192,21047,1,0,0:0:0:0:
320,192,21371,1,0,0:0:0:0:
448,192,21371,1,0,0:0:0:0:
64,192,21533,1,0,0:0:0:0:
192,192,21533,1,0,0:0:0:0:
320,192,21858,128,0,22344:0:0:0:0:
448,192,21858,128,0,23804:0:0:0:0:
64,192,22506,1,0,0:0:0:0:
192,192,22831,1,0,0:0:0:0:
320,192,23155,1,0,0:0:0:0:
64,192,23479,1,0,0:0:0:0:
192,192,23804,1,0,0:0:0:0:
320,192,24128,1,0,0:0:0:0:
64,192,24128,1,0,0:0:0:0:
192,192,24452,1,0,0:0:0:0:
64,192,24452,1,0,0:0:0:0:
448,192,24614,1,0,0:0:0:0:
192,192,24777,1,0,0:0:0:0:
64,192,24777,1,0,0:0:0:0:
320,192,25101,1,0,0:0:0:0:
192,192,25101,1,0,0:0:0:0:
64,192,25425,1,0,0:0:0:0:
448,192,25425,1,0,0:0:0:0:
64,192,25749,1,0,0:0:0:0:
192,192,25749,1,0,0:0:0:0:
320,192,26074,1,0,0:0:0:0:
448,192,26074,1,0,0:0:0:0:
192,192,26398,1,0,0:0:0:0:
448,192,26398,1,0,0:0:0:0:
320,192,26560,1,0,0:0:0:0:
192,192,26722,1,0,0:0:0:0:
320,192,26885,1,0,0:0:0:0:
448,192,26885,1,0,0:0:0:0:
64,192,27047,128,0,27695:0:0:0:0:
192,192,27047,1,0,0:0:0:0:
448,192,27371,1,0,0:0:0:0:
192,192,27695,1,0,0:0:0:0:
320,192,27695,1,0,0:0:0:0:
320,192,28020,1,0,0:0:0:0:
448,192,28020,1,0,0:0:0:0:
192,192,28344,1,0,0:0:0:0:
64,192,28344,1,0,0:0:0:0:
64,192,28668,1,0,0:0:0:0:
448,192,28668,1,0,0:0:0:0:
64,192,28993,1,0,0:0:0:0:
320,192,28993,1,0,0:0:0:0:
192,192,29317,1,0,0:0:0:0:
448,192,29317,1,0,0:0:0:0:
64,192,29641,1,0,0:0:0:0:
192,192,29641,1,0,0:0:0:0:
320,192,29804,1,0,0:0:0:0:
192,192,29966,1,0,0:0:0:0:
448,192,29966,1,0,0:0:0:0:
320,192,30290,1,0,0:0:0:0:
192,192,30290,1,0,0:0:0:0:
448,192,30452,1,0,0:0:0:0:
320,192,30614,1,0,0:0:0:0:
64,192,30614,1,0,0:0:0:0:
64,192,30939,128,0,31263:0:0:0:0:
448,192,30939,128,0,31263:0:0:0:0:
320,192,31263,1,0,0:0:0:0:
448,192,31587,1,0,0:0:0:0:
320,192,31587,1,0,0:0:0:0:
192,192,31749,1,0,0:0:0:0:
64,192,31749,1,0,0:0:0:0:
320,192,31912,1,0,0:0:0:0:
448,192,31912,1,0,0:0:0:0:
64,192,32074,1,0,0:0:0:0:
192,192,32074,1,0,0:0:0:0:
448,192,32236,128,0,32885:0:0:0:0:
64,192,32560,1,0,0:0:0:0:
192,192,32885,1,0,0:0:0:0:
320,192,32885,1,0,0:0:0:0:
64,192,33047,1,0,0:0:0:0:
320,192,33209,1,0,0:0:0:0:
448,192,33209,1,0,0:0:0:0:
64,192,33533,1,0,0:0:0:0:
192,192,33533,1,0,0:0:0:0:
320,192,33695,1,0,0:0:0:0:
192,192,33858,1,0,0:0:0:0:
64,192,33858,1,0,0:0:0:0:
192,192,34182,1,0,0:0:0:0:
448,192,34182,1,0,0:0:0:0:
320,192,34344,1,0,0:0:0:0:
192,192,34506,1,0,0:0:0:0:
448,192,34506,1,0,0:0:0:0:
64,192,34831,1,0,0:0:0:0:
192,192,34831,1,0,0:0:0:0:
320,192,34993,1,0,0:0:0:0:
448,192,35155,1,0,0:0:0:0:
192,192,35155,1,0,0:0:0:0:
320,192,35479,1,0,0:0:0:0:
64,192,35479,1,0,0:0:0:0:
192,192,35804,1,0,0:0:0:0:
448,192,35804,1,0,0:0:0:0:
192,192,36128,1,0,0:0:0:0:
64,192,36128,1,0,0:0:0:0:
320,192,36452,1,0,0:0:0:0:
448,192,36452,1,0,0:0:0:0:
192,192,36614,1,0,0:0:0:0:
64,192,36777,1,0,0:0:0:0:
448,192,36777,1,0,0:0:0:0:
320,192,36939,1,0,0:0:0:0:
192,192,37101,1,0,0:0:0:0:
448,192,37101,1,0,0:0:0:0:
64,192,37425,128,0,38074:0:0:0:0:
192,192,37425,1,0,0:0:0:0:
192,192,37749,1,0,0:0:0:0:
192,192,38074,1,0,0:0:0:0:
320,192,38074,1,0,0:0:0:0:
64,192,38398,1,0,0:0:0:0:
192,192,38398,1,0,0:0:0:0:
192,192,38722,1,0,0:0:0:0:
448,192,38722,1,0,0:0:0:0:
320,192,39047,1,0,0:0:0:0:
192,192,39047,1,0,0:0:0:0:
64,192,39371,1,0,0:0:0:0:
320,192,39371,1,0,0:0:0:0:
448,192,39695,1,0,0:0:0:0:
320,192,39695,1,0,0:0:0:0:
192,192,40020,1,0,0:0:0:0:
64,192,40020,1,0,0:0:0:0:
192,192,40344,1,0,0:0:0:0:
448,192,40344,1,0,0:0:0:0:
448,192,40668,128,0,40993:0:0:0:0:
320,192,40668,1,0,0:0:0:0:
320,192,40993,128,0,41317:0:0:0:0:
192,192,40993,1,0,0:0:0:0:
192,192,41317,128,0,41641:0:0:0:0:
64,192,41317,1,0,0:0:0:0:
64,192,41641,128,0,42290:0:0:0:0:
320,192,41804,1,0,0:0:0:0:
448,192,41804,1,0,0:0:0:0:
448,192,42290,128,0,42939:0:0:0:0:
192,192,42290,1,0,0:0:0:0:
320,192,42939,128,0,43263:0:0:0:0:
192,192,42939,1,0,0:0:0:0:
192,192,43263,1,0,0:0:0:0:
64,192,43263,1,0,0:0:0:0:
320,192,43587,1,0,0:0:0:0:
448,192,43587,1,0,0:0:0:0:
192,192,43912,1,0,0:0:0:0:
64,192,43912,1,0,0:0:0:0:
320,192,44236,1,0,0:0:0:0:
448,192,44236,1,0,0:0:0:0:
192,192,44398,1,0,0:0:0:0:
320,192,44560,1,0,0:0:0:0:
64,192,44560,1,0,0:0:0:0:
192,192,44722,1,0,0:0:0:0:
64,192,44885,1,0,0:0:0:0:
320,192,44885,1,0,0:0:0:0:
320,192,45209,1,0,0:0:0:0:
448,192,45209,1,0,0:0:0:0:
320,192,45533,1,0,0:0:0:0:
448,192,45533,1,0,0:0:0:0:
192,192,45858,128,0,46182:0:0:0:0:
320,192,45858,1,0,0:0:0:0:
64,192,45858,128,0,46182:0:0:0:0:
320,192,46182,1,0,0:0:0:0:
320,192,46506,128,0,46831:0:0:0:0:
192,192,46506,1,0,0:0:0:0:
448,192,46506,128,0,46831:0:0:0:0:
192,192,46831,1,0,0:0:0:0:
64,192,47155,128,0,47479:0:0:0:0:
192,192,47155,1,0,0:0:0:0:
448,192,47479,128,0,47804:0:0:0:0:
320,192,47479,1,0,0:0:0:0:
64,192,47804,128,0,48128:0:0:0:0:
192,192,47804,1,0,0:0:0:0:
448,192,48128,128,0,48452:0:0:0:0:
320,192,48128,1,0,0:0:0:0:
64,192,48452,1,0,0:0:0:0:
192,192,48452,1,0,0:0:0:0:
320,192,48614,1,0,0:0:0:0:
192,192,48777,1,0,0:0:0:0:
448,192,48777,1,0,0:0:0:0:
64,192,49101,1,0,0:0:0:0:
320,192,49101,1,0,0:0:0:0:
192,192,49425,1,0,0:0:0:0:
448,192,49425,1,0,0:0:0:0:
64,192,49749,1,0,0:0:0:0:
448,192,49749,1,0,0:0:0:0:
192,192,49912,1,0,0:0:0:0:
64,192,50074,1,0,0:0:0:0:
320,192,50074,1,0,0:0:0:0:
320,192,50398,1,0,0:0:0:0:
448,192,50398,1,0,0:0:0:0:
64,192,50722,1,0,0:0:0:0:
192,192,50722,1,0,0:0:0:0:
448,192,51047,1,0,0:0:0:0:
192,192,51209,1,0,0:0:0:0:
64,192,51371,1,0,0:0:0:0:
320,192,51533,1,0,0:0:0:0:
448,192,51695,1,0,0:0:0:0:
320,192,51858,1,0,0:0:0:0:
192,192,52020,1,0,0:0:0:0:
64,192,52182,1,0,0:0:0:0:
448,192,52344,128,0,52993:0:0:0:0:
192,192,52344,128,0,52993:0:0:0:0:
320,192,52993,128,0,53641:0:0:0:0:
64,192,52993,128,0,53641:0:0:0:0:
192,192,53641,1,0,0:0:0:0:
448,192,53804,1,0,0:0:0:0:
320,192,53966,1,0,0:0:0:0:
192,192,54128,1,0,0:0:0:0:
64,192,54290,1,0,0:0:0:0:
320,192,54452,1,0,0:0:0:0:
192,192,54614,1,0,0:0:0:0:
64,192,54777,1,0,0:0:0:0:
192,192,54939,1,0,0:0:0:0:
448,192,54939,1,0,0:0:0:0:
320,192,55101,1,0,0:0:0:0:
448,192,55263,1,0,0:0:0:0:
64,192,55425,1,0,0:0:0:0:
192,192,55587,1,0,0:0:0:0:
320,192,55749,1,0,0:0:0:0:
64,192,55912,1,0,0:0:0:0:
320,192,56074,1,0,0:0:0:0:
192,192,56236,1,0,0:0:0:0:
448,192,56236,1,0,0:0:0:0:
64,192,56398,1,0,0:0:0:0:
448,192,56560,1,0,0:0:0:0:
320,192,56722,1,0,0:0:0:0:
192,192,56885,1,0,0:0:0:0:
64,192,57047,1,0,0:0:0:0:
192,192,57209,1,0,0:0:0:0:
320,192,57371,1,0,0:0:0:0:
448,192,57533,1,0,0:0:0:0:
64,192,57533,1,0,0:0:0:0:
192,192,57695,1,0,0:0:0:0:
64,192,57858,1,0,0:0:0:0:
320,192,57858,1,0,0:0:0:0:
448,192,58182,128,0,58831:0:0:0:0:
192,192,58182,1,0,0:0:0:0:
64,192,58831,1,0,0:0:0:0:
192,192,58831,1,0,0:0:0:0:
320,192,59155,1,0,0:0:0:0:
448,192,59155,1,0,0:0:0:0:
64,192,59479,1,0,0:0:0:0:
192,192,59479,1,0,0:0:0:0:
320,192,59804,1,0,0:0:0:0:
448,192,59804,1,0,0:0:0:0:
64,192,60128,1,0,0:0:0:0:
192,192,60128,1,0,0:0:0:0:
320,192,60452,1,0,0:0:0:0:
448,192,60452,1,0,0:0:0:0:
64,192,60777,1,0,0:0:0:0:
192,192,60777,1,0,0:0:0:0:
320,192,61101,1,0,0:0:0:0:
448,192,61101,1,0,0:0:0:0:
64,192,61425,1,0,0:0:0:0:
320,192,61425,1,0,0:0:0:0:
192,192,61587,1,0,0:0:0:0:
320,192,61749,1,0,0:0:0:0:
448,192,61912,1,0,0:0:0:0:
192,192,62074,1,0,0:0:0:0:
64,192,62195,1,0,0:0:0:0:
320,192,62398,1,0,0:0:0:0:
192,192,62560,1,0,0:0:0:0:
64,192,62722,1,0,0:0:0:0:
448,192,62722,1,0,0:0:0:0:
192,192,62885,1,0,0:0:0:0:
320,192,63047,1,0,0:0:0:0:
64,192,63047,1,0,0:0:0:0:
448,192,63209,1,0,0:0:0:0:
320,192,63371,1,0,0:0:0:0:
192,192,63371,1,0,0:0:0:0:
64,192,63533,1,0,0:0:0:0:
192,192,63695,1,0,0:0:0:0:
448,192,63695,1,0,0:0:0:0:
320,192,63858,1,0,0:0:0:0:
64,192,64020,128,0,66614:0:0:0:0:
448,192,64020,128,0,66614:0:0:0:0:
192,192,64020,1,0,0:0:0:0:
320,192,64344,1,0,0:0:0:0:
320,192,64668,1,0,0:0:0:0:
192,192,64993,1,0,0:0:0:0:
320,192,65317,1,0,0:0:0:0:
192,192,65641,1,0,0:0:0:0:
320,192,65966,1,0,0:0:0:0:
192,192,66290,1,0,0:0:0:0:
320,192,66614,1,0,0:0:0:0:
320,192,66777,1,0,0:0:0:0:
320,192,66939,1,0,0:0:0:0:
64,192,67101,1,0,0:0:0:0:
448,192,67101,1,0,0:0:0:0:
64,192,67263,1,0,0:0:0:0:
448,192,67263,1,0,0:0:0:0:
64,192,67587,1,0,0:0:0:0:
448,192,67587,1,0,0:0:0:0:
192,192,67912,1,0,0:0:0:0:
320,192,67912,1,0,0:0:0:0:
320,192,68236,1,0,0:0:0:0:
448,192,68236,1,0,0:0:0:0:
64,192,68560,1,0,0:0:0:0:
192,192,68560,1,0,0:0:0:0:
192,192,68885,1,0,0:0:0:0:
448,192,68885,1,0,0:0:0:0:
320,192,69209,1,0,0:0:0:0:
64,192,69209,1,0,0:0:0:0:
192,192,69371,1,0,0:0:0:0:
320,192,69533,1,0,0:0:0:0:
64,192,69533,1,0,0:0:0:0:
448,192,69695,1,0,0:0:0:0:
448,192,69858,128,0,70182:0:0:0:0:
192,192,69858,128,0,70182:0:0:0:0:
64,192,70182,1,0,0:0:0:0:
192,192,70344,1,0,0:0:0:0:
320,192,70506,1,0,0:0:0:0:
448,192,70506,1,0,0:0:0:0:
64,192,70831,1,0,0:0:0:0:
192,192,70831,1,0,0:0:0:0:
192,192,71155,1,0,0:0:0:0:
448,192,71155,1,0,0:0:0:0:
64,192,71479,1,0,0:0:0:0:
320,192,71479,1,0,0:0:0:0:
64,192,71804,1,0,0:0:0:0:
192,192,71804,1,0,0:0:0:0:
320,192,72128,1,0,0:0:0:0:
448,192,72128,1,0,0:0:0:0:
64,192,72452,1,0,0:0:0:0:
192,192,72452,1,0,0:0:0:0:
320,192,72614,1,0,0:0:0:0:
448,192,72777,1,0,0:0:0:0:
192,192,72777,1,0,0:0:0:0:
64,192,73101,128,0,73425:0:0:0:0:
320,192,73101,1,0,0:0:0:0:
192,192,73425,128,0,73749:0:0:0:0:
448,192,73425,1,0,0:0:0:0:
320,192,73749,128,0,74074:0:0:0:0:
64,192,73912,1,0,0:0:0:0:
192,192,74074,1,0,0:0:0:0:
64,192,74236,128,0,74722:0:0:0:0:
320,192,74560,1,0,0:0:0:0:
448,192,74560,1,0,0:0:0:0:
192,192,74722,128,0,75047:0:0:0:0:
320,192,75047,128,0,75371:0:0:0:0:
192,192,75209,1,0,0:0:0:0:
64,192,75371,1,0,0:0:0:0:
64,192,75533,1,0,0:0:0:0:
64,192,75695,1,0,0:0:0:0:
192,192,75695,1,0,0:0:0:0:
192,192,76020,1,0,0:0:0:0:
448,192,76020,1,0,0:0:0:0:
320,192,76182,1,0,0:0:0:0:
64,192,76344,1,0,0:0:0:0:
448,192,76344,1,0,0:0:0:0:
320,192,76668,1,0,0:0:0:0:
448,192,76668,128,0,76993:0:0:0:0:
320,192,76993,128,0,77317:0:0:0:0:
192,192,76993,1,0,0:0:0:0:
448,192,77317,1,0,0:0:0:0:
192,192,77317,128,0,77641:0:0:0:0:
320,192,77641,1,0,0:0:0:0:
64,192,77641,128,0,78290:0:0:0:0:
448,192,77804,1,0,0:0:0:0:
320,192,77966,1,0,0:0:0:0:
320,192,78290,1,0,0:0:0:0:
448,192,78290,1,0,0:0:0:0:
64,192,78614,1,0,0:0:0:0:
320,192,78614,1,0,0:0:0:0:
192,192,78939,1,0,0:0:0:0:
320,192,78939,1,0,0:0:0:0:
64,192,79263,1,0,0:0:0:0:
320,192,79263,1,0,0:0:0:0:
320,192,79587,1,0,0:0:0:0:
448,192,79587,1,0,0:0:0:0:
64,192,79749,1,0,0:0:0:0:
64,192,79912,1,0,0:0:0:0:
448,192,80074,1,0,0:0:0:0:
448,192,80236,1,0,0:0:0:0:
320,192,80398,1,0,0:0:0:0:
192,192,80560,1,0,0:0:0:0:
448,192,80560,1,0,0:0:0:0:
64,192,80885,1,0,0:0:0:0:
192,192,80885,1,0,0:0:0:0:
320,192,81209,1,0,0:0:0:0:
448,192,81209,1,0,0:0:0:0:
64,192,81533,1,0,0:0:0:0:
320,192,81533,1,0,0:0:0:0:
192,192,81858,1,0,0:0:0:0:
448,192,81858,1,0,0:0:0:0:
192,192,82182,1,0,0:0:0:0:
448,192,82182,128,0,82831:0:0:0:0:
64,192,82506,1,0,0:0:0:0:
192,192,82668,1,0,0:0:0:0:
64,192,82831,128,0,83155:0:0:0:0:
320,192,82831,1,0,0:0:0:0:
448,192,82993,1,0,0:0:0:0:
192,192,83155,1,0,0:0:0:0:
448,192,83479,1,0,0:0:0:0:
320,192,83641,1,0,0:0:0:0:
192,192,83804,1,0,0:0:0:0:
64,192,83966,1,0,0:0:0:0:
192,192,84128,1,0,0:0:0:0:
320,192,84128,1,0,0:0:0:0:
448,192,84290,1,0,0:0:0:0:
448,192,84452,1,0,0:0:0:0:
64,192,84614,128,0,84939:0:0:0:0:
192,192,84614,128,0,84939:0:0:0:0:
320,192,84939,1,0,0:0:0:0:
448,192,85101,1,0,0:0:0:0:
320,192,85263,1,0,0:0:0:0:
192,192,85425,1,0,0:0:0:0:
64,192,85425,1,0,0:0:0:0:
320,192,85749,1,0,0:0:0:0:
448,192,85749,1,0,0:0:0:0:
64,192,85912,1,0,0:0:0:0:
192,192,85912,1,0,0:0:0:0:
320,192,86074,1,0,0:0:0:0:
448,192,86074,1,0,0:0:0:0:
64,192,86398,1,0,0:0:0:0:
320,192,86398,1,0,0:0:0:0:
64,192,86722,1,0,0:0:0:0:
448,192,86722,1,0,0:0:0:0:
320,192,86885,1,0,0:0:0:0:
64,192,86885,1,0,0:0:0:0:
448,192,87047,1,0,0:0:0:0:
192,192,87047,1,0,0:0:0:0:
64,192,87371,128,0,87695:0:0:0:0:
192,192,87371,1,0,0:0:0:0:
192,192,87695,128,0,88020:0:0:0:0:
320,192,87695,1,0,0:0:0:0:
320,192,88020,128,0,88668:0:0:0:0:
448,192,88020,1,0,0:0:0:0:
64,192,88344,1,0,0:0:0:0:
192,192,88506,1,0,0:0:0:0:
64,192,88668,1,0,0:0:0:0:
192,192,88668,1,0,0:0:0:0:
64,192,88993,1,0,0:0:0:0:
320,192,88993,1,0,0:0:0:0:
192,192,89317,1,0,0:0:0:0:
448,192,89317,1,0,0:0:0:0:
64,192,89641,1,0,0:0:0:0:
320,192,89641,1,0,0:0:0:0:
320,192,89966,1,0,0:0:0:0:
448,192,89966,1,0,0:0:0:0:
64,192,90290,1,0,0:0:0:0:
192,192,90290,1,0,0:0:0:0:
64,192,90614,1,0,0:0:0:0:
320,192,90614,1,0,0:0:0:0:
192,192,90939,1,0,0:0:0:0:
448,192,90939,1,0,0:0:0:0:
448,192,91263,1,0,0:0:0:0:
320,192,91263,1,0,0:0:0:0:
192,192,91425,1,0,0:0:0:0:
64,192,91425,1,0,0:0:0:0:
448,192,91912,1,0,0:0:0:0:
320,192,91912,1,0,0:0:0:0:
192,192,92074,1,0,0:0:0:0:
64,192,92074,1,0,0:0:0:0:
448,192,92560,128,0,92885:0:0:0:0:
320,192,92560,1,0,0:0:0:0:
320,192,92885,128,0,93209:0:0:0:0:
192,192,92885,1,0,0:0:0:0:
192,192,93209,128,0,93533:0:0:0:0:
64,192,93209,1,0,0:0:0:0:
64,192,93533,128,0,93858:0:0:0:0:
320,192,93533,1,0,0:0:0:0:
320,192,93858,128,0,95155:0:0:0:0:
192,192,93858,1,0,0:0:0:0:
448,192,93858,1,0,0:0:0:0:
64,192,94506,1,0,0:0:0:0:
64,192,94831,1,0,0:0:0:0:
64,192,95155,128,0,96452:0:0:0:0:
192,192,95155,1,0,0:0:0:0:
320,192,95479,1,0,0:0:0:0:
192,192,95641,1,0,0:0:0:0:
448,192,95804,1,0,0:0:0:0:
192,192,95966,1,0,0:0:0:0:
320,192,96128,1,0,0:0:0:0:
192,192,96290,1,0,0:0:0:0:
320,192,96452,1,0,0:0:0:0:
448,192,96452,1,0,0:0:0:0:
192,192,96777,1,0,0:0:0:0:
448,192,96777,1,0,0:0:0:0:
64,192,97101,1,0,0:0:0:0:
192,192,97101,1,0,0:0:0:0:
192,192,97425,1,0,0:0:0:0:
448,192,97425,1,0,0:0:0:0:
64,192,97749,1,0,0:0:0:0:
192,192,97749,1,0,0:0:0:0:
448,192,97912,1,0,0:0:0:0:
192,192,98074,1,0,0:0:0:0:
320,192,98236,1,0,0:0:0:0:
64,192,98398,1,0,0:0:0:0:
448,192,98398,128,0,98722:0:0:0:0:
192,192,98722,1,0,0:0:0:0:
64,192,99047,1,0,0:0:0:0:
320,192,99047,1,0,0:0:0:0:
64,192,99371,1,0,0:0:0:0:
320,192,99371,1,0,0:0:0:0:
192,192,99695,1,0,0:0:0:0:
448,192,99695,1,0,0:0:0:0:
192,192,100020,1,0,0:0:0:0:
448,192,100020,1,0,0:0:0:0:
64,192,100344,1,0,0:0:0:0:
192,192,100344,1,0,0:0:0:0:
320,192,100506,1,0,0:0:0:0:
192,192,100668,1,0,0:0:0:0:
448,192,100668,1,0,0:0:0:0:
64,192,100993,1,0,0:0:0:0:
320,192,100993,1,0,0:0:0:0:
64,192,101317,1,0,0:0:0:0:
320,192,101317,1,0,0:0:0:0:
64,192,101641,1,0,0:0:0:0:
192,192,101804,1,0,0:0:0:0:
320,192,101966,1,0,0:0:0:0:
192,192,102128,1,0,0:0:0:0:
320,192,102290,1,0,0:0:0:0:
448,192,102452,1,0,0:0:0:0:
192,192,102614,1,0,0:0:0:0:
64,192,102777,1,0,0:0:0:0:
192,192,102939,1,0,0:0:0:0:
448,192,103101,1,0,0:0:0:0:
320,192,103263,1,0,0:0:0:0:
64,192,103263,1,0,0:0:0:0:
192,192,103425,1,0,0:0:0:0:
448,192,103587,128,0,103912:0:0:0:0:
64,192,103587,1,0,0:0:0:0:
64,192,103912,1,0,0:0:0:0:
64,192,104236,1,0,0:0:0:0:
320,192,104236,1,0,0:0:0:0:
192,192,104560,1,0,0:0:0:0:
64,192,104885,1,0,0:0:0:0:
448,192,104885,1,0,0:0:0:0:
320,192,105128,1,0,0:0:0:0:
192,192,105371,1,0,0:0:0:0:
448,192,105371,1,0,0:0:0:0:
64,192,105695,1,0,0:0:0:0:
192,192,105695,1,0,0:0:0:0:
320,192,105858,1,0,0:0:0:0:
448,192,105858,1,0,0:0:0:0:
64,192,106182,128,0,106506:0:0:0:0:
192,192,106182,1,0,0:0:0:0:
320,192,106506,128,0,106831:0:0:0:0:
192,192,106506,1,0,0:0:0:0:
64,192,106831,128,0,107155:0:0:0:0:
192,192,106831,1,0,0:0:0:0:
192,192,107155,128,0,107479:0:0:0:0:
320,192,107155,1,0,0:0:0:0:
448,192,107479,128,0,107804:0:0:0:0:
320,192,107479,1,0,0:0:0:0:
64,192,107804,128,0,107966:0:0:0:0:
192,192,107804,1,0,0:0:0:0:
320,192,107966,1,0,0:0:0:0:
448,192,107966,128,0,113966:0:0:0:0:
192,192,107966,128,0,112344:0:0:0:0:
320,192,112344,128,0,113966:0:0:0:0:
192,192,113317,128,0,113966:0:0:0:0:
64,192,113317,128,0,113966:0:0:0:0:
