osu file format v14

[General]
AudioFilename: Otaser Revolution.mp3
AudioLeadIn: 0
PreviewTime: 67912
Countdown: 0
SampleSet: Normal
StackLeniency: 0.7
Mode: 3
LetterboxInBreaks: 0
EpilepsyWarning: 1
SpecialStyle: 1
WidescreenStoryboard: 1

[Editor]
DistanceSpacing: 1
BeatDivisor: 4
GridSize: 8
TimelineZoom: 1.7

[Metadata]
Title:4key & 7key Fantasy Last. Vol.
TitleUnicode:4key & 7key Fantasy Last. Vol.
Artist:Final Mania Dimension
ArtistUnicode:Final Mania Dimension
Creator:Un-known
Version:ARM (IOSYS) - Otaser*Revolution [4key Maximum]
Source:
Tags:
BeatmapID:684948
BeatmapSetID:298447

[Difficulty]
HPDrainRate:8
CircleSize:4
OverallDifficulty:8
ApproachRate:5
SliderMultiplier:1.4
SliderTickRate:1

[Events]
//Background and Video events
0,0,"3.jpg",0,0
//Break Periods
//Storyboard Layer 0 (Background)
//Storyboard Layer 1 (Fail)
//Storyboard Layer 2 (Pass)
//Storyboard Layer 3 (Foreground)
//Storyboard Sound Samples
Sample,13425,0,"kic.wav",70
Sample,13749,0,"kic.wav",70
Sample,14398,0,"kic.wav",70
Sample,15695,0,"kic.wav",70
Sample,16020,0,"kic.wav",70
Sample,16344,0,"clap.wav",70
Sample,18128,0,"kic.wav",70
Sample,18168,0,"kic.wav",70
Sample,18209,0,"kic.wav",70
Sample,18249,0,"kic.wav",70
Sample,18452,0,"kic.wav",70
Sample,18452,0,"snare.wav",70
Sample,18493,0,"kic.wav",70
Sample,18493,0,"snare.wav",70
Sample,18533,0,"kic.wav",70
Sample,18533,0,"snare.wav",70
Sample,18574,0,"kic.wav",70
Sample,18574,0,"snare.wav",70
Sample,19263,0,"kic.wav",70
Sample,19344,0,"kic.wav",70
Sample,19425,0,"kic.wav",70
Sample,19506,0,"kic.wav",70
Sample,19587,0,"kic.wav",70
Sample,19668,0,"kic.wav",70
Sample,19749,0,"kic.wav",70
Sample,19831,0,"kic.wav",70
Sample,22506,0,"kic.wav",70
Sample,22831,0,"kic.wav",70
Sample,23155,0,"kic.wav",70
Sample,23479,0,"kic.wav",70
Sample,23804,0,"kic.wav",70
Sample,24128,0,"kic.wav",70
Sample,24452,0,"kic.wav",70
Sample,24614,0,"kic.wav",70
Sample,24655,0,"kic.wav",70
Sample,24695,0,"kic.wav",70
Sample,24736,0,"kic.wav",70
Sample,26074,0,"snare.wav",70
Sample,27695,0,"kic.wav",70
Sample,28020,0,"kic.wav",70
Sample,28344,0,"kic.wav",70
Sample,28506,0,"snare.wav",70
Sample,28668,0,"kic.wav",70
Sample,28993,0,"kic.wav",70
Sample,29317,0,"kic.wav",70
Sample,29804,0,"kic.wav",70
Sample,29844,0,"kic.wav",70
Sample,29885,0,"kic.wav",70
Sample,29925,0,"kic.wav",70
Sample,29966,0,"kic.wav",70
Sample,32885,0,"cymbal.wav",70
Sample,34993,0,"kic.wav",70
Sample,35033,0,"kic.wav",70
Sample,35074,0,"kic.wav",70
Sample,35114,0,"kic.wav",70
Sample,37182,0,"kic.wav",70
Sample,37304,0,"kic.wav",70
Sample,37344,0,"kic.wav",70
Sample,37385,0,"kic.wav",70
Sample,37425,0,"kic.wav",70
Sample,38074,0,"cymbal.wav",70
Sample,40182,0,"kic.wav",70
Sample,40222,0,"kic.wav",70
Sample,40263,0,"kic.wav",70
Sample,40304,0,"kic.wav",70
Sample,41722,0,"snare.wav",70
Sample,41804,0,"cymbal.wav",70
Sample,43101,0,"kic.wav",70
Sample,46344,0,"kic.wav",70
Sample,47641,0,"kic.wav",70
Sample,47966,0,"kic.wav",70
Sample,48128,0,"snare.wav",70
Sample,49101,0,"cymbal.wav",70
Sample,49101,0,"clap.wav",70
Sample,49101,0,"snare.wav",70
Sample,49425,0,"cymbal.wav",70
Sample,49425,0,"snare.wav",70
Sample,49425,0,"clap.wav",70
Sample,50398,0,"snare.wav",70
Sample,50398,0,"clap.wav",70
Sample,50398,0,"cymbal.wav",70
Sample,50479,0,"clap.wav",70
Sample,50479,0,"cymbal.wav",70
Sample,50479,0,"snare.wav",70
Sample,57554,0,"kic.wav",70
Sample,57574,0,"kic.wav",70
Sample,58831,0,"cymbal.wav",70
Sample,61425,0,"cymbal.wav",70
Sample,69533,0,"snare.wav",70
Sample,75371,0,"clap.wav",70
Sample,76020,0,"clap.wav",70
Sample,76668,0,"clap.wav",70
Sample,77641,0,"clap.wav",70
Sample,79912,0,"snare.wav",70
Sample,80439,0,"kic.wav",70
Sample,80479,0,"kic.wav",70
Sample,80520,0,"kic.wav",70

[TimingPoints]
1750,324.324324324324,4,1,0,30,1,0
67912,-100,4,1,0,30,0,1
88668,-100,4,1,0,30,0,0

[HitObjects]
64,192,1101,128,0,1750:0:0:0:0:
448,192,1750,1,0,0:0:0:0:
320,192,1831,1,0,0:0:0:0:
192,192,1912,1,0,0:0:0:0:
64,192,1993,1,0,0:0:0:0:
192,192,2074,1,0,0:0:0:0:
64,192,2236,1,0,0:0:0:0:
192,192,2317,1,0,0:0:0:0:
320,192,2398,1,0,0:0:0:0:
448,192,2479,1,0,0:0:0:0:
320,192,2560,1,0,0:0:0:0:
192,192,2722,1,0,0:0:0:0:
64,192,2722,1,0,0:0:0:0:
320,192,2885,1,0,0:0:0:0:
448,192,2885,1,0,0:0:0:0:
192,192,3047,1,0,0:0:0:0:
320,192,3047,1,0,0:0:0:0:
64,192,3209,1,0,0:0:0:0:
448,192,3209,1,0,0:0:0:0:
192,192,3371,1,0,0:0:0:0:
448,192,3371,1,0,0:0:0:0:
320,192,3533,1,0,0:0:0:0:
64,192,3533,1,0,0:0:0:0:
64,192,3695,1,0,0:0:0:0:
192,192,3695,1,0,0:0:0:0:
320,192,3858,1,0,0:0:0:0:
448,192,3858,1,0,0:0:0:0:
64,192,4020,128,0,4344:0:0:0:0:
448,192,4020,128,0,4344:0:0:0:0:
192,192,4344,1,0,0:0:0:0:
320,192,4425,1,0,0:0:0:0:
64,192,4506,1,0,0:0:0:0:
192,192,4587,1,0,0:0:0:0:
320,192,4668,1,0,0:0:0:0:
448,192,4831,1,0,0:0:0:0:
320,192,4912,1,0,0:0:0:0:
192,192,4993,1,0,0:0:0:0:
64,192,5074,1,0,0:0:0:0:
320,192,5155,1,0,0:0:0:0:
192,192,5317,1,0,0:0:0:0:
448,192,5317,1,0,0:0:0:0:
320,192,5479,1,0,0:0:0:0:
64,192,5479,1,0,0:0:0:0:
192,192,5641,1,0,0:0:0:0:
64,192,5641,1,0,0:0:0:0:
320,192,5804,1,0,0:0:0:0:
192,192,5804,1,0,0:0:0:0:
192,192,5966,1,0,0:0:0:0:
448,192,5966,1,0,0:0:0:0:
320,192,6128,1,0,0:0:0:0:
448,192,6128,1,0,0:0:0:0:
192,192,6290,1,0,0:0:0:0:
64,192,6290,1,0,0:0:0:0:
64,192,6452,1,0,0:0:0:0:
192,192,6452,1,0,0:0:0:0:
320,192,6452,1,0,0:0:0:0:
448,192,6452,1,0,0:0:0:0:
448,192,6614,1,0,0:0:0:0:
320,192,6614,1,0,0:0:0:0:
192,192,6614,1,0,0:0:0:0:
64,192,6614,1,0,0:0:0:0:
64,192,6777,1,0,0:0:0:0:
192,192,6777,1,0,0:0:0:0:
320,192,6777,1,0,0:0:0:0:
448,192,6777,1,0,0:0:0:0:
64,192,6939,1,0,0:0:0:0:
192,192,6939,1,0,0:0:0:0:
448,192,6939,1,0,0:0:0:0:
320,192,7020,1,0,0:0:0:0:
192,192,7101,1,0,0:0:0:0:
64,192,7182,1,0,0:0:0:0:
192,192,7263,1,0,0:0:0:0:
448,192,7425,1,0,0:0:0:0:
320,192,7506,1,0,0:0:0:0:
64,192,7587,1,0,0:0:0:0:
192,192,7668,1,0,0:0:0:0:
320,192,7749,1,0,0:0:0:0:
192,192,7912,1,0,0:0:0:0:
448,192,7912,1,0,0:0:0:0:
320,192,8074,1,0,0:0:0:0:
448,192,8074,1,0,0:0:0:0:
64,192,8236,1,0,0:0:0:0:
192,192,8236,1,0,0:0:0:0:
320,192,8398,1,0,0:0:0:0:
192,192,8398,1,0,0:0:0:0:
64,192,8560,1,0,0:0:0:0:
320,192,8560,1,0,0:0:0:0:
192,192,8722,1,0,0:0:0:0:
448,192,8722,1,0,0:0:0:0:
320,192,8885,1,0,0:0:0:0:
448,192,8885,1,0,0:0:0:0:
64,192,9047,1,0,0:0:0:0:
192,192,9047,1,0,0:0:0:0:
448,192,9047,1,0,0:0:0:0:
320,192,9047,1,0,0:0:0:0:
448,192,9209,1,0,0:0:0:0:
320,192,9209,1,0,0:0:0:0:
192,192,9209,1,0,0:0:0:0:
64,192,9209,1,0,0:0:0:0:
64,192,9371,1,0,0:0:0:0:
192,192,9371,1,0,0:0:0:0:
320,192,9371,1,0,0:0:0:0:
448,192,9371,1,0,0:0:0:0:
64,192,9533,1,0,0:0:0:0:
192,192,9533,1,0,0:0:0:0:
192,192,9614,1,0,0:0:0:0:
64,192,9614,1,0,0:0:0:0:
320,192,9695,1,0,0:0:0:0:
448,192,9777,1,0,0:0:0:0:
192,192,9858,1,0,0:0:0:0:
320,192,9939,1,0,0:0:0:0:
64,192,10020,1,0,0:0:0:0:
192,192,10101,1,0,0:0:0:0:
448,192,10182,1,0,0:0:0:0:
320,192,10182,1,0,0:0:0:0:
320,192,10263,1,0,0:0:0:0:
448,192,10263,1,0,0:0:0:0:
64,192,10344,1,0,0:0:0:0:
192,192,10425,1,0,0:0:0:0:
320,192,10506,1,0,0:0:0:0:
448,192,10587,1,0,0:0:0:0:
192,192,10668,1,0,0:0:0:0:
320,192,10749,1,0,0:0:0:0:
192,192,10831,1,0,0:0:0:0:
64,192,10831,1,0,0:0:0:0:
320,192,10993,1,0,0:0:0:0:
192,192,11074,1,0,0:0:0:0:
448,192,11074,1,0,0:0:0:0:
320,192,11317,1,0,0:0:0:0:
448,192,11317,1,0,0:0:0:0:
64,192,11479,1,0,0:0:0:0:
192,192,11479,1,0,0:0:0:0:
320,192,11560,1,0,0:0:0:0:
448,192,11641,1,0,0:0:0:0:
64,192,11641,1,0,0:0:0:0:
192,192,11722,1,0,0:0:0:0:
64,192,11804,1,0,0:0:0:0:
320,192,11804,1,0,0:0:0:0:
448,192,11885,1,0,0:0:0:0:
192,192,11966,1,0,0:0:0:0:
64,192,11966,1,0,0:0:0:0:
320,192,12047,1,0,0:0:0:0:
192,192,12128,1,0,0:0:0:0:
448,192,12128,1,0,0:0:0:0:
320,192,12209,1,0,0:0:0:0:
64,192,12209,1,0,0:0:0:0:
192,192,12290,1,0,0:0:0:0:
448,192,12290,1,0,0:0:0:0:
320,192,12371,1,0,0:0:0:0:
64,192,12452,1,0,0:0:0:0:
448,192,12452,1,0,0:0:0:0:
192,192,12533,1,0,0:0:0:0:
448,192,12614,1,0,0:0:0:0:
64,192,12614,1,0,0:0:0:0:
192,192,12695,1,0,0:0:0:0:
320,192,12695,1,0,0:0:0:0:
448,192,12777,1,0,0:0:0:0:
64,192,12777,1,0,0:0:0:0:
320,192,12858,1,0,0:0:0:0:
64,192,12939,1,0,0:0:0:0:
192,192,13020,1,0,0:0:0:0:
320,192,13101,1,0,0:0:0:0:
64,192,13101,1,0,0:0:0:0:
192,192,13182,1,0,0:0:0:0:
320,192,13263,1,0,0:0:0:0:
448,192,13344,1,0,0:0:0:0:
64,192,13425,1,0,0:0:0:0:
320,192,13425,1,0,0:0:0:0:
192,192,13506,1,0,0:0:0:0:
320,192,13587,1,0,0:0:0:0:
448,192,13587,1,0,0:0:0:0:
64,192,13587,1,0,0:0:0:0:
192,192,13668,1,0,0:0:0:0:
64,192,13749,1,0,0:0:0:0:
448,192,13749,1,0,0:0:0:0:
320,192,13749,1,0,0:0:0:0:
192,192,13831,1,0,0:0:0:0:
64,192,13912,1,0,0:0:0:0:
320,192,13912,1,0,0:0:0:0:
448,192,13912,1,0,0:0:0:0:
192,192,13993,1,0,0:0:0:0:
448,192,14074,1,0,0:0:0:0:
320,192,14074,1,0,0:0:0:0:
64,192,14074,1,0,0:0:0:0:
192,192,14155,1,0,0:0:0:0:
320,192,14236,1,0,0:0:0:0:
448,192,14317,1,0,0:0:0:0:
64,192,14398,1,0,0:0:0:0:
192,192,14398,1,0,0:0:0:0:
320,192,14479,1,0,0:0:0:0:
192,192,14560,1,0,0:0:0:0:
320,192,14641,1,0,0:0:0:0:
448,192,14722,1,0,0:0:0:0:
64,192,14722,1,0,0:0:0:0:
320,192,14804,1,0,0:0:0:0:
192,192,14804,1,0,0:0:0:0:
64,192,14885,1,0,0:0:0:0:
448,192,14885,1,0,0:0:0:0:
192,192,14966,1,0,0:0:0:0:
320,192,15047,1,0,0:0:0:0:
64,192,15047,1,0,0:0:0:0:
448,192,15128,1,0,0:0:0:0:
64,192,15209,1,0,0:0:0:0:
192,192,15209,1,0,0:0:0:0:
320,192,15290,1,0,0:0:0:0:
448,192,15290,1,0,0:0:0:0:
192,192,15371,1,0,0:0:0:0:
64,192,15371,1,0,0:0:0:0:
448,192,15452,1,0,0:0:0:0:
320,192,15533,1,0,0:0:0:0:
64,192,15614,1,0,0:0:0:0:
192,192,15695,1,0,0:0:0:0:
448,192,15695,1,0,0:0:0:0:
320,192,15777,1,0,0:0:0:0:
64,192,15858,1,0,0:0:0:0:
192,192,15939,1,0,0:0:0:0:
64,192,16020,1,0,0:0:0:0:
448,192,16020,1,0,0:0:0:0:
192,192,16101,1,0,0:0:0:0:
320,192,16182,1,0,0:0:0:0:
448,192,16182,1,0,0:0:0:0:
192,192,16263,1,0,0:0:0:0:
64,192,16263,1,0,0:0:0:0:
320,192,16344,1,0,0:0:0:0:
448,192,16344,1,0,0:0:0:0:
64,192,16425,1,0,0:0:0:0:
192,192,16506,1,0,0:0:0:0:
448,192,16506,1,0,0:0:0:0:
320,192,16587,1,0,0:0:0:0:
64,192,16668,1,0,0:0:0:0:
448,192,16668,1,0,0:0:0:0:
320,192,16993,1,0,0:0:0:0:
448,192,16993,1,0,0:0:0:0:
192,192,17155,1,0,0:0:0:0:
64,192,17155,1,0,0:0:0:0:
320,192,17317,1,0,0:0:0:0:
64,192,17317,1,0,0:0:0:0:
192,192,17398,1,0,0:0:0:0:
448,192,17398,1,0,0:0:0:0:
320,192,17479,1,0,0:0:0:0:
64,192,17479,1,0,0:0:0:0:
192,192,17560,1,0,0:0:0:0:
448,192,17641,1,0,0:0:0:0:
64,192,17641,1,0,0:0:0:0:
320,192,17722,1,0,0:0:0:0:
64,192,17804,1,0,0:0:0:0:
448,192,17804,1,0,0:0:0:0:
320,192,17885,1,0,0:0:0:0:
192,192,17885,1,0,0:0:0:0:
64,192,17966,1,0,0:0:0:0:
448,192,17966,1,0,0:0:0:0:
192,192,18047,1,0,0:0:0:0:
64,192,18128,1,0,0:0:0:0:
192,192,18168,1,0,0:0:0:0:
320,192,18209,1,0,0:0:0:0:
448,192,18249,1,0,0:0:0:0:
320,192,18290,1,0,0:0:0:0:
192,192,18371,1,0,0:0:0:0:
448,192,18452,1,0,0:0:0:0:
320,192,18493,1,0,0:0:0:0:
192,192,18533,1,0,0:0:0:0:
64,192,18574,1,0,0:0:0:0:
192,192,18614,1,0,0:0:0:0:
448,192,18614,1,0,0:0:0:0:
320,192,18695,1,0,0:0:0:0:
64,192,18777,1,0,0:0:0:0:
192,192,18777,1,0,0:0:0:0:
448,192,18777,1,0,0:0:0:0:
320,192,18858,1,0,0:0:0:0:
448,192,18939,1,0,0:0:0:0:
192,192,18939,1,0,0:0:0:0:
64,192,18939,1,0,0:0:0:0:
320,192,19020,1,0,0:0:0:0:
192,192,19101,1,0,0:0:0:0:
64,192,19101,1,0,0:0:0:0:
448,192,19101,1,0,0:0:0:0:
320,192,19182,1,0,0:0:0:0:
448,192,19263,1,0,0:0:0:0:
192,192,19263,1,0,0:0:0:0:
64,192,19263,1,0,0:0:0:0:
320,192,19344,1,0,0:0:0:0:
192,192,19425,1,0,0:0:0:0:
64,192,19425,1,0,0:0:0:0:
320,192,19506,1,0,0:0:0:0:
448,192,19506,1,0,0:0:0:0:
192,192,19587,1,0,0:0:0:0:
64,192,19668,1,0,0:0:0:0:
448,192,19668,1,0,0:0:0:0:
320,192,19749,1,0,0:0:0:0:
192,192,19749,1,0,0:0:0:0:
64,192,19831,1,0,0:0:0:0:
448,192,19831,1,0,0:0:0:0:
320,192,19912,1,0,0:0:0:0:
192,192,19912,1,0,0:0:0:0:
448,192,20560,1,0,0:0:0:0:
192,192,20560,1,0,0:0:0:0:
64,192,20560,1,0,0:0:0:0:
64,192,21047,1,0,0:0:0:0:
192,192,21047,1,0,0:0:0:0:
320,192,21047,1,0,0:0:0:0:
448,192,21047,1,0,0:0:0:0:
64,192,21371,1,0,0:0:0:0:
192,192,21371,1,0,0:0:0:0:
320,192,21371,1,0,0:0:0:0:
448,192,21371,1,0,0:0:0:0:
448,192,21533,1,0,0:0:0:0:
320,192,21533,1,0,0:0:0:0:
192,192,21533,1,0,0:0:0:0:
64,192,21533,1,0,0:0:0:0:
192,192,21695,1,0,0:0:0:0:
320,192,21695,1,0,0:0:0:0:
64,192,21858,1,0,0:0:0:0:
192,192,21858,1,0,0:0:0:0:
320,192,21858,1,0,0:0:0:0:
448,192,21858,1,0,0:0:0:0:
192,192,22344,1,0,0:0:0:0:
64,192,22506,1,0,0:0:0:0:
448,192,22506,1,0,0:0:0:0:
320,192,22506,1,0,0:0:0:0:
192,192,22668,1,0,0:0:0:0:
448,192,22831,1,0,0:0:0:0:
192,192,22831,1,0,0:0:0:0:
64,192,22831,1,0,0:0:0:0:
320,192,22993,1,0,0:0:0:0:
192,192,23155,1,0,0:0:0:0:
320,192,23155,1,0,0:0:0:0:
448,192,23155,1,0,0:0:0:0:
64,192,23317,1,0,0:0:0:0:
320,192,23479,1,0,0:0:0:0:
192,192,23479,1,0,0:0:0:0:
64,192,23479,1,0,0:0:0:0:
448,192,23641,1,0,0:0:0:0:
192,192,23804,1,0,0:0:0:0:
320,192,23804,1,0,0:0:0:0:
448,192,23804,1,0,0:0:0:0:
192,192,23966,1,0,0:0:0:0:
320,192,24128,1,0,0:0:0:0:
192,192,24128,1,0,0:0:0:0:
64,192,24128,1,0,0:0:0:0:
320,192,24290,1,0,0:0:0:0:
64,192,24452,1,0,0:0:0:0:
320,192,24452,1,0,0:0:0:0:
448,192,24452,1,0,0:0:0:0:
192,192,24533,1,0,0:0:0:0:
64,192,24614,1,0,0:0:0:0:
192,192,24655,1,0,0:0:0:0:
320,192,24695,1,0,0:0:0:0:
448,192,24736,1,0,0:0:0:0:
192,192,24777,1,0,0:0:0:0:
64,192,24939,1,0,0:0:0:0:
320,192,25101,1,0,0:0:0:0:
192,192,25101,1,0,0:0:0:0:
64,192,25101,1,0,0:0:0:0:
448,192,25263,128,0,25425:0:0:0:0:
320,192,25263,1,0,0:0:0:0:
64,192,25425,1,0,0:0:0:0:
192,192,25425,1,0,0:0:0:0:
320,192,25425,1,0,0:0:0:0:
320,192,25587,1,0,0:0:0:0:
320,192,25749,1,0,0:0:0:0:
64,192,25749,1,0,0:0:0:0:
448,192,25749,1,0,0:0:0:0:
64,192,25912,128,0,26074:0:0:0:0:
192,192,25912,1,0,0:0:0:0:
192,192,26074,1,0,0:0:0:0:
448,192,26074,1,0,0:0:0:0:
320,192,26074,1,0,0:0:0:0:
320,192,26236,1,0,0:0:0:0:
192,192,26398,1,0,0:0:0:0:
64,192,26398,1,0,0:0:0:0:
448,192,26398,1,0,0:0:0:0:
192,192,26560,1,0,0:0:0:0:
64,192,26722,1,0,0:0:0:0:
448,192,26722,1,0,0:0:0:0:
320,192,26722,1,0,0:0:0:0:
320,192,26885,1,0,0:0:0:0:
64,192,27047,1,0,0:0:0:0:
192,192,27047,1,0,0:0:0:0:
320,192,27047,1,0,0:0:0:0:
192,192,27209,1,0,0:0:0:0:
448,192,27209,128,0,27695:0:0:0:0:
320,192,27371,1,0,0:0:0:0:
64,192,27533,1,0,0:0:0:0:
64,192,27695,1,0,0:0:0:0:
320,192,27695,1,0,0:0:0:0:
192,192,27695,1,0,0:0:0:0:
192,192,27858,1,0,0:0:0:0:
64,192,28020,1,0,0:0:0:0:
448,192,28020,1,0,0:0:0:0:
192,192,28020,1,0,0:0:0:0:
320,192,28182,1,0,0:0:0:0:
192,192,28344,1,0,0:0:0:0:
448,192,28344,1,0,0:0:0:0:
320,192,28344,1,0,0:0:0:0:
64,192,28506,1,0,0:0:0:0:
192,192,28668,1,0,0:0:0:0:
64,192,28668,1,0,0:0:0:0:
320,192,28668,1,0,0:0:0:0:
448,192,28831,1,0,0:0:0:0:
320,192,28993,1,0,0:0:0:0:
192,192,28993,1,0,0:0:0:0:
448,192,28993,1,0,0:0:0:0:
192,192,29155,1,0,0:0:0:0:
320,192,29317,1,0,0:0:0:0:
192,192,29317,1,0,0:0:0:0:
64,192,29317,1,0,0:0:0:0:
320,192,29479,1,0,0:0:0:0:
448,192,29641,1,0,0:0:0:0:
320,192,29641,1,0,0:0:0:0:
64,192,29641,1,0,0:0:0:0:
192,192,29804,128,0,29966:0:0:0:0:
448,192,29966,1,0,0:0:0:0:
64,192,29966,1,0,0:0:0:0:
320,192,30128,1,0,0:0:0:0:
192,192,30290,1,0,0:0:0:0:
64,192,30290,1,0,0:0:0:0:
448,192,30290,1,0,0:0:0:0:
448,192,30533,1,0,0:0:0:0:
64,192,30533,1,0,0:0:0:0:
320,192,30533,1,0,0:0:0:0:
64,192,30777,1,0,0:0:0:0:
192,192,30777,1,0,0:0:0:0:
320,192,30777,1,0,0:0:0:0:
192,192,30939,1,0,0:0:0:0:
320,192,30939,1,0,0:0:0:0:
448,192,30939,1,0,0:0:0:0:
64,192,31263,1,0,0:0:0:0:
448,192,31263,1,0,0:0:0:0:
320,192,31425,1,0,0:0:0:0:
192,192,31425,1,0,0:0:0:0:
64,192,31587,1,0,0:0:0:0:
192,192,31587,1,0,0:0:0:0:
320,192,31587,1,0,0:0:0:0:
448,192,31587,1,0,0:0:0:0:
64,192,31749,1,0,0:0:0:0:
192,192,31749,1,0,0:0:0:0:
320,192,31749,1,0,0:0:0:0:
448,192,31749,1,0,0:0:0:0:
320,192,31912,1,0,0:0:0:0:
448,192,31912,1,0,0:0:0:0:
192,192,31912,1,0,0:0:0:0:
64,192,31912,1,0,0:0:0:0:
320,192,32074,1,0,0:0:0:0:
64,192,32074,1,0,0:0:0:0:
448,192,32074,1,0,0:0:0:0:
192,192,32074,1,0,0:0:0:0:
64,192,32236,1,0,0:0:0:0:
320,192,32236,1,0,0:0:0:0:
448,192,32236,1,0,0:0:0:0:
192,192,32317,1,0,0:0:0:0:
320,192,32398,1,0,0:0:0:0:
448,192,32479,1,0,0:0:0:0:
64,192,32722,1,0,0:0:0:0:
192,192,32722,1,0,0:0:0:0:
320,192,32804,1,0,0:0:0:0:
448,192,32804,1,0,0:0:0:0:
192,192,32885,1,0,0:0:0:0:
64,192,32885,1,0,0:0:0:0:
448,192,33047,1,0,0:0:0:0:
64,192,33047,1,0,0:0:0:0:
192,192,33128,1,0,0:0:0:0:
320,192,33128,1,0,0:0:0:0:
64,192,33209,1,0,0:0:0:0:
448,192,33209,1,0,0:0:0:0:
320,192,33371,1,0,0:0:0:0:
64,192,33533,1,0,0:0:0:0:
192,192,33533,1,0,0:0:0:0:
448,192,33533,1,0,0:0:0:0:
192,192,33695,1,0,0:0:0:0:
64,192,33858,1,0,0:0:0:0:
320,192,33858,1,0,0:0:0:0:
448,192,33858,1,0,0:0:0:0:
192,192,33939,1,0,0:0:0:0:
64,192,34020,1,0,0:0:0:0:
320,192,34020,1,0,0:0:0:0:
192,192,34101,1,0,0:0:0:0:
448,192,34101,1,0,0:0:0:0:
320,192,34182,1,0,0:0:0:0:
64,192,34182,1,0,0:0:0:0:
192,192,34344,1,0,0:0:0:0:
320,192,34344,1,0,0:0:0:0:
64,192,34425,1,0,0:0:0:0:
448,192,34425,1,0,0:0:0:0:
320,192,34506,1,0,0:0:0:0:
192,192,34506,1,0,0:0:0:0:
320,192,34831,1,0,0:0:0:0:
448,192,34831,1,0,0:0:0:0:
64,192,35155,1,0,0:0:0:0:
192,192,35155,1,0,0:0:0:0:
320,192,35317,1,0,0:0:0:0:
448,192,35317,1,0,0:0:0:0:
448,192,35479,1,0,0:0:0:0:
320,192,35479,1,0,0:0:0:0:
64,192,35722,1,0,0:0:0:0:
192,192,35722,1,0,0:0:0:0:
192,192,35966,1,0,0:0:0:0:
320,192,35966,1,0,0:0:0:0:
320,192,36128,1,0,0:0:0:0:
192,192,36128,1,0,0:0:0:0:
448,192,36452,1,0,0:0:0:0:
64,192,36452,1,0,0:0:0:0:
320,192,36614,1,0,0:0:0:0:
192,192,36614,1,0,0:0:0:0:
320,192,36777,1,0,0:0:0:0:
448,192,36777,1,0,0:0:0:0:
64,192,36858,1,0,0:0:0:0:
192,192,36858,1,0,0:0:0:0:
64,192,37020,1,0,0:0:0:0:
448,192,37020,1,0,0:0:0:0:
64,192,37182,1,0,0:0:0:0:
192,192,37182,1,0,0:0:0:0:
320,192,37263,1,0,0:0:0:0:
448,192,37263,1,0,0:0:0:0:
64,192,37425,128,0,37749:0:0:0:0:
320,192,37425,128,0,37749:0:0:0:0:
192,192,37749,1,0,0:0:0:0:
448,192,37749,1,0,0:0:0:0:
320,192,37912,1,0,0:0:0:0:
192,192,38074,1,0,0:0:0:0:
64,192,38074,1,0,0:0:0:0:
448,192,38074,1,0,0:0:0:0:
192,192,38236,1,0,0:0:0:0:
64,192,38398,1,0,0:0:0:0:
320,192,38398,1,0,0:0:0:0:
448,192,38398,1,0,0:0:0:0:
448,192,38560,1,0,0:0:0:0:
64,192,38722,1,0,0:0:0:0:
192,192,38722,1,0,0:0:0:0:
320,192,38722,1,0,0:0:0:0:
64,192,38885,1,0,0:0:0:0:
448,192,39047,1,0,0:0:0:0:
320,192,39047,1,0,0:0:0:0:
192,192,39047,1,0,0:0:0:0:
64,192,39209,1,0,0:0:0:0:
320,192,39209,1,0,0:0:0:0:
192,192,39290,1,0,0:0:0:0:
320,192,39371,1,0,0:0:0:0:
448,192,39371,1,0,0:0:0:0:
448,192,39533,1,0,0:0:0:0:
64,192,39695,1,0,0:0:0:0:
192,192,39695,1,0,0:0:0:0:
320,192,39695,1,0,0:0:0:0:
192,192,39858,1,0,0:0:0:0:
64,192,40020,1,0,0:0:0:0:
320,192,40020,1,0,0:0:0:0:
448,192,40020,1,0,0:0:0:0:
448,192,40182,1,0,0:0:0:0:
320,192,40263,1,0,0:0:0:0:
192,192,40344,1,0,0:0:0:0:
64,192,40344,1,0,0:0:0:0:
448,192,40344,1,0,0:0:0:0:
320,192,40506,1,0,0:0:0:0:
192,192,40506,1,0,0:0:0:0:
64,192,40668,128,0,40993:0:0:0:0:
192,192,40831,128,0,41155:0:0:0:0:
320,192,40993,128,0,41317:0:0:0:0:
448,192,41155,128,0,41479:0:0:0:0:
64,192,41317,128,0,41641:0:0:0:0:
192,192,41479,128,0,41804:0:0:0:0:
320,192,41641,128,0,41966:0:0:0:0:
64,192,41966,128,0,42047:0:0:0:0:
192,192,42047,128,0,42128:0:0:0:0:
448,192,42128,128,0,42209:0:0:0:0:
320,192,42209,128,0,42290:0:0:0:0:
192,192,42290,128,0,42371:0:0:0:0:
64,192,42371,128,0,42452:0:0:0:0:
320,192,42452,128,0,42533:0:0:0:0:
448,192,42533,128,0,42614:0:0:0:0:
64,192,42614,1,0,0:0:0:0:
192,192,42655,1,0,0:0:0:0:
320,192,42695,1,0,0:0:0:0:
448,192,42736,1,0,0:0:0:0:
64,192,42777,1,0,0:0:0:0:
192,192,42817,1,0,0:0:0:0:
320,192,42858,1,0,0:0:0:0:
448,192,42898,1,0,0:0:0:0:
320,192,43263,1,0,0:0:0:0:
448,192,43263,1,0,0:0:0:0:
192,192,43344,1,0,0:0:0:0:
64,192,43344,1,0,0:0:0:0:
320,192,43425,1,0,0:0:0:0:
448,192,43425,1,0,0:0:0:0:
192,192,43587,1,0,0:0:0:0:
320,192,43587,1,0,0:0:0:0:
64,192,43749,1,0,0:0:0:0:
320,192,43749,1,0,0:0:0:0:
192,192,43912,1,0,0:0:0:0:
64,192,43912,1,0,0:0:0:0:
64,192,44236,1,0,0:0:0:0:
192,192,44236,1,0,0:0:0:0:
320,192,44236,1,0,0:0:0:0:
448,192,44236,1,0,0:0:0:0:
64,192,44560,1,0,0:0:0:0:
448,192,44560,1,0,0:0:0:0:
320,192,44641,1,0,0:0:0:0:
192,192,44641,1,0,0:0:0:0:
64,192,44722,1,0,0:0:0:0:
448,192,44722,1,0,0:0:0:0:
192,192,44885,1,0,0:0:0:0:
448,192,44885,1,0,0:0:0:0:
320,192,45047,1,0,0:0:0:0:
448,192,45047,1,0,0:0:0:0:
64,192,45209,1,0,0:0:0:0:
192,192,45209,1,0,0:0:0:0:
448,192,45533,1,0,0:0:0:0:
320,192,45533,1,0,0:0:0:0:
192,192,45533,1,0,0:0:0:0:
64,192,45533,1,0,0:0:0:0:
320,192,45858,1,0,0:0:0:0:
64,192,45858,1,0,0:0:0:0:
192,192,45939,1,0,0:0:0:0:
448,192,45939,1,0,0:0:0:0:
320,192,46020,1,0,0:0:0:0:
64,192,46020,1,0,0:0:0:0:
64,192,46182,1,0,0:0:0:0:
320,192,46182,1,0,0:0:0:0:
448,192,46182,1,0,0:0:0:0:
192,192,46182,1,0,0:0:0:0:
448,192,46506,1,0,0:0:0:0:
192,192,46506,1,0,0:0:0:0:
64,192,46587,1,0,0:0:0:0:
320,192,46587,1,0,0:0:0:0:
192,192,46668,1,0,0:0:0:0:
448,192,46668,1,0,0:0:0:0:
448,192,46831,1,0,0:0:0:0:
320,192,46831,1,0,0:0:0:0:
192,192,46831,1,0,0:0:0:0:
64,192,46831,1,0,0:0:0:0:
448,192,47155,128,0,47804:0:0:0:0:
320,192,47155,1,0,0:0:0:0:
320,192,47479,128,0,48128:0:0:0:0:
192,192,47479,1,0,0:0:0:0:
192,192,47804,128,0,48452:0:0:0:0:
64,192,47804,1,0,0:0:0:0:
448,192,48128,128,0,48452:0:0:0:0:
64,192,48128,1,0,0:0:0:0:
64,192,48452,1,0,0:0:0:0:
320,192,48452,1,0,0:0:0:0:
192,192,48533,1,0,0:0:0:0:
448,192,48533,1,0,0:0:0:0:
320,192,48614,1,0,0:0:0:0:
64,192,48614,1,0,0:0:0:0:
192,192,48777,1,0,0:0:0:0:
448,192,48777,1,0,0:0:0:0:
320,192,48939,1,0,0:0:0:0:
448,192,48939,1,0,0:0:0:0:
192,192,49101,1,0,0:0:0:0:
64,192,49101,1,0,0:0:0:0:
448,192,49101,1,0,0:0:0:0:
64,192,49425,1,0,0:0:0:0:
192,192,49425,1,0,0:0:0:0:
320,192,49425,1,0,0:0:0:0:
448,192,49425,1,0,0:0:0:0:
192,192,49749,1,0,0:0:0:0:
320,192,49749,1,0,0:0:0:0:
64,192,49831,1,0,0:0:0:0:
448,192,49831,1,0,0:0:0:0:
320,192,49912,1,0,0:0:0:0:
192,192,49912,1,0,0:0:0:0:
320,192,50074,1,0,0:0:0:0:
64,192,50074,1,0,0:0:0:0:
192,192,50236,1,0,0:0:0:0:
448,192,50236,1,0,0:0:0:0:
320,192,50398,1,0,0:0:0:0:
448,192,50398,1,0,0:0:0:0:
64,192,50722,1,0,0:0:0:0:
192,192,50722,1,0,0:0:0:0:
320,192,50722,1,0,0:0:0:0:
448,192,50722,1,0,0:0:0:0:
320,192,51047,1,0,0:0:0:0:
448,192,51047,1,0,0:0:0:0:
192,192,51128,1,0,0:0:0:0:
64,192,51128,1,0,0:0:0:0:
320,192,51209,1,0,0:0:0:0:
448,192,51209,1,0,0:0:0:0:
192,192,51290,1,0,0:0:0:0:
64,192,51290,1,0,0:0:0:0:
448,192,51371,1,0,0:0:0:0:
320,192,51371,1,0,0:0:0:0:
64,192,51452,1,0,0:0:0:0:
192,192,51452,1,0,0:0:0:0:
320,192,51533,1,0,0:0:0:0:
448,192,51533,1,0,0:0:0:0:
192,192,51614,1,0,0:0:0:0:
64,192,51614,1,0,0:0:0:0:
320,192,51695,1,0,0:0:0:0:
448,192,51695,1,0,0:0:0:0:
192,192,51858,1,0,0:0:0:0:
320,192,51858,1,0,0:0:0:0:
64,192,52020,1,0,0:0:0:0:
448,192,52020,1,0,0:0:0:0:
192,192,52182,1,0,0:0:0:0:
448,192,52182,1,0,0:0:0:0:
64,192,52344,128,0,52831:0:0:0:0:
192,192,52506,128,0,52993:0:0:0:0:
320,192,52668,128,0,53155:0:0:0:0:
448,192,52831,128,0,53317:0:0:0:0:
64,192,53317,1,0,0:0:0:0:
192,192,53317,1,0,0:0:0:0:
320,192,53317,1,0,0:0:0:0:
64,192,53641,1,0,0:0:0:0:
448,192,53641,1,0,0:0:0:0:
320,192,53722,1,0,0:0:0:0:
192,192,53722,1,0,0:0:0:0:
64,192,53804,1,0,0:0:0:0:
448,192,53804,1,0,0:0:0:0:
192,192,53885,1,0,0:0:0:0:
320,192,53885,1,0,0:0:0:0:
320,192,54128,1,0,0:0:0:0:
448,192,54128,1,0,0:0:0:0:
192,192,54209,1,0,0:0:0:0:
64,192,54209,1,0,0:0:0:0:
320,192,54290,1,0,0:0:0:0:
448,192,54290,1,0,0:0:0:0:
192,192,54371,1,0,0:0:0:0:
64,192,54371,1,0,0:0:0:0:
192,192,54614,1,0,0:0:0:0:
320,192,54614,1,0,0:0:0:0:
64,192,54777,1,0,0:0:0:0:
448,192,54777,1,0,0:0:0:0:
64,192,54939,1,0,0:0:0:0:
320,192,54939,1,0,0:0:0:0:
192,192,55020,1,0,0:0:0:0:
448,192,55020,1,0,0:0:0:0:
320,192,55101,1,0,0:0:0:0:
64,192,55101,1,0,0:0:0:0:
192,192,55182,1,0,0:0:0:0:
448,192,55182,1,0,0:0:0:0:
192,192,55425,1,0,0:0:0:0:
320,192,55425,1,0,0:0:0:0:
64,192,55506,1,0,0:0:0:0:
448,192,55506,1,0,0:0:0:0:
320,192,55587,1,0,0:0:0:0:
192,192,55587,1,0,0:0:0:0:
64,192,55668,1,0,0:0:0:0:
448,192,55668,1,0,0:0:0:0:
192,192,55912,1,0,0:0:0:0:
448,192,55912,1,0,0:0:0:0:
64,192,56074,1,0,0:0:0:0:
320,192,56074,1,0,0:0:0:0:
192,192,56236,1,0,0:0:0:0:
64,192,56236,1,0,0:0:0:0:
320,192,56317,1,0,0:0:0:0:
448,192,56317,1,0,0:0:0:0:
192,192,56398,1,0,0:0:0:0:
64,192,56398,1,0,0:0:0:0:
320,192,56479,1,0,0:0:0:0:
448,192,56479,1,0,0:0:0:0:
448,192,56722,1,0,0:0:0:0:
64,192,56722,1,0,0:0:0:0:
192,192,56804,1,0,0:0:0:0:
320,192,56804,1,0,0:0:0:0:
448,192,56885,1,0,0:0:0:0:
64,192,56885,1,0,0:0:0:0:
192,192,56966,1,0,0:0:0:0:
320,192,56966,1,0,0:0:0:0:
192,192,57209,1,0,0:0:0:0:
64,192,57209,1,0,0:0:0:0:
320,192,57371,1,0,0:0:0:0:
448,192,57371,1,0,0:0:0:0:
64,192,57533,1,0,0:0:0:0:
192,192,57574,1,0,0:0:0:0:
320,192,57614,1,0,0:0:0:0:
448,192,57655,1,0,0:0:0:0:
320,192,57695,1,0,0:0:0:0:
64,192,57777,1,0,0:0:0:0:
192,192,57858,1,0,0:0:0:0:
320,192,57939,1,0,0:0:0:0:
448,192,58020,1,0,0:0:0:0:
192,192,58101,1,0,0:0:0:0:
320,192,58182,1,0,0:0:0:0:
192,192,58263,1,0,0:0:0:0:
64,192,58344,1,0,0:0:0:0:
320,192,58425,1,0,0:0:0:0:
192,192,58506,1,0,0:0:0:0:
320,192,58587,1,0,0:0:0:0:
448,192,58668,1,0,0:0:0:0:
320,192,58749,1,0,0:0:0:0:
64,192,58831,1,0,0:0:0:0:
448,192,58831,1,0,0:0:0:0:
192,192,58831,1,0,0:0:0:0:
64,192,58993,128,0,59155:0:0:0:0:
320,192,59155,1,0,0:0:0:0:
448,192,59155,1,0,0:0:0:0:
192,192,59155,1,0,0:0:0:0:
192,192,59317,128,0,59479:0:0:0:0:
64,192,59479,1,0,0:0:0:0:
320,192,59479,1,0,0:0:0:0:
448,192,59479,1,0,0:0:0:0:
320,192,59641,128,0,59804:0:0:0:0:
192,192,59804,1,0,0:0:0:0:
64,192,59804,1,0,0:0:0:0:
448,192,59804,1,0,0:0:0:0:
448,192,59966,128,0,60128:0:0:0:0:
320,192,60128,1,0,0:0:0:0:
192,192,60128,1,0,0:0:0:0:
64,192,60128,1,0,0:0:0:0:
64,192,60290,128,0,60452:0:0:0:0:
448,192,60452,1,0,0:0:0:0:
192,192,60452,1,0,0:0:0:0:
320,192,60452,1,0,0:0:0:0:
192,192,60614,128,0,60777:0:0:0:0:
320,192,60777,1,0,0:0:0:0:
64,192,60777,1,0,0:0:0:0:
448,192,60777,1,0,0:0:0:0:
320,192,60939,128,0,61101:0:0:0:0:
64,192,61101,1,0,0:0:0:0:
192,192,61101,1,0,0:0:0:0:
448,192,61101,1,0,0:0:0:0:
448,192,61263,128,0,61425:0:0:0:0:
192,192,61425,1,0,0:0:0:0:
64,192,61425,1,0,0:0:0:0:
320,192,61425,1,0,0:0:0:0:
64,192,61587,128,0,61749:0:0:0:0:
320,192,61749,1,0,0:0:0:0:
192,192,61749,1,0,0:0:0:0:
448,192,61749,1,0,0:0:0:0:
192,192,61912,128,0,62074:0:0:0:0:
448,192,62074,1,0,0:0:0:0:
64,192,62074,1,0,0:0:0:0:
320,192,62074,1,0,0:0:0:0:
320,192,62236,128,0,62398:0:0:0:0:
448,192,62398,1,0,0:0:0:0:
192,192,62398,1,0,0:0:0:0:
64,192,62398,1,0,0:0:0:0:
448,192,62560,128,0,62722:0:0:0:0:
64,192,62722,1,0,0:0:0:0:
192,192,62722,1,0,0:0:0:0:
320,192,62831,1,0,0:0:0:0:
448,192,62831,1,0,0:0:0:0:
64,192,62939,1,0,0:0:0:0:
448,192,62939,1,0,0:0:0:0:
320,192,63047,1,0,0:0:0:0:
64,192,63047,1,0,0:0:0:0:
192,192,63155,1,0,0:0:0:0:
448,192,63155,1,0,0:0:0:0:
320,192,63263,1,0,0:0:0:0:
448,192,63263,1,0,0:0:0:0:
64,192,63371,1,0,0:0:0:0:
192,192,63371,1,0,0:0:0:0:
192,192,63479,1,0,0:0:0:0:
320,192,63479,1,0,0:0:0:0:
448,192,63587,1,0,0:0:0:0:
64,192,63587,1,0,0:0:0:0:
192,192,63695,1,0,0:0:0:0:
448,192,63695,1,0,0:0:0:0:
320,192,63804,1,0,0:0:0:0:
64,192,63804,1,0,0:0:0:0:
192,192,63912,1,0,0:0:0:0:
64,192,63912,1,0,0:0:0:0:
448,192,64020,128,0,64668:0:0:0:0:
320,192,64344,128,0,64993:0:0:0:0:
192,192,64668,128,0,65317:0:0:0:0:
64,192,64993,128,0,65641:0:0:0:0:
320,192,65317,1,0,0:0:0:0:
448,192,65317,1,0,0:0:0:0:
192,192,65641,1,0,0:0:0:0:
448,192,65641,1,0,0:0:0:0:
64,192,65804,1,0,0:0:0:0:
320,192,65804,1,0,0:0:0:0:
192,192,65966,1,0,0:0:0:0:
64,192,65966,1,0,0:0:0:0:
320,192,66290,1,0,0:0:0:0:
320,192,66614,1,0,0:0:0:0:
448,192,66614,1,0,0:0:0:0:
320,192,66777,1,0,0:0:0:0:
448,192,66777,1,0,0:0:0:0:
192,192,66858,1,0,0:0:0:0:
64,192,66858,1,0,0:0:0:0:
320,192,66939,1,0,0:0:0:0:
448,192,66939,1,0,0:0:0:0:
320,192,67101,1,0,0:0:0:0:
448,192,67101,1,0,0:0:0:0:
448,192,67263,1,0,0:0:0:0:
320,192,67263,1,0,0:0:0:0:
64,192,67587,1,0,0:0:0:0:
192,192,67587,1,0,0:0:0:0:
320,192,67587,1,0,0:0:0:0:
448,192,67587,1,0,0:0:0:0:
320,192,67912,1,0,0:0:0:0:
448,192,67912,1,0,0:0:0:0:
192,192,67993,1,0,0:0:0:0:
320,192,68074,1,0,0:0:0:0:
448,192,68155,1,0,0:0:0:0:
64,192,68236,1,0,0:0:0:0:
192,192,68236,1,0,0:0:0:0:
320,192,68317,1,0,0:0:0:0:
64,192,68398,1,0,0:0:0:0:
192,192,68479,1,0,0:0:0:0:
320,192,68560,1,0,0:0:0:0:
64,192,68560,1,0,0:0:0:0:
448,192,68641,1,0,0:0:0:0:
192,192,68722,1,0,0:0:0:0:
320,192,68804,1,0,0:0:0:0:
192,192,68885,1,0,0:0:0:0:
448,192,68885,1,0,0:0:0:0:
64,192,68966,1,0,0:0:0:0:
192,192,69047,1,0,0:0:0:0:
448,192,69128,1,0,0:0:0:0:
64,192,69209,1,0,0:0:0:0:
320,192,69209,1,0,0:0:0:0:
192,192,69290,1,0,0:0:0:0:
448,192,69371,1,0,0:0:0:0:
320,192,69452,1,0,0:0:0:0:
192,192,69533,1,0,0:0:0:0:
448,192,69533,1,0,0:0:0:0:
64,192,69614,1,0,0:0:0:0:
320,192,69695,1,0,0:0:0:0:
192,192,69777,1,0,0:0:0:0:
448,192,69858,1,0,0:0:0:0:
320,192,69858,1,0,0:0:0:0:
64,192,69939,1,0,0:0:0:0:
320,192,70020,1,0,0:0:0:0:
448,192,70101,1,0,0:0:0:0:
64,192,70182,1,0,0:0:0:0:
192,192,70182,1,0,0:0:0:0:
320,192,70263,1,0,0:0:0:0:
192,192,70344,1,0,0:0:0:0:
448,192,70425,1,0,0:0:0:0:
64,192,70506,1,0,0:0:0:0:
192,192,70506,1,0,0:0:0:0:
320,192,70587,1,0,0:0:0:0:
192,192,70668,1,0,0:0:0:0:
64,192,70749,1,0,0:0:0:0:
448,192,70831,1,0,0:0:0:0:
320,192,70831,1,0,0:0:0:0:
192,192,70912,1,0,0:0:0:0:
448,192,70993,1,0,0:0:0:0:
320,192,71074,1,0,0:0:0:0:
192,192,71155,1,0,0:0:0:0:
448,192,71155,1,0,0:0:0:0:
64,192,71236,1,0,0:0:0:0:
320,192,71317,1,0,0:0:0:0:
192,192,71398,1,0,0:0:0:0:
320,192,71479,1,0,0:0:0:0:
64,192,71479,1,0,0:0:0:0:
448,192,71560,1,0,0:0:0:0:
320,192,71641,1,0,0:0:0:0:
64,192,71722,1,0,0:0:0:0:
448,192,71804,1,0,0:0:0:0:
192,192,71804,1,0,0:0:0:0:
320,192,71885,1,0,0:0:0:0:
64,192,71966,1,0,0:0:0:0:
192,192,72047,1,0,0:0:0:0:
320,192,72128,1,0,0:0:0:0:
64,192,72128,1,0,0:0:0:0:
448,192,72209,1,0,0:0:0:0:
192,192,72290,1,0,0:0:0:0:
320,192,72371,1,0,0:0:0:0:
64,192,72452,1,0,0:0:0:0:
192,192,72452,1,0,0:0:0:0:
448,192,72533,1,0,0:0:0:0:
192,192,72614,1,0,0:0:0:0:
320,192,72614,1,0,0:0:0:0:
64,192,72695,1,0,0:0:0:0:
448,192,72695,1,0,0:0:0:0:
320,192,72777,1,0,0:0:0:0:
192,192,72777,1,0,0:0:0:0:
64,192,72858,1,0,0:0:0:0:
192,192,72939,1,0,0:0:0:0:
320,192,73020,1,0,0:0:0:0:
192,192,73101,1,0,0:0:0:0:
64,192,73101,1,0,0:0:0:0:
448,192,73101,1,0,0:0:0:0:
64,192,73263,1,0,0:0:0:0:
320,192,73263,1,0,0:0:0:0:
448,192,73263,1,0,0:0:0:0:
192,192,73912,1,0,0:0:0:0:
320,192,73912,1,0,0:0:0:0:
64,192,74074,1,0,0:0:0:0:
320,192,74074,1,0,0:0:0:0:
448,192,74074,1,0,0:0:0:0:
448,192,74236,1,0,0:0:0:0:
192,192,74236,1,0,0:0:0:0:
64,192,74236,1,0,0:0:0:0:
320,192,74560,1,0,0:0:0:0:
448,192,74560,1,0,0:0:0:0:
448,192,74722,1,0,0:0:0:0:
192,192,74722,1,0,0:0:0:0:
64,192,74722,1,0,0:0:0:0:
64,192,75209,1,0,0:0:0:0:
448,192,75209,1,0,0:0:0:0:
320,192,75290,1,0,0:0:0:0:
448,192,75371,1,0,0:0:0:0:
192,192,75371,1,0,0:0:0:0:
64,192,75371,1,0,0:0:0:0:
320,192,75533,1,0,0:0:0:0:
192,192,75533,1,0,0:0:0:0:
64,192,75695,1,0,0:0:0:0:
192,192,75695,1,0,0:0:0:0:
448,192,75695,1,0,0:0:0:0:
448,192,75858,1,0,0:0:0:0:
320,192,75858,1,0,0:0:0:0:
64,192,75858,1,0,0:0:0:0:
192,192,76020,1,0,0:0:0:0:
64,192,76344,1,0,0:0:0:0:
192,192,76344,1,0,0:0:0:0:
320,192,76344,1,0,0:0:0:0:
192,192,76506,1,0,0:0:0:0:
320,192,76506,1,0,0:0:0:0:
448,192,76506,1,0,0:0:0:0:
64,192,76668,1,0,0:0:0:0:
192,192,76668,1,0,0:0:0:0:
448,192,76668,1,0,0:0:0:0:
64,192,76993,1,0,0:0:0:0:
192,192,76993,1,0,0:0:0:0:
320,192,76993,1,0,0:0:0:0:
448,192,76993,1,0,0:0:0:0:
448,192,77317,1,0,0:0:0:0:
320,192,77317,1,0,0:0:0:0:
192,192,77317,1,0,0:0:0:0:
64,192,77317,1,0,0:0:0:0:
64,192,77641,1,0,0:0:0:0:
192,192,77641,1,0,0:0:0:0:
320,192,77641,1,0,0:0:0:0:
448,192,77641,1,0,0:0:0:0:
64,192,77804,1,0,0:0:0:0:
192,192,77804,1,0,0:0:0:0:
320,192,77885,1,0,0:0:0:0:
448,192,77885,1,0,0:0:0:0:
192,192,77966,1,0,0:0:0:0:
64,192,77966,1,0,0:0:0:0:
448,192,78128,1,0,0:0:0:0:
64,192,78128,1,0,0:0:0:0:
320,192,78209,1,0,0:0:0:0:
64,192,78290,1,0,0:0:0:0:
192,192,78290,1,0,0:0:0:0:
320,192,78371,1,0,0:0:0:0:
192,192,78452,1,0,0:0:0:0:
64,192,78533,1,0,0:0:0:0:
448,192,78614,1,0,0:0:0:0:
320,192,78614,1,0,0:0:0:0:
192,192,78695,1,0,0:0:0:0:
448,192,78777,1,0,0:0:0:0:
320,192,78858,1,0,0:0:0:0:
448,192,78939,1,0,0:0:0:0:
192,192,78939,1,0,0:0:0:0:
64,192,79020,1,0,0:0:0:0:
320,192,79101,1,0,0:0:0:0:
192,192,79182,1,0,0:0:0:0:
64,192,79263,1,0,0:0:0:0:
320,192,79263,1,0,0:0:0:0:
448,192,79344,1,0,0:0:0:0:
320,192,79425,1,0,0:0:0:0:
64,192,79506,1,0,0:0:0:0:
448,192,79587,1,0,0:0:0:0:
192,192,79587,1,0,0:0:0:0:
320,192,79668,1,0,0:0:0:0:
64,192,79749,1,0,0:0:0:0:
192,192,79831,1,0,0:0:0:0:
320,192,79912,1,0,0:0:0:0:
64,192,79912,1,0,0:0:0:0:
448,192,79993,1,0,0:0:0:0:
192,192,80074,1,0,0:0:0:0:
320,192,80155,1,0,0:0:0:0:
192,192,80236,1,0,0:0:0:0:
64,192,80236,1,0,0:0:0:0:
448,192,80317,1,0,0:0:0:0:
64,192,80398,1,0,0:0:0:0:
192,192,80439,1,0,0:0:0:0:
320,192,80479,1,0,0:0:0:0:
448,192,80520,1,0,0:0:0:0:
192,192,80560,1,0,0:0:0:0:
64,192,80560,1,0,0:0:0:0:
320,192,80641,1,0,0:0:0:0:
192,192,80722,1,0,0:0:0:0:
64,192,80804,1,0,0:0:0:0:
448,192,80885,1,0,0:0:0:0:
320,192,80885,1,0,0:0:0:0:
192,192,80966,1,0,0:0:0:0:
320,192,81047,1,0,0:0:0:0:
448,192,81128,1,0,0:0:0:0:
192,192,81209,1,0,0:0:0:0:
64,192,81209,1,0,0:0:0:0:
320,192,81290,1,0,0:0:0:0:
64,192,81371,1,0,0:0:0:0:
192,192,81452,1,0,0:0:0:0:
64,192,81533,1,0,0:0:0:0:
320,192,81533,1,0,0:0:0:0:
448,192,81614,1,0,0:0:0:0:
192,192,81695,1,0,0:0:0:0:
320,192,81777,1,0,0:0:0:0:
448,192,81858,1,0,0:0:0:0:
192,192,81858,1,0,0:0:0:0:
64,192,81939,1,0,0:0:0:0:
192,192,82020,1,0,0:0:0:0:
448,192,82101,1,0,0:0:0:0:
320,192,82182,1,0,0:0:0:0:
64,192,82182,1,0,0:0:0:0:
192,192,82263,1,0,0:0:0:0:
448,192,82344,1,0,0:0:0:0:
320,192,82425,1,0,0:0:0:0:
448,192,82506,1,0,0:0:0:0:
192,192,82506,1,0,0:0:0:0:
64,192,82587,1,0,0:0:0:0:
320,192,82668,1,0,0:0:0:0:
448,192,82668,1,0,0:0:0:0:
192,192,82749,1,0,0:0:0:0:
64,192,82749,1,0,0:0:0:0:
448,192,82831,1,0,0:0:0:0:
320,192,82831,1,0,0:0:0:0:
64,192,82912,1,0,0:0:0:0:
320,192,82993,1,0,0:0:0:0:
192,192,82993,1,0,0:0:0:0:
64,192,83074,1,0,0:0:0:0:
448,192,83074,1,0,0:0:0:0:
192,192,83155,1,0,0:0:0:0:
320,192,83155,1,0,0:0:0:0:
448,192,83236,1,0,0:0:0:0:
320,192,83317,1,0,0:0:0:0:
192,192,83398,1,0,0:0:0:0:
64,192,83479,1,0,0:0:0:0:
320,192,83479,1,0,0:0:0:0:
448,192,83479,1,0,0:0:0:0:
448,192,83641,1,0,0:0:0:0:
192,192,83641,1,0,0:0:0:0:
64,192,83641,1,0,0:0:0:0:
192,192,84290,1,0,0:0:0:0:
320,192,84290,1,0,0:0:0:0:
448,192,84452,1,0,0:0:0:0:
64,192,84452,1,0,0:0:0:0:
192,192,84452,1,0,0:0:0:0:
320,192,84614,1,0,0:0:0:0:
448,192,84614,1,0,0:0:0:0:
64,192,84614,1,0,0:0:0:0:
64,192,84939,1,0,0:0:0:0:
192,192,84939,1,0,0:0:0:0:
64,192,85101,1,0,0:0:0:0:
320,192,85101,1,0,0:0:0:0:
448,192,85101,1,0,0:0:0:0:
448,192,85587,1,0,0:0:0:0:
64,192,85587,1,0,0:0:0:0:
192,192,85668,1,0,0:0:0:0:
320,192,85749,1,0,0:0:0:0:
448,192,85749,1,0,0:0:0:0:
64,192,85749,1,0,0:0:0:0:
320,192,85912,1,0,0:0:0:0:
192,192,85912,1,0,0:0:0:0:
64,192,86074,1,0,0:0:0:0:
320,192,86074,1,0,0:0:0:0:
448,192,86074,1,0,0:0:0:0:
448,192,86236,1,0,0:0:0:0:
64,192,86236,1,0,0:0:0:0:
192,192,86236,1,0,0:0:0:0:
320,192,86398,1,0,0:0:0:0:
192,192,86722,1,0,0:0:0:0:
320,192,86722,1,0,0:0:0:0:
448,192,86722,1,0,0:0:0:0:
320,192,86885,1,0,0:0:0:0:
64,192,86885,1,0,0:0:0:0:
192,192,86885,1,0,0:0:0:0:
320,192,87047,1,0,0:0:0:0:
448,192,87047,1,0,0:0:0:0:
64,192,87047,1,0,0:0:0:0:
320,192,87371,1,0,0:0:0:0:
192,192,87371,1,0,0:0:0:0:
64,192,87371,1,0,0:0:0:0:
448,192,87371,1,0,0:0:0:0:
192,192,87695,1,0,0:0:0:0:
320,192,87695,1,0,0:0:0:0:
64,192,87695,1,0,0:0:0:0:
448,192,87695,1,0,0:0:0:0:
192,192,88020,1,0,0:0:0:0:
320,192,88020,1,0,0:0:0:0:
448,192,88020,1,0,0:0:0:0:
64,192,88020,1,0,0:0:0:0:
448,192,88182,1,0,0:0:0:0:
320,192,88182,1,0,0:0:0:0:
64,192,88263,1,0,0:0:0:0:
192,192,88263,1,0,0:0:0:0:
320,192,88344,1,0,0:0:0:0:
448,192,88344,1,0,0:0:0:0:
320,192,88506,1,0,0:0:0:0:
448,192,88506,1,0,0:0:0:0:
192,192,88587,1,0,0:0:0:0:
320,192,88668,1,0,0:0:0:0:
64,192,88668,1,0,0:0:0:0:
448,192,88668,128,0,89317:0:0:0:0:
320,192,88993,128,0,89641:0:0:0:0:
192,192,89317,128,0,89966:0:0:0:0:
64,192,89641,128,0,90290:0:0:0:0:
448,192,89966,128,0,90614:0:0:0:0:
320,192,89966,1,0,0:0:0:0:
320,192,90290,128,0,90939:0:0:0:0:
192,192,90614,128,0,91263:0:0:0:0:
64,192,90939,128,0,91587:0:0:0:0:
320,192,91263,1,0,0:0:0:0:
448,192,91263,1,0,0:0:0:0:
192,192,91425,1,0,0:0:0:0:
320,192,91425,1,0,0:0:0:0:
448,192,91425,1,0,0:0:0:0:
448,192,91912,1,0,0:0:0:0:
320,192,91912,1,0,0:0:0:0:
192,192,91912,1,0,0:0:0:0:
64,192,91912,1,0,0:0:0:0:
64,192,92074,1,0,0:0:0:0:
192,192,92074,1,0,0:0:0:0:
320,192,92074,1,0,0:0:0:0:
448,192,92074,1,0,0:0:0:0:
448,192,92560,1,0,0:0:0:0:
192,192,92560,1,0,0:0:0:0:
64,192,92560,1,0,0:0:0:0:
320,192,92641,1,0,0:0:0:0:
64,192,92722,1,0,0:0:0:0:
192,192,92804,1,0,0:0:0:0:
448,192,92885,1,0,0:0:0:0:
320,192,92885,1,0,0:0:0:0:
64,192,92885,1,0,0:0:0:0:
192,192,92966,1,0,0:0:0:0:
320,192,93047,1,0,0:0:0:0:
448,192,93128,1,0,0:0:0:0:
192,192,93209,1,0,0:0:0:0:
64,192,93209,1,0,0:0:0:0:
320,192,93209,1,0,0:0:0:0:
448,192,93290,1,0,0:0:0:0:
192,192,93371,1,0,0:0:0:0:
64,192,93452,1,0,0:0:0:0:
192,192,93533,1,0,0:0:0:0:
320,192,93533,1,0,0:0:0:0:
448,192,93533,1,0,0:0:0:0:
64,192,93614,1,0,0:0:0:0:
192,192,93695,1,0,0:0:0:0:
320,192,93777,1,0,0:0:0:0:
64,192,93858,1,0,0:0:0:0:
192,192,93858,1,0,0:0:0:0:
448,192,93858,1,0,0:0:0:0:
320,192,94506,1,0,0:0:0:0:
448,192,94506,1,0,0:0:0:0:
64,192,94668,1,0,0:0:0:0:
192,192,94709,1,0,0:0:0:0:
320,192,94749,1,0,0:0:0:0:
448,192,94790,1,0,0:0:0:0:
320,192,94831,1,0,0:0:0:0:
192,192,94912,1,0,0:0:0:0:
64,192,94993,1,0,0:0:0:0:
448,192,94993,1,0,0:0:0:0:
192,192,95317,1,0,0:0:0:0:
320,192,95317,1,0,0:0:0:0:
448,192,95479,1,0,0:0:0:0:
64,192,95479,1,0,0:0:0:0:
320,192,95641,1,0,0:0:0:0:
448,192,95641,1,0,0:0:0:0:
192,192,95804,1,0,0:0:0:0:
64,192,95804,1,0,0:0:0:0:
448,192,95966,1,0,0:0:0:0:
192,192,95966,1,0,0:0:0:0:
64,192,96047,1,0,0:0:0:0:
320,192,96047,1,0,0:0:0:0:
192,192,96128,1,0,0:0:0:0:
448,192,96128,1,0,0:0:0:0:
320,192,96290,1,0,0:0:0:0:
448,192,96290,1,0,0:0:0:0:
448,192,96452,1,0,0:0:0:0:
192,192,96452,1,0,0:0:0:0:
64,192,96533,1,0,0:0:0:0:
320,192,96533,1,0,0:0:0:0:
192,192,96614,1,0,0:0:0:0:
448,192,96614,1,0,0:0:0:0:
320,192,96695,1,0,0:0:0:0:
64,192,96777,1,0,0:0:0:0:
448,192,96777,1,0,0:0:0:0:
192,192,96858,1,0,0:0:0:0:
64,192,96939,1,0,0:0:0:0:
448,192,96939,1,0,0:0:0:0:
192,192,97020,1,0,0:0:0:0:
320,192,97020,1,0,0:0:0:0:
64,192,97101,1,0,0:0:0:0:
448,192,97101,1,0,0:0:0:0:
320,192,97182,1,0,0:0:0:0:
64,192,97263,1,0,0:0:0:0:
192,192,97344,1,0,0:0:0:0:
320,192,97425,1,0,0:0:0:0:
64,192,97425,1,0,0:0:0:0:
192,192,97506,1,0,0:0:0:0:
320,192,97587,1,0,0:0:0:0:
448,192,97668,1,0,0:0:0:0:
64,192,97749,1,0,0:0:0:0:
320,192,97749,1,0,0:0:0:0:
192,192,97831,1,0,0:0:0:0:
320,192,97912,1,0,0:0:0:0:
64,192,97912,1,0,0:0:0:0:
448,192,97912,1,0,0:0:0:0:
192,192,97993,1,0,0:0:0:0:
64,192,98074,1,0,0:0:0:0:
320,192,98074,1,0,0:0:0:0:
448,192,98074,1,0,0:0:0:0:
192,192,98155,1,0,0:0:0:0:
320,192,98236,1,0,0:0:0:0:
448,192,98236,1,0,0:0:0:0:
64,192,98236,1,0,0:0:0:0:
192,192,98317,1,0,0:0:0:0:
320,192,98398,1,0,0:0:0:0:
448,192,98398,1,0,0:0:0:0:
64,192,98398,1,0,0:0:0:0:
192,192,98479,1,0,0:0:0:0:
320,192,98560,1,0,0:0:0:0:
448,192,98641,1,0,0:0:0:0:
64,192,98722,1,0,0:0:0:0:
192,192,98722,1,0,0:0:0:0:
320,192,98804,1,0,0:0:0:0:
192,192,98885,1,0,0:0:0:0:
320,192,98966,1,0,0:0:0:0:
448,192,99047,1,0,0:0:0:0:
64,192,99047,1,0,0:0:0:0:
192,192,99128,1,0,0:0:0:0:
320,192,99128,1,0,0:0:0:0:
64,192,99209,1,0,0:0:0:0:
448,192,99209,1,0,0:0:0:0:
192,192,99290,1,0,0:0:0:0:
320,192,99371,1,0,0:0:0:0:
64,192,99371,1,0,0:0:0:0:
448,192,99452,1,0,0:0:0:0:
192,192,99533,1,0,0:0:0:0:
64,192,99533,1,0,0:0:0:0:
448,192,99614,1,0,0:0:0:0:
320,192,99614,1,0,0:0:0:0:
192,192,99695,1,0,0:0:0:0:
64,192,99695,1,0,0:0:0:0:
448,192,99777,1,0,0:0:0:0:
320,192,99858,1,0,0:0:0:0:
64,192,99939,1,0,0:0:0:0:
192,192,100020,1,0,0:0:0:0:
448,192,100020,1,0,0:0:0:0:
320,192,100101,1,0,0:0:0:0:
64,192,100182,1,0,0:0:0:0:
192,192,100263,1,0,0:0:0:0:
64,192,100344,1,0,0:0:0:0:
448,192,100344,1,0,0:0:0:0:
192,192,100425,1,0,0:0:0:0:
448,192,100506,1,0,0:0:0:0:
320,192,100506,1,0,0:0:0:0:
64,192,100587,1,0,0:0:0:0:
192,192,100587,1,0,0:0:0:0:
320,192,100668,1,0,0:0:0:0:
448,192,100668,1,0,0:0:0:0:
64,192,100749,1,0,0:0:0:0:
448,192,100831,1,0,0:0:0:0:
192,192,100831,1,0,0:0:0:0:
320,192,100912,1,0,0:0:0:0:
448,192,100993,1,0,0:0:0:0:
64,192,100993,1,0,0:0:0:0:
320,192,101317,1,0,0:0:0:0:
448,192,101317,1,0,0:0:0:0:
64,192,101479,1,0,0:0:0:0:
192,192,101479,1,0,0:0:0:0:
64,192,101641,1,0,0:0:0:0:
320,192,101641,1,0,0:0:0:0:
448,192,101722,1,0,0:0:0:0:
192,192,101722,1,0,0:0:0:0:
320,192,101804,1,0,0:0:0:0:
64,192,101804,1,0,0:0:0:0:
192,192,101885,1,0,0:0:0:0:
448,192,101966,1,0,0:0:0:0:
64,192,101966,1,0,0:0:0:0:
320,192,102047,1,0,0:0:0:0:
448,192,102128,1,0,0:0:0:0:
64,192,102128,1,0,0:0:0:0:
192,192,102209,1,0,0:0:0:0:
320,192,102209,1,0,0:0:0:0:
448,192,102290,1,0,0:0:0:0:
64,192,102290,1,0,0:0:0:0:
192,192,102371,1,0,0:0:0:0:
320,192,102452,1,0,0:0:0:0:
448,192,102452,1,0,0:0:0:0:
64,192,102533,1,0,0:0:0:0:
192,192,102614,1,0,0:0:0:0:
448,192,102614,1,0,0:0:0:0:
320,192,102695,1,0,0:0:0:0:
64,192,102777,1,0,0:0:0:0:
192,192,102777,1,0,0:0:0:0:
448,192,102858,1,0,0:0:0:0:
320,192,102939,1,0,0:0:0:0:
192,192,102939,1,0,0:0:0:0:
64,192,103101,1,0,0:0:0:0:
192,192,103141,1,0,0:0:0:0:
320,192,103182,1,0,0:0:0:0:
448,192,103222,1,0,0:0:0:0:
64,192,103263,1,0,0:0:0:0:
192,192,103263,1,0,0:0:0:0:
64,192,103425,1,0,0:0:0:0:
192,192,103466,1,0,0:0:0:0:
320,192,103506,1,0,0:0:0:0:
448,192,103547,1,0,0:0:0:0:
64,192,103668,1,0,0:0:0:0:
192,192,103709,1,0,0:0:0:0:
320,192,103749,1,0,0:0:0:0:
64,192,103912,1,0,0:0:0:0:
192,192,103952,1,0,0:0:0:0:
320,192,103993,1,0,0:0:0:0:
448,192,104033,1,0,0:0:0:0:
192,192,104236,1,0,0:0:0:0:
64,192,104236,1,0,0:0:0:0:
320,192,104236,1,0,0:0:0:0:
448,192,104236,1,0,0:0:0:0:
64,192,104885,1,0,0:0:0:0:
192,192,104885,1,0,0:0:0:0:
320,192,104885,1,0,0:0:0:0:
448,192,104885,1,0,0:0:0:0:
64,192,105371,1,0,0:0:0:0:
192,192,105371,1,0,0:0:0:0:
320,192,105371,1,0,0:0:0:0:
448,192,105371,1,0,0:0:0:0:
448,192,105695,1,0,0:0:0:0:
320,192,105695,1,0,0:0:0:0:
192,192,105695,1,0,0:0:0:0:
64,192,105695,1,0,0:0:0:0:
64,192,105858,1,0,0:0:0:0:
192,192,105858,1,0,0:0:0:0:
320,192,105858,1,0,0:0:0:0:
448,192,105858,1,0,0:0:0:0:
320,192,106182,1,0,0:0:0:0:
448,192,106182,1,0,0:0:0:0:
320,192,106506,1,0,0:0:0:0:
192,192,106506,1,0,0:0:0:0:
64,192,106831,1,0,0:0:0:0:
192,192,106831,1,0,0:0:0:0:
64,192,107155,1,0,0:0:0:0:
320,192,107155,1,0,0:0:0:0:
192,192,107479,1,0,0:0:0:0:
448,192,107479,1,0,0:0:0:0:
64,192,107804,1,0,0:0:0:0:
320,192,107804,1,0,0:0:0:0:
448,192,107804,1,0,0:0:0:0:
192,192,107804,1,0,0:0:0:0:
64,192,107966,128,0,113236:0:0:0:0:
192,192,107966,128,0,113236:0:0:0:0:
320,192,107966,128,0,113236:0:0:0:0:
448,192,107966,128,0,113236:0:0:0:0:
64,192,113317,1,0,0:0:0:0:
192,192,113317,1,0,0:0:0:0:
320,192,113317,1,0,0:0:0:0:
448,192,113317,1,0,0:0:0:0:
