osu file format v6

[General]
AudioFilename: Final Fantasy - Battle Theme Original (V, VI, VII, VIII, IX, X).mp3
AudioLeadIn: 2945
PreviewTime: 330085
Countdown: 1
SampleSet: Soft
StackLeniency: 0.7
Mode: 0
LetterboxInBreaks: 1
StoryFireInFront: 0

[Editor]
Bookmarks: 63975,100890,119514,219384,220102,222617,336176,433379
DistanceSpacing: 0.800000011920929
BeatDivisor: 8
GridSize: 16

[Metadata]
Title:Final Fantasy Battle Theme
Artist:Nobuo Uematsu
Creator:eiuolfyd
Version:VI
Source:
Tags:

[Difficulty]
HPDrainRate:4
CircleSize:3
OverallDifficulty:9
SliderMultiplier:1.4
SliderTickRate:2

[Events]
//Background and Video events
0,0,"Final Fantasy Marathon.jpg"
//Break Periods
2,62084,63375
//Storyboard Layer 0 (Background)
//Storyboard Layer 1 (Fail)
//Storyboard Layer 2 (Pass)
//Storyboard Layer 3 (Foreground)
//Storyboard Sound Samples
//Background Colour Transformations
3,100,0,0,0

[TimingPoints]
78381,358.851674641148,4,2,1,40,1,0
89767,358.851674641148,4,2,1,40,1,0
94387,358.851674641148,4,2,1,40,1,0
95508,358.851674641148,4,2,1,40,1,0
101249,358.851674641148,4,2,1,40,1,0
102639,358.851674641148,4,2,1,40,1,0
106900,358.851674641148,4,2,1,40,1,0
114086,-100,4,2,1,40,0,1
114535,-100,4,2,1,40,0,0
114625,-100,4,2,1,40,0,1
115073,-100,4,2,1,40,0,0
115163,-100,4,2,1,40,0,1
115522,-100,4,2,1,40,0,0
115611,-100,4,2,1,40,0,1
116060,-100,4,2,1,40,0,0
116150,-100,4,2,1,40,0,1
116688,-100,4,2,1,40,0,0
116778,-100,4,2,1,40,0,1
117226,-100,4,2,1,40,0,0
117316,-100,4,2,1,40,0,1
117765,-100,4,2,1,40,0,0
117854,-100,4,2,1,40,0,1
119290,-100,4,2,1,40,0,0

[Colours]
Combo1 : 0,0,255
Combo2 : 255,0,0
Combo3 : 128,0,255
Combo4 : 255,255,0
Combo5 : 0,128,0

[HitObjects]
48,48,63975,5,0
128,72,64154,5,0
192,128,64333,5,2
224,208,64513,5,0
128,224,64692,6,0,B|64:320,1,70
160,320,65051,6,0,B|216:360|288:320,1,70,2|0
296,240,65410,5,0
368,296,65589,5,0
400,216,65769,5,2
464,272,65948,5,0
480,192,66128,6,0,B|480:64,1,70
400,48,66486,6,0,B|344:72|320:128,1,70
248,112,66845,6,0,B|160:128,1,70,4|2
64,160,67204,5,0
112,232,67384,5,2
32,288,67563,6,0,B|64:352|96:320,1,70,0|2
200,272,67922,6,0,B|320:272,1,70,0|2
384,320,68281,6,0,B|416:256|384:160,2,140,0|2|0
296,296,69178,5,0
352,232,69357,5,2
440,232,69537,5,2
384,160,69716,6,2,B|224:160,2,140
440,80,70613,5,0
360,48,70793,5,2
280,80,70972,5,0
200,48,71152,5,0
120,80,71331,6,0,B|120:136,2,35,0|0|2
32,56,71690,5,0
40,144,71869,5,0
56,232,72049,5,2
144,216,72228,5,0
232,192,72408,5,2
176,120,72587,5,4
224,48,72766,6,0,B|400:48,1,140,2|0
288,128,73125,6,0,B|448:128,1,140,2|0
256,192,73484,6,0,B|416:192,1,140,2|0
352,256,73843,5,2
408,328,75278,5,0
440,248,75458,6,0,B|288:256,1,140,0|2
288,320,74022,6,2,B|96:320|96:128,3,280
192,320,75996,6,0,B|304:256|288:192,1,140,0|2
208,184,76534,5,0
176,104,76714,5,2
88,128,76893,6,0,B|32:240,1,70,0|2
120,208,77252,6,0,B|104:328,1,70,0|2
176,264,77611,6,0,B|216:376,1,70,0|2
256,288,77970,6,0,B|344:368,1,70,0|2
344,272,78329,5,4
416,336,78508,6,2,B|464:216|416:192,1,140
344,152,79046,5,4
320,64,79226,6,2,B|216:8|160:64,1,140
32,64,79764,6,2,B|0:160|128:160,1,140,4|2
112,224,80302,6,2,B|216:272|256:224,1,140,4|2
288,304,80841,5,2
232,232,81020,5,2
256,144,81199,5,4
184,96,81379,6,0,B|120:96,2,35,0|0|2
256,48,81738,5,0
328,96,81917,5,4
256,160,82097,6,0,B|256:224,2,35,0|0|2
328,96,82455,5,0
400,48,82635,5,4
472,96,82814,5,0
440,128,82904,5,0
408,160,82994,5,2
480,192,83173,6,0,B|456:304|384:320,1,140,4|0
256,288,83711,5,2
192,344,83891,5,2
256,240,84070,5,4
328,288,84250,6,0,B|392:288,2,35,0|0|2
256,336,84608,5,0
184,288,84788,5,4
256,224,84967,6,0,B|256:160,2,35,0|0|2
184,288,85326,5,0
112,336,85506,5,4
40,288,85685,5,0
72,256,85775,5,0
104,224,85864,5,2
32,192,86044,6,0,B|56:80|128:64,1,140,4|0
256,96,86582,5,2
320,40,86762,5,2
256,144,86896,5,4
176,80,87076,5,0
128,80,87165,5,0
64,80,87255,5,0
256,48,87434,5,0
328,96,87614,5,4
256,224,87793,5,0
256,288,87883,5,0
256,352,87973,5,0
328,96,88152,5,0
400,48,88332,5,4
472,96,88556,5,0
440,128,88646,5,0
408,160,88735,5,2
480,192,88870,6,0,B|456:304|432:304,1,122.5,4|0
256,336,89408,5,2
258,213,89588,5,2
256,128,89767,5,2
144,128,89946,5,0
104,240,90125,5,0
192,232,90305,6,0,B|240:200|312:224,2,70,2|0|2
104,240,90843,5,0
24,200,91022,5,2
96,152,91202,6,2,B|144:48|224:64,3,140
256,136,92458,5,0
336,96,92637,6,0,B|440:144,1,70,0|2
432,56,92996,6,2,B|360:144|384:192,1,140
432,304,93534,5,0
352,336,93714,5,0
264,312,93893,5,2
176,328,94073,6,0,B|64:336,1,70,0|2
40,296,94387,5,0
48,176,94566,5,0
72,56,94745,5,0
160,56,94925,5,2
120,136,95104,5,0
208,136,95284,5,2
248,56,95508,6,0,B|376:56,1,70,4|0
448,56,95866,6,0,B|456:128|416:128,1,70,0|2
336,152,96225,5,0
368,232,96405,6,0,B|424:288|480:232,2,70,2|0|2
352,320,96943,6,0,B|256:368|208:320,2,140,0|2|0
256,176,98019,5,2
256,176,98199,5,2
256,192,98378,6,0,B|296:80|352:96,1,140,0|2
429,71,98917,6,0,B|480:152|448:208,1,140,0|2
352,264,99455,5,0
384,184,99634,5,2
256,208,99814,12,4,100890
56,192,101249,5,0
56,192,101428,5,0
56,192,101607,6,0,B|128:288|176:224,1,140,4|0
260,197,102325,5,4
456,192,102639,5,0
456,192,102818,5,0
456,192,102997,6,0,B|384:272|336:208,1,140,4|0
252,197,103715,5,4
320,32,104074,6,0,B|208:80,1,70,0|2
136,48,104433,6,0,B|72:160,1,70,0|2
168,144,104792,5,0
224,64,104971,6,0,B|328:120|384:64,2,140,2|2|2
240,168,105868,5,0
240,168,106048,5,2
328,184,106227,6,0,B|448:200,1,70,0|2
328,184,106586,6,0,B|392:296,1,70
328,184,106900,6,0,B|248:288|192:256,1,140,4|2
48,272,107438,5,2
88,192,107617,6,0,B|216:192|256:272,1,192.5,4|2
320,128,108335,6,0,B|432:240|448:160,1,140,4|2
424,80,108874,5,2
328,120,109053,6,0,B|248:240|320:224,1,140,4|2
464,240,109591,5,0
392,296,109771,5,0
320,248,109950,5,2
248,296,110129,5,0
168,248,110309,5,0
96,320,110488,6,2,B|32:320|64:256,1,70
80,136,110847,6,2,B|256:128,1,140
256,56,111385,6,0,B|376:56,1,70
456,48,111744,6,2,B|456:128|416:160,1,105
352,184,112103,5,2
312,168,112193,5,2
272,144,112282,5,2
232,168,112372,5,2
192,192,112507,6,0,B|80:200,1,70,0|2
56,288,112865,6,0,B|192:320,1,70,0|2
240,264,113224,6,0,B|360:272,1,70,0|2
376,184,113583,6,0,B|448:192,1,70,0|2
488,184,113942,5,4
472,96,114122,5,0
424,88,114211,5,0
376,80,114301,5,2
384,0,114481,5,4
376,80,114660,5,0
336,88,114749,5,0
296,104,114839,5,2
280,192,115019,5,4
296,104,115198,5,0
248,104,115288,5,0
200,96,115378,5,2
200,8,115557,5,4
200,96,115736,5,0
160,104,115826,5,0
120,120,115916,5,2
40,88,116095,6,4,B|24:208,1,70,4|0
25,197,116454,6,4,B|40:336,1,70,4|0
120,344,116813,5,4
112,256,116948,5,0
152,272,117037,5,0
192,296,117172,5,2
192,208,117351,5,4
192,296,117486,5,0
232,280,117576,5,0
272,256,117710,5,2
256,208,117890,12,4,119325
