osu file format v5

[General]
AudioFilename: Final Destination (brawl).mp3
AudioLeadIn: 993
AudioHash: aaf321bbf824f785132fdaacb2e3a7a9
PreviewTime: -1
Countdown: 1
SampleSet: Normal
EditorBookmarks: 18194,28944,35494,73244

[Metadata]
Title:Final Destination (brawl)
Artist:
Creator:drayter
Version:Insane

[Difficulty]
HPDrainRate:5
CircleSize:5
OverallDifficulty:6
SliderMultiplier: 1
SliderTickRate: 2

[Events]
//Background and Video events
//Break Periods
2,39444,52394
2,64944,69644
2,87994,95294
//Storyboard Layer 0 (Background)
//Storyboard Layer 1 (Failing)
//Storyboard Layer 2 (Passing)
//Storyboard Layer 3 (Foreground)
//Storyboard Sound Samples
//Background Colour Transformations
3,100,255,0,0

[TimingPoints]
6744,400.000000000001,4,1,0,61

[Colours]
Combo1 : 255,173,0
Combo2 : 0,248,37
Combo3 : 51,93,255
Combo4 : 248,40,0

[HitObjects]
128,64,6744,1,0
64,128,7044,1,0
128,128,7194,1,0
192,128,7343,2,0,B|192:128|384:128,2,187.5
288,256,9494,2,0,B|288:256|192:256,1,87.5
128,256,9994,1,0
64,256,10144,2,0,B|64:256|64:128|64:64,2,187.5
160,64,12344,5,0
192,96,12494,1,0
224,64,12694,1,0
256,96,12844,1,0
288,64,13044,2,0,B|288:64|512:64|494:219|320:224,1,362.5
128,256,14844,1,0
128,224,14994,1,0
128,192,15194,2,0,B|128:192|128:32|224:32,1,200
278,32,16294,1,0
384,64,18094,1,0
320,128,18444,1,0
288,160,18644,1,0
256,192,18844,2,0,B|256:192|250:8|80:29|32:160|96:288,1,437.5
128,320,20994,5,0
160,288,21144,1,0
192,320,21344,1,0
224,288,21494,1,0
256,320,21694,2,0,B|256:320|480:320|480:64|224:32,1,500
256,192,24044,12,0,27644
160,128,28894,5,2
224,128,29194,1,0
224,128,29394,1,0
288,128,29544,1,0
288,128,29744,1,0
352,128,29944,1,0
352,128,30294,2,0,B|352:128|352:288|224:288|96:288|96:160,1,400
160,64,32494,5,0
192,96,32644,1,0
224,64,32844,1,0
256,96,32994,1,0
288,64,33194,2,0,B|288:64|440:105|472:147|397:271|64:96,1,525
128,64,35544,1,0
160,96,35694,1,0
192,64,35844,1,0
224,96,36044,2,0,B|224:96|62:87|28:253|153:335|320:320,1,462.5
320,256,38144,2,2,B|320:256|320:160,1,87.5
320,128,38694,1,0
288,64,38894,2,2,B|288:64|192:64,1,87.5
128,96,53294,5,2
192,96,53994,1,2
256,96,54294,1,2
320,96,54694,1,2
384,96,55094,1,2
384,96,55194,1,2
384,96,55294,1,2
384,160,55444,1,2
288,160,56144,5,2
224,160,56894,1,2
160,160,57244,1,2
160,96,57544,1,2
224,96,57894,1,2
224,96,57994,1,2
224,96,58094,1,2
288,96,58244,1,2
288,224,59044,5,2
288,160,59744,1,2
224,160,60044,1,2
224,224,60444,1,2
192,192,60794,1,2
256,192,61144,1,2
320,192,61494,1,2
256,192,61644,12,2,64744
64,64,70544,2,2,B|64:64|64:160|96:256|160:224|192:128|192:64|265:34|320:64|352:128|320:192|256:224|160:256|192:320|256:320|384:320|448:288,1,712.5
352,288,75544,1,4
288,288,75894,1,0
224,288,76044,1,0
160,288,76244,2,0,B|160:288|128:128,3,150
128,128,78444,5,0
160,96,78594,1,0
192,128,78744,1,0
224,96,78944,1,0
256,128,79094,2,0,B|256:128|416:128|416:288|96:256,1,412.5
128,64,81294,5,0
160,96,81444,1,0
192,64,81594,1,0
224,96,81794,1,0
256,64,81994,2,0,B|256:64|396:68|483:231|429:341|362:340|288:320,1,450
256,320,83944,1,0
192,320,84144,2,0,B|192:320|160:224,1,100
128,192,84694,1,0
192,160,84894,1,0
192,96,85194,2,4,B|192:96|448:96|448:192|448:320|384:320|64:320|192:160,1,650
96,64,96344,6,2,B|96:64|288:64,1,187.5
320,128,97444,1,2
256,128,97794,1,2
64,288,99244,6,2,B|64:288|21:116|478:114|416:320,1,525
64,32,102144,2,2,B|64:32|64:352|480:352|448:32,1,687.5
160,224,105644,1,0
192,224,105994,1,0
224,224,106344,1,0
352,128,107094,5,0
288,128,107444,1,0
288,128,107794,1,0
288,192,108194,1,0
224,192,108594,1,4
256,288,110044,2,6,B|256:288|256:96,1,187.5
256,192,111494,5,2
256,128,111794,1,2
256,32,112144,1,2
256,96,112494,1,2
256,160,112844,1,2
128,96,113594,6,6,B|128:96|320:96,1,187.5
384,96,114644,1,6
416,160,114994,2,6,B|416:160|224:160,1,187.5
128,192,116094,1,6
160,160,116444,1,6
192,256,117244,1,6
224,224,117544,1,6
256,192,117894,1,6
352,96,118644,5,6
320,128,118944,1,6
256,192,119294,6,6,B|256:192|224:192|192:160|224:128|288:128|352:160|352:192|352:224|320:256|288:256|224:256|192:256|160:224|128:192|128:160|128:128|160:96|224:64|256:64|288:64|352:96|416:128|416:192|416:224|416:256|384:288|320:288,1,775
