osu file format v9

[General]
AudioFilename: FictionJuntion YUUKA - Yorokobi, Joy.mp3
AudioLeadIn: 1500
PreviewTime: 56345
Countdown: 0
SampleSet: Normal
StackLeniency: 0.7
Mode: 0
LetterboxInBreaks: 1

[Editor]
Bookmarks: 31262,101574,117043,122668,142355,153605,198611,209855,254855
DistanceSpacing: 1.1
BeatDivisor: 4
GridSize: 8

[Metadata]
Title:Yorokobi
Artist:FictionJunction YUUKA
Creator:Lissette
Version:Hard
Source:
Tags:circus kajiura yuki rejoicing

[Difficulty]
HPDrainRate:6
CircleSize:4
OverallDifficulty:7
ApproachRate:7
SliderMultiplier:1.3
SliderTickRate:1

[Events]
//Background and Video events
0,0,"Night_Sky_by_Kirangelo.jpg"
//Break Periods
2,50955,55680
2,117248,121773
2,198811,208961
//Storyboard Layer 0 (Background)
//Storyboard Layer 1 (Fail)
//Storyboard Layer 2 (Pass)
//Storyboard Layer 3 (Foreground)
//Storyboard Sound Samples
//Background Colour Transformations
3,100,163,162,255

[TimingPoints]
330,468.75,3,2,1,50,1,0
5832,-100,3,1,1,30,0,0
6066,-100,3,2,1,50,0,0
8644,-100,3,1,1,30,0,0
8879,-100,3,2,1,50,0,0
10051,-100,3,1,0,30,0,0
11457,-100,3,2,1,50,0,0
12394,-100,3,1,1,30,0,0
13098,-100,3,2,1,50,0,0
13801,-100,3,1,1,30,0,0
14269,-100,3,2,1,50,0,0
15207,-100,3,1,1,30,0,0
15910,-100,3,2,1,50,0,0
16613,-100,3,1,1,30,0,0
17082,-100,3,2,1,50,0,0
18019,-100,3,1,1,30,0,0
18723,-100,3,2,1,50,0,0
19426,-100,3,1,1,30,0,0
19894,-100,3,2,1,50,0,0
20832,-100,3,1,1,30,0,0
21535,-100,3,2,1,50,0,0
22238,-100,3,1,1,30,0,0
22707,-100,3,2,1,50,0,0
23644,-100,3,1,1,30,0,0
24348,-100,3,2,1,50,0,0
25051,-100,3,1,1,30,0,0
25519,-100,3,2,1,50,0,0
26457,-100,3,1,1,30,0,0
27160,-100,3,2,1,50,0,0
28332,-100,3,1,1,30,0,0
28566,-100,3,2,1,50,0,0
29269,-100,3,1,1,30,0,0
29973,-100,3,2,1,50,0,0
30676,-100,3,1,0,30,0,0
31144,-100,3,2,1,50,0,0
31262,-90.9090909090909,3,2,0,50,0,0
31848,-90.9090909090909,3,1,0,30,0,0
32785,-90.9090909090909,3,2,1,50,0,0
34777,-90.9090909090909,3,1,1,30,0,0
35598,-90.9090909090909,3,2,1,50,0,0
36066,-90.9090909090909,3,1,1,30,0,0
36769,-90.9090909090909,3,2,1,50,0,0
37590,-90.9090909090909,3,1,1,30,0,0
38410,-90.9090909090909,3,2,1,50,0,0
38879,-90.9090909090909,3,1,1,30,0,0
39582,-90.9090909090909,3,2,1,50,0,0
40402,-90.9090909090909,3,1,1,30,0,0
41223,-90.9090909090909,3,2,1,50,0,0
41691,-90.9090909090909,3,1,1,30,0,0
42394,-90.9090909090909,3,2,1,50,0,0
43098,-90.9090909090909,3,1,1,30,0,0
44035,-90.9090909090909,3,2,1,50,0,0
44504,-90.9090909090909,3,1,1,30,0,0
45207,-90.9090909090909,3,2,1,50,0,0
45910,-90.9090909090909,3,1,1,30,0,0
46848,-90.9090909090909,3,2,1,50,0,0
47316,-90.9090909090909,3,1,1,30,0,0
48019,-90.9090909090909,3,2,1,50,0,0
56105,-83.3333333333333,3,1,0,60,0,0
56580,-83.3333333333333,3,1,0,60,0,1
56691,-83.3333333333333,3,2,0,70,0,1
57863,-83.3333333333333,3,1,0,60,0,1
58098,-83.3333333333333,3,2,0,70,0,1
59269,-83.3333333333333,3,1,0,60,0,1
59504,-83.3333333333333,3,2,0,70,0,1
60676,-83.3333333333333,3,1,0,60,0,1
60910,-83.3333333333333,3,2,0,70,0,1
62082,-83.3333333333333,3,1,0,60,0,1
62316,-83.3333333333333,3,2,0,70,0,1
63488,-83.3333333333333,3,1,0,60,0,1
63723,-83.3333333333333,3,2,0,70,0,1
64894,-83.3333333333333,3,2,0,40,0,1
65363,-83.3333333333333,3,2,0,50,0,1
65832,-83.3333333333333,3,2,0,60,0,1
66301,-83.3333333333333,3,1,0,50,0,1
66535,-83.3333333333333,3,1,0,40,0,1
66769,-83.3333333333333,3,2,0,70,0,1
69113,-83.3333333333333,3,1,0,60,0,1
69348,-83.3333333333333,3,2,0,70,0,1
71926,-83.3333333333333,3,1,0,60,0,1
72160,-83.3333333333333,3,2,0,70,0,1
73455,-83.3333333333333,3,2,0,70,0,0
77551,-83.3333333333333,3,1,0,60,0,0
77785,-83.3333333333333,3,2,0,70,0,0
78957,-83.3333333333333,3,2,1,70,0,0
79080,-83.3333333333333,3,2,1,70,0,1
79894,-83.3333333333333,3,2,0,70,0,1
80363,-83.3333333333333,3,1,0,60,0,1
80598,-83.3333333333333,3,2,0,70,0,1
81769,-83.3333333333333,3,2,1,70,0,1
82707,-83.3333333333333,3,2,0,70,0,1
83176,-83.3333333333333,3,1,0,60,0,1
83644,-83.3333333333333,3,2,0,70,0,1
84582,-83.3333333333333,3,2,1,70,0,1
85519,-83.3333333333333,3,2,0,70,0,1
85988,-83.3333333333333,3,1,0,60,0,1
86223,-83.3333333333333,3,2,0,70,0,1
87394,-83.3333333333333,3,2,1,70,0,1
88332,-83.3333333333333,3,2,0,70,0,1
88806,-83.3333333333333,3,1,0,60,0,1
89040,-83.3333333333333,3,2,0,70,0,1
90207,-83.3333333333333,3,2,1,70,0,1
91144,-83.3333333333333,3,2,0,70,0,1
91613,-83.3333333333333,3,1,0,60,0,1
91848,-83.3333333333333,3,2,0,70,0,1
93019,-83.3333333333333,3,2,1,70,0,1
93723,-83.3333333333333,3,2,0,70,0,1
94426,-83.3333333333333,3,1,0,60,0,1
94660,-83.3333333333333,3,2,0,70,0,1
95832,-83.3333333333333,3,2,1,70,0,1
95955,-83.3333333333333,3,2,1,70,0,0
96535,-83.3333333333333,3,2,0,70,0,0
97238,-83.3333333333333,3,1,0,60,0,0
97473,-83.3333333333333,3,2,0,70,0,0
98644,-83.3333333333333,3,2,1,70,0,0
99348,-83.3333333333333,3,2,0,70,0,0
100051,-83.3333333333333,3,1,0,60,0,0
100285,-83.3333333333333,3,2,0,70,0,0
101457,-83.3333333333333,3,2,0,70,0,0
101574,-100,3,1,2,40,0,0
101691,-100,3,2,2,50,0,0
102160,-100,3,1,2,40,0,0
102394,-100,3,2,2,50,0,0
102863,-100,3,1,2,40,0,0
103098,-100,3,2,2,50,0,0
103566,-100,3,1,2,40,0,0
103801,-100,3,2,2,50,0,0
104269,-100,3,1,2,40,0,0
104504,-100,3,2,2,50,0,0
104973,-100,3,1,2,40,0,0
105207,-100,3,2,2,50,0,0
105793,-100,3,1,2,40,0,0
105910,-100,3,2,2,50,0,0
106379,-100,3,1,2,40,0,0
106613,-100,3,2,2,50,0,0
107082,-100,3,1,2,40,0,0
107316,-100,3,2,2,50,0,0
107785,-100,3,1,2,40,0,0
108019,-100,3,2,2,50,0,0
108488,-100,3,1,2,40,0,0
108723,-100,3,2,2,50,0,0
109191,-100,3,1,2,40,0,0
109426,-100,3,2,2,50,0,0
109894,-100,3,1,2,40,0,0
110129,-100,3,2,2,50,0,0
110598,-100,3,1,2,40,0,0
110832,-100,3,2,2,50,0,0
111301,-100,3,1,2,40,0,0
111535,-100,3,2,2,50,0,0
112004,-100,3,1,2,40,0,0
112238,-100,3,2,2,50,0,0
112824,-100,3,1,2,40,0,0
112941,-100,3,2,2,50,0,0
115642,-100,3,2,2,50,0,0
116926,-100,3,2,1,40,0,0
117512,-100,3,2,0,50,0,0
121262,-90.9090909090909,3,2,1,50,0,0
123254,-90.9090909090909,3,1,1,30,0,0
124191,-90.9090909090909,3,2,1,50,0,0
124894,-90.9090909090909,3,1,1,30,0,0
125363,-90.9090909090909,3,2,1,50,0,0
126066,-90.9090909090909,3,1,1,30,0,0
127004,-90.9090909090909,3,2,1,50,0,0
127707,-90.9090909090909,3,1,1,30,0,0
128176,-90.9090909090909,3,2,1,50,0,0
128996,-90.9090909090909,3,1,1,30,0,0
129816,-90.9090909090909,3,2,1,50,0,0
130519,-90.9090909090909,3,1,1,30,0,0
130988,-90.9090909090909,3,2,1,70,0,0
131223,-90.9090909090909,3,2,1,50,0,0
131691,-90.9090909090909,3,1,1,30,0,0
132629,-90.9090909090909,3,2,1,50,0,0
133332,-90.9090909090909,3,1,1,30,0,0
133801,-90.9090909090909,3,2,1,50,0,0
134504,-90.9090909090909,3,1,1,30,0,0
136613,-90.9090909090909,3,2,1,50,0,0
137316,-90.9090909090909,3,1,1,30,0,0
138254,-90.9090909090909,3,2,1,50,0,0
138723,-90.9090909090909,3,1,1,30,0,0
139426,-90.9090909090909,3,2,1,50,0,0
142238,-90.9090909090909,3,2,2,50,0,0
147863,-90.9090909090909,3,1,2,30,0,0
148566,-90.9090909090909,3,2,2,50,0,0
149269,-90.9090909090909,3,1,2,30,0,0
149504,-90.9090909090909,3,2,2,50,0,0
149973,-90.9090909090909,3,1,2,30,0,0
150207,-90.9090909090909,3,2,2,50,0,0
150441,-90.9090909090909,3,1,2,30,0,0
150910,-90.9090909090909,3,2,2,50,0,0
151144,-90.9090909090909,3,1,2,30,0,0
151613,-90.9090909090909,3,2,2,50,0,0
152316,-90.9090909090909,3,1,2,50,0,0
152673,-90.9090909090909,3,2,2,50,0,0
152785,-90.9090909090909,3,1,0,30,0,0
153605,-90.9090909090909,3,2,0,50,0,0
154894,-90.9090909090909,3,1,0,40,0,0
155129,-90.9090909090909,3,2,0,50,0,0
156301,-90.9090909090909,3,1,0,30,0,0
156535,-90.9090909090909,3,2,0,50,0,0
157004,-90.9090909090909,3,1,0,30,0,0
157238,-90.9090909090909,3,2,0,50,0,0
157707,-90.9090909090909,3,1,0,40,0,0
157941,-90.9090909090909,3,2,0,50,0,0
159113,-90.9090909090909,3,1,0,30,0,0
159348,-90.9090909090909,3,2,0,50,0,0
160519,-90.9090909090909,3,1,0,40,0,0
160754,-90.9090909090909,3,2,0,50,0,0
161926,-90.9090909090909,3,1,0,30,0,0
162160,-90.9090909090909,3,2,0,50,0,0
162629,-90.9090909090909,3,1,0,40,0,0
162863,-90.9090909090909,3,2,0,50,0,0
163332,-90.9090909090909,3,1,0,40,0,0
163566,-90.9090909090909,3,2,0,50,0,0
163918,-90.9090909090909,3,1,0,30,0,0
164035,-90.9090909090909,3,2,0,50,0,0
164269,-90.9090909090909,3,1,0,40,0,0
164504,-90.9090909090909,3,2,0,50,0,0
164738,-90.9090909090909,3,1,0,40,0,0
164973,-90.9090909090909,3,2,0,50,0,0
166144,-90.9090909090909,3,1,0,40,0,0
166379,-90.9090909090909,3,2,0,50,0,0
167551,-90.9090909090909,3,1,0,30,0,0
167785,-90.9090909090909,3,2,0,50,0,0
168957,-90.9090909090909,3,1,0,40,0,0
169191,-90.9090909090909,3,2,0,50,0,0
171769,-90.9090909090909,3,1,0,30,0,0
172004,-90.9090909090909,3,2,0,50,0,0
173176,-90.9090909090909,3,1,0,30,0,0
173410,-90.9090909090909,3,2,0,50,0,0
174582,-90.9090909090909,3,1,0,40,0,0
174816,-90.9090909090909,3,1,0,30,0,0
175759,-90.9090909090909,3,2,0,50,0,0
175988,-90.9090909090909,3,1,0,30,0,0
176223,-90.9090909090909,3,2,0,50,0,0
177394,-90.9090909090909,3,1,0,40,0,0
177629,-90.9090909090909,3,2,0,50,0,0
178801,-90.9090909090909,3,1,0,30,0,0
179035,-90.9090909090909,3,2,0,50,0,0
179504,-90.9090909090909,3,1,0,40,0,0
179973,-90.9090909090909,3,1,0,30,0,0
180207,-90.9090909090909,3,1,0,40,0,0
180441,-90.9090909090909,3,2,0,50,0,0
181613,-90.9090909090909,3,1,0,40,0,0
181848,-90.9090909090909,3,2,0,50,0,0
183019,-90.9090909090909,3,1,0,30,0,0
183254,-90.9090909090909,3,2,0,50,0,0
184426,-90.9090909090909,3,1,0,30,0,0
184660,-90.9090909090909,3,2,0,50,0,0
185832,-90.9090909090909,3,1,0,40,0,0
186066,-90.9090909090909,3,1,0,30,0,0
186306,-90.9090909090909,3,2,0,50,0,0
187238,-90.9090909090909,3,1,0,30,0,0
187473,-90.9090909090909,3,2,0,50,0,0
188644,-90.9090909090909,3,1,0,40,0,0
188879,-90.9090909090909,3,2,0,50,0,0
191457,-90.9090909090909,3,1,0,40,0,0
191691,-90.9090909090909,3,2,0,50,0,0
192863,-90.9090909090909,3,1,0,30,0,0
193098,-90.9090909090909,3,2,0,50,0,0
194269,-90.9090909090909,3,1,0,40,0,0
194504,-90.9090909090909,3,2,0,50,0,0
195676,-90.9090909090909,3,1,0,30,0,0
195910,-90.9090909090909,3,2,0,50,0,0
197082,-90.9090909090909,3,1,0,40,0,0
197316,-90.9090909090909,3,2,0,50,0,0
198494,-90.9090909090909,3,2,0,20,0,0
198728,-90.9090909090909,3,2,0,50,0,0
209387,-83.3333333333333,3,1,0,60,0,0
209861,-83.3333333333333,3,1,0,60,0,1
209973,-83.3333333333333,3,2,0,50,0,1
211144,-83.3333333333333,3,1,0,60,0,1
211379,-83.3333333333333,3,2,0,50,0,1
212551,-83.3333333333333,3,1,0,40,0,1
212785,-83.3333333333333,3,2,0,50,0,1
213957,-83.3333333333333,3,1,0,60,0,1
214191,-83.3333333333333,3,2,0,50,0,1
215363,-83.3333333333333,3,1,0,40,0,1
215598,-83.3333333333333,3,2,0,50,0,1
216769,-83.3333333333333,3,1,0,60,0,1
217004,-83.3333333333333,3,2,0,50,0,1
218176,-83.3333333333333,3,1,0,40,0,1
218410,-83.3333333333333,3,2,0,50,0,1
219582,-83.3333333333333,3,1,0,60,0,1
219816,-83.3333333333333,3,2,0,50,0,1
220051,-83.3333333333333,3,1,0,50,0,1
220285,-83.3333333333333,3,2,0,50,0,1
220988,-83.3333333333333,3,1,0,40,0,1
221223,-83.3333333333333,3,2,0,50,0,1
222394,-83.3333333333333,3,1,0,60,0,1
222629,-83.3333333333333,3,2,0,50,0,1
223801,-83.3333333333333,3,1,0,40,0,1
224035,-83.3333333333333,3,2,0,50,0,1
224504,-83.3333333333333,3,1,0,40,0,1
224738,-83.3333333333333,3,2,0,50,0,1
225207,-83.3333333333333,3,1,0,60,0,1
225441,-83.3333333333333,3,2,0,50,0,1
226613,-83.3333333333333,3,1,0,40,0,1
226736,-83.3333333333333,3,1,0,40,0,0
226848,-83.3333333333333,3,2,0,50,0,0
228019,-83.3333333333333,3,1,0,60,0,0
228254,-83.3333333333333,3,2,0,50,0,0
229426,-83.3333333333333,3,1,0,40,0,0
229660,-83.3333333333333,3,2,0,50,0,0
230832,-83.3333333333333,3,1,0,60,0,0
231066,-83.3333333333333,3,1,0,40,0,0
232004,-83.3333333333333,3,2,0,50,0,0
232238,-83.3333333333333,3,2,1,50,0,0
232361,-83.3333333333333,3,2,1,50,0,1
232941,-83.3333333333333,3,1,0,40,0,1
233181,-83.3333333333333,3,2,0,50,0,1
233644,-83.3333333333333,3,1,0,60,0,1
233879,-83.3333333333333,3,2,0,50,0,1
235051,-83.3333333333333,3,2,1,50,0,1
235754,-83.3333333333333,3,1,0,60,0,1
235988,-83.3333333333333,3,2,0,50,0,1
236457,-83.3333333333333,3,1,0,40,0,1
236691,-83.3333333333333,3,2,0,50,0,1
237863,-83.3333333333333,3,2,1,50,0,1
238566,-83.3333333333333,3,1,0,40,0,1
238806,-83.3333333333333,3,2,0,60,0,1
239275,-83.3333333333333,3,1,0,60,0,1
239504,-83.3333333333333,3,2,0,50,0,1
240676,-83.3333333333333,3,2,1,50,0,1
241379,-83.3333333333333,3,1,0,40,0,1
241619,-83.3333333333333,3,2,0,50,0,1
242082,-83.3333333333333,3,1,0,60,0,1
242551,-83.3333333333333,3,2,0,50,0,1
243488,-83.3333333333333,3,2,1,50,0,1
244191,-83.3333333333333,3,1,0,40,0,1
244431,-83.3333333333333,3,2,0,50,0,1
244894,-83.3333333333333,3,1,0,60,0,1
245129,-83.3333333333333,3,2,0,50,0,1
246301,-83.3333333333333,3,2,1,50,0,1
247004,-83.3333333333333,3,1,0,40,0,1
247238,-83.3333333333333,3,2,0,50,0,1
247707,-83.3333333333333,3,1,0,60,0,1
247941,-83.3333333333333,3,2,0,50,0,1
249113,-83.3333333333333,3,2,1,50,0,1
249236,-83.3333333333333,3,2,1,50,0,0
249816,-83.3333333333333,3,2,0,50,0,0
250519,-83.3333333333333,3,1,0,60,0,0
250754,-83.3333333333333,3,2,0,50,0,0
251926,-83.3333333333333,3,2,1,50,0,0
252629,-83.3333333333333,3,2,0,50,0,0
253332,-83.3333333333333,3,1,0,60,0,0
253566,-83.3333333333333,3,2,0,50,0,0
253923,-83.3333333333333,3,2,0,50,0,0
254861,-83.3333333333333,3,2,1,40,0,0

[Colours]
Combo1 : 149,149,255
Combo2 : 255,155,205
Combo3 : 138,197,255
Combo4 : 255,255,255
Combo5 : 128,255,191

[HitObjects]
80,128,330,2,0,B|48:56|112:0,1,130,2|0
432,168,1736,2,0,B|464:96|400:40,1,130
80,256,3142,2,0,B|48:184|112:128,1,130,2|0
432,320,4548,2,0,B|464:248|400:192,1,130
136,56,5955,6,0,B|120:128,1,65,2|0
40,128,6423,2,0,B|16:200,1,65,0|0
40,224,6775,2,0,B|32:320|152:344,1,162.5,0|2
408,40,8767,6,0,B|408:120,1,65
496,112,9236,2,0,B|496:184,1,65
464,208,9587,2,0,B|496:264|440:320,1,97.5
336,272,10173,6,0,B|336:224,5,32.5
224,240,10994,1,0
104,208,11228,2,0,B|104:248,2,32.5
104,208,11580,6,0,B|32:104|128:32,1,195,2|0
184,88,12517,2,0,B|240:24,1,65
272,112,12986,2,0,B|272:184|368:200,2,130
360,112,14158,1,0
432,160,14392,6,0,B|496:216|432:288,1,130,2|0
376,224,15095,2,0,B|304:224,1,65
232,248,15564,1,0
288,312,15798,2,0,B|232:360|160:304,2,130
232,248,16970,1,0
152,232,17205,6,0,B|32:224|40:96,1,195,2|0
120,112,18142,2,0,B|160:40,1,65
208,120,18611,2,0,B|272:72|328:128,2,130
264,184,19783,1,0
344,208,20017,6,0,B|416:256|472:192,1,130,2|0
400,144,20720,2,0,B|368:80,1,65
304,136,21189,1,0
288,56,21423,2,0,B|224:0|168:64,2,130
232,120,22595,1,0
152,136,22830,6,0,B|72:144|64:64,2,130,2|0|0
360,248,24236,2,0,B|440:240|448:320,2,130
360,336,25408,1,0
288,296,25642,6,0,B|168:272|184:144,1,195,2|0
264,192,26580,2,0,B|288:112,1,65
368,144,27048,2,0,B|376:64|288:40,2,130
464,288,28455,5,2
376,296,28923,1,0
288,304,29392,1,0
208,312,29861,1,0
128,320,30330,1,0
64,168,30798,6,0,B|64:208,3,32.5
64,168,31267,6,0,B|88:88|192:104,1,142.999995738268,2|0
152,176,31970,2,0,B|176:256,1,71.499997869134
256,232,32439,1,0
248,152,32673,2,0,B|304:128|360:168|352:240,2,142.999995738268
264,240,33845,1,0
176,216,34080,6,0,B|88:216|40:144|56:56,1,214.499993607402,2|0
136,48,35017,2,0,B|176:128,1,71.499997869134
240,64,35486,2,0,B|272:24|336:24|368:72,1,142.999995738268
304,128,36189,2,0,B|224:160,1,71.499997869134
216,240,36658,1,0
296,272,36892,6,0,B|432:280|440:144,1,214.499993607402,2|0
368,112,37830,2,0,B|344:32,1,71.499997869134
272,88,38298,2,0,B|240:40|176:40|144:104,2,142.999995738268
216,152,39470,1,0
296,168,39705,6,0,B|384:160|440:224|424:328,1,214.499993607402,2|0
344,280,40642,2,0,B|272:320,1,71.499997869134
248,240,41111,2,0,B|161:216|183:132,1,142.999995738268
264,160,41814,1,0
344,192,42048,2,0,B|368:104,1,71.499997869134
296,72,42517,6,0,B|236:30|144:32|88:72,1,214.499993607402,2|0
152,128,43455,1,0
96,192,43689,1,0
40,256,43923,2,0,B|88:312|192:312|256:248,1,214.499993607402
232,176,44861,2,0,B|312:208,1,71.499997869134
328,288,45330,6,0,B|454:265|430:129,1,214.499993607402,2|0
352,160,46267,2,0,B|288:104,1,71.499997869134
240,176,46736,2,0,B|176:184|144:136|168:80,2,142.999995738268
272,96,47908,1,0
312,16,48142,5,2
368,88,48611,1,0
416,160,49080,1,0
464,232,49548,1,0
512,296,50017,1,0
416,304,56580,6,0,B|464:216|392:160,2,156.00000371933,4|0|2
352,248,57751,1,0
312,168,57986,2,0,B|208:168|208:40,2,156.00000371933,0|0|2
304,80,59158,1,0
392,192,59392,6,0,B|448:224|440:304|376:328,1,156.00000371933
128,288,60330,2,0,B|72:256|80:176|144:152,2,156.00000371933,2|0|0
208,248,61501,2,0,B|256:320,2,78.000001859665,0|2|0
232,88,62205,6,0,B|288:16|392:48,2,156.00000371933,4|0|0
280,168,63376,1,0
368,192,63611,2,0,B|376:280|480:280,2,156.00000371933,0|0|0
456,192,64783,1,0
368,32,65017,5,0
208,96,65486,1,2
48,160,65955,1,2
0,336,66423,5,0
80,304,66658,1,0
160,336,66892,1,0
240,304,67126,1,0
312,344,67361,1,2
416,280,67595,6,0,B|528:280,2,78.000001859665,2|2|2
352,216,68298,2,0,B|256:216|256:104,1,156.00000371933,0|2
320,56,69001,1,0
240,32,69236,2,0,B|136:32|136:144,2,156.00000371933,0|0|2
232,120,70408,1,0
120,224,70642,6,0,B|192:272,1,78.000001859665
112,328,71111,2,0,B|184:384|264:320,1,156.00000371933,0|2
328,272,71814,1,0
384,208,72048,2,0,B|439:279|377:349,2,156.00000371933,4|2|2
304,168,73220,1,0
216,304,73455,6,0,B|160:224|224:152,2,156.00000371933,0|0|2
464,208,74861,2,0,B|520:288|456:360,2,156.00000371933,0|0|2
64,168,76267,2,0,B|9:90|66:26,2,156.00000371933,2|0|0
232,128,77673,6,0,B|232:40,1,78.000001859665
328,128,78142,2,0,B|344:24,1,78.000001859665,0|0
416,160,78611,2,0,B|464:80,1,78.000001859665,0|0
400,256,79080,6,0,B|312:256,1,78.000001859665,2|0
280,328,79548,2,0,B|368:328,1,78.000001859665,2|0
448,328,80017,1,2
488,256,80251,1,0
488,168,80486,2,0,B|416:120|336:168,2,156.00000371933,4|0|2
248,40,81892,6,0,B|168:40,1,78.000001859665,2|0
216,120,82361,2,2,B|296:120,1,78.000001859665,2|0
368,64,82830,2,0,B|440:104|408:200,1,156.00000371933,2|0
352,264,83533,1,0
272,240,83767,1,0
192,280,84001,1,0
112,248,84236,1,2
40,296,84470,1,0
96,144,84705,6,2,B|8:144,1,78.000001859665,2|0
48,64,85173,2,0,B|136:64,1,78.000001859665,2|0
184,128,85642,2,0,B|240:208|168:280,1,156.00000371933,2|0
328,192,86580,2,0,B|272:112|344:40,1,156.00000371933,0|2
504,128,87517,5,2
472,320,87986,1,2
504,128,88455,1,2
472,320,88923,5,0
384,296,89158,1,0
296,320,89392,1,0
208,296,89626,1,0
120,320,89861,1,2
32,296,90095,1,0
32,184,90330,6,0,B|32:96,1,78.000001859665,2|0
112,80,90798,2,0,B|112:160,1,78.000001859665,2|0
120,248,91267,2,0,B|200:296|272:240,1,156.00000371933,2|4
320,56,92205,2,0,B|400:8|472:64,1,156.00000371933,2|2
424,200,92908,6,0,B|512:200,2,78.000001859665,0|2|0
392,280,93611,2,0,B|312:320|232:272,1,156.00000371933,2|2
192,56,94548,2,0,B|112:16|32:64,2,156.00000371933,4|0|0
192,56,95720,1,0
312,200,95955,6,0,B|336:280|304:360,1,156.00000371933,2|2
306,353,96892,1,0
192,200,97361,2,0,B|168:280|200:360,1,156.00000371933,0|2
197,353,98298,1,0
392,144,98767,6,0,B|416:224|384:304,1,156.00000371933,2|2
386,297,99705,1,0
120,144,100173,2,0,B|96:224|128:304,1,156.00000371933
125,297,101111,1,0
104,40,101580,5,0
168,80,101814,1,2
104,120,102048,1,2
104,200,102283,1,0
40,248,102517,1,2
104,288,102751,1,2
104,288,102986,5,0
168,248,103220,2,0,B|224:248,2,32.5,2|0|2
192,176,103689,1,0
192,320,103923,1,2
192,176,104158,1,2
192,320,104392,5,0
248,264,104626,2,0,B|288:264,2,32.5,2|0|2
264,192,105095,1,0
264,336,105330,1,2
320,288,105564,6,0,B|368:288,2,32.5,2|0|0
344,216,106033,1,2
344,360,106267,1,2
344,216,106501,1,0
344,360,106736,1,2
344,216,106970,1,2
392,160,107205,5,0
344,104,107439,1,2
288,160,107673,1,2
208,160,107908,1,0
152,216,108142,1,2
96,160,108376,1,2
152,104,108611,5,0
232,104,108845,2,0,B|232:56,2,32.5,2|0|2
152,104,109314,1,0
304,96,109548,1,2
152,104,109783,1,2
200,168,110017,5,0
280,168,110251,1,2
240,232,110486,1,2
320,232,110720,2,0,B|376:232,2,32.5,0|0|2
424,120,111423,5,0
368,64,111658,1,2
296,40,111892,1,2
216,40,112126,1,0
144,64,112361,1,2
144,64,112478,1,0
144,64,112595,1,2
144,64,112712,1,0
144,64,112830,5,0
72,120,113064,1,2
144,168,113298,1,0
72,224,113533,1,2
144,272,113767,1,0
72,320,114001,1,2
144,368,114236,5,2
144,368,114705,1,2
256,176,115173,1,2
352,296,115642,6,0,B|384:224,1,65,4|2
448,264,116111,2,0,B|480:192,1,65,0|2
424,144,116580,2,0,B|456:72,2,65,0|2|2
48,112,122673,6,0,B|80:40|208:40|232:136,1,214.499993607402,2|0
152,160,123611,2,0,B|216:216,1,71.499997869134
288,184,124080,2,0,B|312:256|440:256|464:176,1,214.499993607402
504,112,125017,1,0
416,112,125251,1,0
360,48,125486,6,0,B|273:40|265:128,1,142.999995738268,2|0
320,192,126189,2,0,B|240:232,1,71.499997869134
192,168,126658,1,0
176,248,126892,2,0,B|96:296|48:216,1,142.999995738268,0|0
88,144,127595,2,0,B|24:88,2,71.499997869134
152,88,128298,6,0,B|216:56|320:112|296:208,1,214.499993607402,2|0
216,216,129236,2,0,B|248:288,1,71.499997869134
328,272,129705,2,0,B|416:312|456:232,1,142.999995738268
376,200,130408,1,0
408,120,130642,2,0,B|336:104,1,71.499997869134
256,80,131111,6,0,B|280:160|184:240|96:192,1,214.499993607402,2|0
152,120,132048,2,0,B|80:88,1,71.499997869134
40,168,132517,2,0,B|24:264|112:296,1,142.999995738268
176,264,133220,1,0
192,344,133455,2,0,B|272:344,1,71.499997869134
272,256,133923,6,0,B|240:160|352:136,1,142.999995738268,2|0
392,88,134626,1,0
408,176,134861,1,0
472,120,135095,1,0
488,208,135330,2,0,B|544:272|488:384|392:368,1,214.499993607402
392,288,136267,2,0,B|312:256,1,71.499997869134
336,176,136736,6,0,B|264:128|192:184,1,142.999995738268,2|0
248,248,137439,1,0
288,320,137673,1,0
200,320,137908,1,0
152,248,138142,2,0,B|72:304|0:232,1,142.999995738268
88,192,138845,2,0,B|128:128,1,71.499997869134
56,80,139314,1,0
136,24,139548,5,2
224,32,140017,1,0
312,40,140486,1,0
400,48,140955,1,0
488,56,141423,1,0
368,344,142361,5,2
368,344,142595,1,0
368,344,142830,1,2
368,256,143064,2,0,B|368:200,1,35.749998934567,0|2
280,232,143415,2,0,B|280:184,1,35.749998934567,0|2
224,128,143767,2,0,B|144:128,1,71.499997869134,0|2
120,48,144236,2,0,B|208:48,3,71.499997869134,0|2|0|2
280,48,145173,5,2
280,48,145408,1,0
280,48,145642,1,2
256,128,145876,2,0,B|256:184,1,35.749998934567,0|2
336,184,146228,2,0,B|336:232,1,35.749998934567,0|2
280,280,146580,2,0,B|192:280,1,71.499997869134,0|2
120,280,147048,1,2
48,232,147283,2,0,B|48:184,1,35.749998934567,0|2
128,176,147634,2,0,B|128:128,1,35.749998934567,0|2
152,56,147986,6,0,B|200:56,3,35.749998934567
200,56,148455,2,0,B|288:56,1,71.499997869134
280,56,148806,2,0,B|384:56,1,71.499997869134,2|0
360,56,149158,1,2
440,88,149392,6,0,B|440:168,1,71.499997869134,0|0
368,200,149861,1,0
440,240,150095,2,0,B|440:320,1,71.499997869134,0|0
360,336,150564,6,0,B|320:336,1,35.749998934567
312,336,150798,2,0,B|240:336,1,71.499997869134
272,256,151267,2,0,B|216:256,1,35.749998934567
224,256,151501,2,0,B|136:256,1,71.499997869134
192,176,151970,2,0,B|144:176,1,35.749998934567
144,176,152205,2,0,B|64:176,2,71.499997869134,0|4|0
136,88,152908,5,0
144,88,153025,1,0
152,88,153142,1,0
160,88,153259,1,0
168,88,153376,1,0
176,88,153494,1,0
184,88,153611,6,0,B|248:32,1,71.499997869134,4|2
320,64,154080,1,2
328,152,154314,2,0,B|376:176,2,35.749998934567,2|0|2
240,168,154783,1,2
288,240,155017,2,0,B|192:264,1,71.499997869134,4|2
218,257,155369,1,2
218,257,155486,1,2
144,296,155720,1,2
72,248,155955,1,2
144,296,156189,1,2
72,248,156423,6,0,B|136:192,1,71.499997869134
64,144,156892,2,0,B|120:96,1,71.499997869134,2|0
224,32,157361,6,0,B|312:32|344:120,1,142.999995738268,2|4
296,176,158064,2,0,B|240:152,2,35.749998934567,2|0|2
384,176,158533,1,2
336,248,158767,1,2
424,248,159001,1,2
248,248,159236,5,0
200,320,159470,2,0,B|224:376,2,35.749998934567,2|0|2
112,304,159939,1,2
48,248,160173,1,2
112,304,160408,1,2
48,248,160642,6,0,B|-16:208|16:112,1,142.999995738268,4|2
88,168,161345,1,0
128,88,161580,1,2
216,104,161814,1,0
280,48,162048,2,0,B|336:-16|416:32,1,142.999995738268
352,96,162751,1,4
432,136,162986,5,2
344,200,163220,1,0
440,248,163455,1,0
360,312,163689,2,0,B|328:336,2,35.749998934567
440,248,164158,1,2
344,200,164392,1,0
432,136,164626,1,2
336,64,164861,6,0,B|264:16|184:72,1,142.999995738268,4|2
224,144,165564,1,0
136,152,165798,1,2
120,64,166033,1,0
16,120,166267,6,0,B|16:192,1,71.499997869134,4|2
16,191,166619,1,0
16,191,166736,1,2
88,240,166970,1,2
16,288,167205,1,2
88,240,167439,1,2
104,328,167673,6,0,B|184:352|256:320,1,142.999995738268,0|2
232,240,168376,1,0
304,280,168611,2,0,B|360:344,1,71.499997869134,2|0
400,264,169080,2,0,B|416:192,1,71.499997869134,4|2
415,194,169431,1,0
415,194,169548,1,0
392,112,169783,5,2
296,64,170017,1,2
192,104,170251,1,2
96,64,170486,1,2
48,320,170955,6,0,B|8:240|80:176,2,142.999995738268,2|2|4
256,72,172361,2,0,B|296:152|224:216,1,142.999995738268,2|2
176,136,173064,1,0
256,72,173298,5,0
320,128,173533,1,0
408,128,173767,2,0,B|496:144|496:248,1,142.999995738268,2|2
264,192,174705,5,4
176,216,174939,2,0,B|184:272,2,35.749998934567
80,224,175408,2,0,B|72:160,2,35.749998934567
16,288,175876,1,0
144,352,176111,5,4
216,312,176345,2,0,B|264:336,2,35.749998934567,2|0|2
248,232,176814,1,2
208,152,177048,1,2
128,128,177283,1,2
144,40,177517,6,4,B|224:24,1,71.499997869134,4|2
214,25,177869,1,0
214,25,177986,1,2
296,32,178220,1,2
288,120,178455,1,2
368,88,178689,1,2
424,152,178923,6,0,B|488:208|440:296,1,142.999995738268,0|2
376,240,179626,2,0,B|296:256,1,71.499997869134,0|0
272,336,180095,2,0,B|192:352,1,71.499997869134,0|0
120,336,180564,1,0
160,264,180798,1,2
88,216,181033,1,0
152,160,181267,1,2
80,112,181501,1,0
184,24,181736,5,4
256,72,181970,2,0,B|312:64,2,35.749998934567,2|0|2
184,24,182439,1,2
256,72,182673,1,2
184,24,182908,1,2
136,136,183142,6,0,B|72:216,1,71.499997869134,0|2
91,191,183494,1,0
91,191,183611,1,2
64,272,183845,1,2
120,336,184080,1,2
208,344,184314,1,2
320,296,184548,6,0,B|376:240|344:152,1,142.999995738268,0|2
272,200,185251,1,0
280,112,185486,1,2
40,192,185955,5,0
8,112,186189,1,0
88,80,186423,1,2
128,160,186658,1,0
168,240,186892,1,2
248,208,187126,1,0
216,128,187361,5,4
296,104,187595,2,0,B|344:88,2,35.749998934567,2|0|2
216,128,188064,1,2
296,104,188298,1,2
216,128,188533,1,2
320,232,188767,6,0,B|416:232|416:336,1,142.999995738268,4|2
328,336,189470,1,0
256,296,189705,1,2
184,336,189939,1,0
120,280,190173,6,0,B|120:184|24:184,2,142.999995738268,0|2|2
184,336,191345,1,0
304,304,191580,6,0,B|320:216,1,71.499997869134,4|0
384,288,192048,2,0,B|400:200,1,71.499997869134,2|0
464,272,192517,2,0,B|480:184,1,71.499997869134,2|0
376,128,192986,5,0
288,144,193220,2,0,B|248:120,2,35.749998934567,2|0|2
376,128,193689,1,2
288,144,193923,1,2
376,128,194158,1,2
344,208,194392,5,4
248,352,194861,1,2
216,272,195095,1,0
256,200,195330,1,2
208,128,195564,1,0
160,56,195798,6,0,B|96:8|24:56,2,142.999995738268,0|2|2
376,184,197205,2,0,B|440:232|512:184,2,142.999995738268,4|2|2
104,328,198611,1,0
144,240,209861,6,0,B|144:344|264:360,2,156.00000371933,0|0|2
240,256,211033,1,0
208,168,211267,2,0,B|248:72|144:40,2,156.00000371933,0|0|2
120,128,212439,1,0
128,224,212673,6,0,B|16:224|48:360,2,156.00000371933,0|0|2
192,288,213845,1,0
224,200,214080,2,0,B|328:192|320:80,1,156.00000371933
400,48,214783,1,0
472,104,215017,1,2
400,168,215251,1,0
256,312,215486,6,0,B|184:376|112:312,2,156.00000371933,0|0|2
184,256,216658,1,0
272,216,216892,2,0,B|232:112|352:80,2,156.00000371933,0|0|2
352,168,218064,1,0
432,216,218298,5,0
304,352,218767,1,0
120,344,219236,1,2
32,176,219705,5,0
96,112,219939,1,0
168,176,220173,1,0
240,112,220408,1,0
312,176,220642,1,2
384,112,220876,1,0
456,176,221111,6,0,B|496:256,1,78.000001859665,4|0
400,256,221580,2,0,B|376:352|256:328,2,156.00000371933,0|2|4
112,128,222986,2,0,B|136:32|256:56,1,156.00000371933,0|2
280,128,223689,6,0,B|352:208,1,78.000001859665
272,256,224158,2,0,B|200:176,1,78.000001859665
192,112,224626,1,0
240,32,224861,1,2
144,32,225095,1,0
104,112,225330,2,0,B|72:216|184:240,2,156.00000371933,4|2|2
184,152,226501,1,0
344,160,226736,6,0,B|384:224|352:320,1,156.00000371933
354,310,227439,1,0
354,310,227673,1,2
168,160,228142,2,0,B|128:224|160:320,1,156.00000371933,4|0
157,310,228845,1,0
157,310,229080,1,2
336,64,229548,6,0,B|416:24|488:80,1,156.00000371933
176,320,230486,2,0,B|96:360|24:304,1,156.00000371933,2|0
104,248,231189,1,0
32,192,231423,1,0
104,136,231658,1,0
32,72,231892,1,0
112,32,232126,1,0
296,72,232361,5,2
296,72,232595,1,0
376,120,232830,1,2
376,120,233064,1,0
296,176,233298,2,0,B|360:232,1,78.000001859665,2|0
328,320,233767,2,0,B|416:320|448:232,2,156.00000371933,4|0|2
360,232,234939,1,0
208,232,235173,5,2
208,232,235408,1,0
240,136,235642,1,2
240,136,235876,1,0
152,152,236111,2,0,B|96:88,1,78.000001859665,2|0
64,8,236580,2,0,B|-8:56|32:152,2,156.00000371933,0|2|2
112,88,237751,1,0
264,64,237986,5,2
264,64,238220,1,0
352,96,238455,1,2
352,96,238689,1,0
280,152,238923,2,0,B|312:240,1,78.000001859665,2|0
400,240,239392,2,0,B|384:328|272:320,1,156.00000371933
216,256,240095,1,0
144,320,240330,1,2
216,256,240564,1,0
120,136,240798,5,2
120,136,241033,1,0
48,192,241267,1,2
48,192,241501,1,0
32,96,241736,2,0,B|80:16,1,78.000001859665,2|0
168,24,242205,5,0
264,24,242439,1,0
352,48,242673,1,0
416,112,242908,1,0
448,200,243142,1,2
432,296,243376,1,0
280,272,243611,5,2
280,272,243845,1,0
192,296,244080,1,2
192,296,244314,1,0
208,208,244548,2,0,B|136:152,1,78.000001859665,2|0
56,192,245017,2,0,B|32:88|136:72,2,156.00000371933,0|2|2
168,144,246189,1,0
312,56,246423,5,2
312,56,246658,1,0
392,112,246892,1,2
392,112,247126,1,0
304,152,247361,2,0,B|384:216,1,78.000001859665,2|0
440,256,247830,2,0,B|368:312|288:248,2,156.00000371933,0|0|2
368,200,249001,1,0
128,144,249236,6,0,B|80:224|120:320,1,156.00000371933,2|2
110,294,249939,1,0
110,294,250173,1,2
384,120,250642,2,0,B|432:200|392:296,1,156.00000371933,4|2
402,270,251345,1,0
402,270,251580,1,2
104,96,252048,6,0,B|56:176|96:272,1,156.00000371933,2|2
86,246,252751,1,0
86,246,252986,1,2
408,72,253455,2,0,B|456:152|416:248,1,156.00000371933,0|0
425,222,254158,1,0
425,222,254392,1,2
256,192,254861,12,2,260486
