osu file format v9

[General]
AudioFilename: 03.nowhere.mp3
AudioLeadIn: 0
PreviewTime: -1
Countdown: 0
SampleSet: Normal
StackLeniency: 0.7
Mode: 0
LetterboxInBreaks: 1

[Editor]
DistanceSpacing: 0.9
BeatDivisor: 2
GridSize: 4

[Metadata]
Title:Nowhere
Artist:FictionJunction YUUKA
Creator:o0cannian0o
Version:Normal
Source:MADLAX
Tags:Terebi Toukyou Anime-Syon [MADLAX] O.S.T 02. nowhere / FictionJunction YUUKA

[Difficulty]
HPDrainRate:5
CircleSize:4
OverallDifficulty:5
ApproachRate:5
SliderMultiplier:1.2
SliderTickRate:1

[Events]
//Background and Video events
0,0,"nbg.jpg"
//Break Periods
2,67514,70759
2,98482,119533
2,148804,154372
//Storyboard Layer 0 (Background)
//Storyboard Layer 1 (Fail)
//Storyboard Layer 2 (Pass)
//Storyboard Layer 3 (Foreground)
//Storyboard Sound Samples
//Background Colour Transformations
3,100,163,162,255

[TimingPoints]
13121,387.096774193548,4,1,0,50,1,0

[Colours]
Combo1 : 220,190,71
Combo2 : 198,47,130
Combo3 : 55,92,189
Combo4 : 189,85,55

[HitObjects]
108,100,13121,2,0,B|96:188|184:192,1,120
284,192,13895,2,0,B|296:280|208:284,1,120
108,280,14669,2,0,B|36:264|52:164,1,120
52,68,15443,2,0,B|176:68,1,120
172,68,16024,1,0
232,72,16217,6,0,B|232:196,1,120
336,252,16991,2,0,B|336:112,1,120
440,72,17766,2,0,B|440:208,1,120
324,224,18540,2,0,B|324:144,1,60
324,164,18927,2,0,B|260:164,1,60
264,164,19314,6,0,B|184:164|184:88,1,120
64,96,20088,2,0,B|64:164|148:164,1,120
264,160,20862,2,0,B|328:160|328:248,1,120
212,268,21637,2,0,B|124:268,3,60
152,268,22411,6,0,B|152:144,1,120
272,152,23185,2,0,B|272:276,1,120
392,272,23959,2,0,B|392:152,1,120
388,32,24733,2,0,B|248:32,1,120
268,32,25314,1,0
268,32,25508,1,0
172,104,25895,5,0
124,140,26088,1,0
76,172,26282,1,0
76,292,26669,2,0,B|128:348|208:332,1,120
300,312,27443,1,0
416,276,27830,2,0,B|416:204,1,60
416,216,28217,2,0,B|416:148,1,60
416,156,28604,2,0,B|416:96|316:92,1,120
208,92,29379,6,0,B|88:92,1,120
36,200,30153,2,0,B|168:200,1,120
276,204,30927,1,0
276,204,31120,1,0
276,204,31314,1,0
276,204,31508,2,0,B|384:204,1,60
456,208,32088,6,0,B|456:140|384:108,1,120
276,96,32862,2,0,B|208:96|176:196,1,120
188,288,33637,2,0,B|200:360|280:360,1,120
388,348,34411,1,0
388,348,34604,1,0
388,348,34798,2,0,B|472:312|456:232,1,120
448,140,35572,6,0,B|416:72|328:60,1,120
240,60,36346,2,0,B|112:60,2,120
240,60,37314,1,0
240,60,37508,1,0
240,60,37701,1,0
240,120,37895,6,0,B|164:220,1,120
240,308,38669,2,0,B|316:200,1,120
332,92,39443,1,0
272,92,39637,1,0
212,92,39830,1,0
132,184,40217,1,0
192,184,40411,1,0
252,184,40604,1,0
372,180,40991,6,0,B|372:268|268:284,1,120
188,272,41766,2,0,B|116:240|124:156,1,120
192,80,42540,2,0,B|252:44|316:88,1,120
305,81,43120,1,0
356,112,43314,2,0,B|408:160,1,60
400,152,43701,1,0
408,272,44088,6,0,B|304:340,1,120
204,276,44862,2,0,B|312:208,1,120
188,192,45637,1,0
128,192,45830,1,0
68,192,46024,1,0
68,72,46411,1,0
128,72,46604,1,0
188,72,46798,1,0
308,68,47185,6,0,B|432:68,1,120
456,184,47959,2,0,B|456:260|368:256,1,120
260,256,48733,2,0,B|136:256,2,120
28,192,50282,5,0
148,192,50669,1,0
148,192,50862,1,0
148,192,51056,1,0
268,192,51443,1,0
388,192,51830,5,0
508,192,52217,1,0
508,192,52411,1,0
508,192,52604,1,0
508,72,52991,2,0,B|440:72,1,60
448,72,53379,1,0
328,72,53766,6,0,B|328:152,2,60
208,72,54540,2,0,B|208:136,2,60
88,72,55314,2,0,B|88:148,1,60
88,132,55701,1,0
88,252,56088,5,0
128,296,56282,1,0
164,344,56475,1,0
284,348,56862,2,0,B|364:348,1,60
344,348,57250,1,0
464,348,57637,2,0,B|464:272,6,60
436,108,59572,6,0,B|304:108,1,120
316,108,60153,1,0
316,108,60346,2,0,B|172:108,1,120
196,108,60927,1,0
196,108,61120,2,0,B|56:108,2,120
256,340,62669,6,0,B|256:216,1,120
256,220,63250,1,0
256,220,63443,2,0,B|256:80,1,120
316,104,64024,1,0
316,104,64217,2,0,B|316:228,1,120
376,228,64798,1,0
376,228,64991,2,0,B|376:148,2,60
256,192,65766,12,0,67314
404,284,71959,6,0,B|416:196|328:192,1,120
228,192,72733,2,0,B|216:104|304:100,1,120
404,104,73507,2,0,B|476:120|460:220,1,120
460,316,74281,2,0,B|336:316,1,120
340,316,74862,1,0
280,312,75055,6,0,B|280:188,1,120
176,132,75829,2,0,B|176:272,1,120
72,312,76604,2,0,B|72:176,1,120
188,160,77378,2,0,B|188:240,1,60
188,220,77765,2,0,B|252:220,1,60
248,220,78152,6,0,B|328:220|328:296,1,120
448,288,78926,2,0,B|448:220|364:220,1,120
248,224,79700,2,0,B|184:224|184:136,1,120
300,116,80475,2,0,B|388:116,3,60
360,116,81249,6,0,B|360:240,1,120
240,232,82023,2,0,B|240:108,1,120
120,112,82797,2,0,B|120:232,1,120
124,352,83571,2,0,B|264:352,1,120
244,352,84152,1,0
244,352,84346,1,0
340,280,84733,5,0
388,244,84926,1,0
436,212,85120,1,0
436,92,85507,2,0,B|384:36|304:52,1,120
212,72,86281,1,0
96,108,86668,2,0,B|96:180,1,60
96,168,87055,2,0,B|96:236,1,60
96,228,87442,2,0,B|96:288|196:292,1,120
304,292,88217,6,0,B|424:292,1,120
476,184,88991,2,0,B|344:184,1,120
236,180,89765,1,0
236,180,89958,1,0
236,180,90152,1,0
236,180,90346,2,0,B|128:180,1,60
56,176,90926,6,0,B|56:244|128:276,1,120
236,288,91700,2,0,B|304:288|336:188,1,120
324,96,92475,2,0,B|312:24|232:24,1,120
124,36,93249,1,0
124,36,93442,1,0
124,36,93636,2,0,B|40:72|56:152,1,120
64,244,94410,6,0,B|96:312|184:324,1,120
272,324,95184,2,0,B|400:324,2,120
272,204,96346,1,0
272,84,96733,1,0
256,192,97120,12,0,98282
72,72,120733,6,0,B|72:216,1,120
156,276,121508,2,0,B|156:152,1,120
244,72,122282,2,0,B|244:216,1,120
244,312,123056,2,0,B|320:312|316:232,1,120
320,116,123830,5,0
440,116,124217,1,0
440,116,124411,1,0
440,116,124604,2,0,B|440:256,1,120
356,324,125379,2,0,B|356:184,1,120
272,116,126153,2,0,B|272:268,1,120
160,188,126927,2,0,B|160:272|72:252,1,120
44,144,127701,6,0,B|44:64|128:68,1,120
236,72,128475,2,0,B|356:72,1,120
356,72,129056,1,0
356,72,129250,2,0,B|488:72,1,120
472,180,130024,2,0,B|472:264|388:260,1,120
296,268,130798,5,0
188,268,131185,1,0
188,268,131379,1,0
188,268,131572,1,0
80,268,131959,1,0
80,268,132153,1,0
80,268,132346,1,0
84,52,133120,6,0,B|208:52,1,120
156,148,133895,2,0,B|276:148,1,120
232,248,134669,2,0,B|356:248,1,120
460,248,135443,2,0,B|460:128,1,120
460,128,136024,1,0
460,128,136217,2,0,B|324:128,1,120
244,176,136991,6,0,B|244:248|144:252,1,120
60,232,137766,2,0,B|-4:204|16:132,1,120
100,64,138540,2,0,B|172:40|220:96,1,120
256,184,139314,6,0,B|256:312,1,120
256,192,140088,12,0,142411
256,192,142798,5,0
256,192,143185,12,0,144346
256,192,144733,12,0,148604
112,88,155572,5,0
112,196,155959,1,0
108,304,156346,1,0
216,308,156733,1,0
216,200,157120,6,0,B|216:80,1,120
216,80,157701,1,0
216,80,157895,2,0,B|308:80,1,60
276,80,158282,1,0
276,80,158475,1,0
276,80,158669,1,0
384,80,159056,6,0,B|452:120|448:192,1,120
448,284,159830,2,0,B|432:356|348:356,1,120
256,360,160604,2,0,B|156:360|132:284,1,120
104,220,161379,1,0
108,112,161766,6,0,B|240:112,1,120
228,112,162346,1,0
228,112,162540,2,0,B|360:48,1,120
335,59,163120,1,0
335,59,163314,2,0,B|420:196,1,120
398,161,163895,1,0
398,161,164088,2,0,B|336:296,1,120
347,270,164669,1,0
347,270,164862,6,0,B|252:280|248:192,1,120
252,112,165637,2,0,B|264:44|168:28,1,120
80,68,166411,2,0,B|12:112|80:176,1,120
152,240,167185,2,0,B|200:292|268:232,1,120
360,204,167959,5,0
360,96,168346,1,0
360,96,168540,1,0
360,96,168733,2,0,B|216:96,1,120
172,180,169508,2,0,B|304:180,1,120
400,180,170282,2,0,B|400:308,1,120
292,316,171056,6,0,B|292:192,1,120
228,284,171830,2,0,B|228:160,1,120
164,252,172604,2,0,B|164:184,2,60
164,144,173379,2,0,B|104:144,2,60
272,148,174153,6,0,B|392:148,1,120
340,52,174927,2,0,B|200:52,1,120
112,56,175701,2,0,B|112:176,1,120
220,176,176475,2,0,B|352:176,1,120
448,176,177250,6,0,B|448:240|448:240|360:240,1,120
284,240,178024,2,0,B|216:240|216:240|216:172,1,120
220,80,178798,2,0,B|464:80,1,240
380,156,179959,1,0
484,192,180346,5,0
364,192,180733,1,0
364,192,180926,1,0
364,192,181120,1,0
244,192,181507,1,0
124,192,181894,5,0
4,192,182281,1,0
4,192,182475,1,0
4,192,182668,1,0
4,72,183055,2,0,B|72:72,1,60
64,72,183443,1,0
184,72,183830,6,0,B|184:152,2,60
304,72,184604,2,0,B|304:136,2,60
424,72,185378,2,0,B|424:148,1,60
424,132,185765,1,0
424,252,186152,5,0
384,296,186346,1,0
348,344,186539,1,0
228,348,186926,2,0,B|148:348,1,60
168,348,187314,1,0
48,348,187701,2,0,B|48:272,6,60
76,108,189636,6,0,B|208:108,1,120
196,108,190217,1,0
196,108,190410,2,0,B|340:108,1,120
316,108,190991,1,0
316,108,191184,2,0,B|456:108,2,120
256,340,192733,6,0,B|256:216,1,120
256,220,193314,1,0
256,220,193507,2,0,B|256:80,1,120
196,104,194088,1,0
196,104,194281,2,0,B|196:228,1,120
88,224,195056,1,0
256,340,195830,6,0,B|256:216,1,120
256,220,196411,1,0
256,220,196604,2,0,B|256:80,1,120
316,104,197185,1,0
316,104,197378,2,0,B|316:228,1,120
424,224,198153,1,0
256,88,198927,6,0,B|256:216,1,120
256,208,199508,1,0
256,208,199701,2,0,B|112:208,1,120
136,208,200282,1,0
136,208,200475,2,0,B|136:80,2,120
256,296,202024,6,0,B|256:168,1,120
256,176,202605,1,0
256,176,202798,2,0,B|400:176,1,120
376,176,203379,1,0
376,176,203572,2,0,B|376:304,2,120
184,76,205120,5,0
108,152,205508,1,0
144,196,205701,1,0
176,240,205895,1,0
284,244,206282,1,0
316,200,206475,1,0
348,156,206669,1,0
288,64,207056,1,0
232,64,207250,1,0
180,64,207443,2,0,B|100:64,2,60
256,192,208217,12,0,211120
