osu file format v9

[General]
AudioFilename: 03.nowhere.mp3
AudioLeadIn: 3000
PreviewTime: -1
Countdown: 0
SampleSet: Soft
StackLeniency: 0.7
Mode: 0
LetterboxInBreaks: 1

[Editor]
DistanceSpacing: 1.1
BeatDivisor: 4
GridSize: 4

[Metadata]
Title:Nowhere
Artist:FictionJunction YUUKA
Creator:o0cannian0o
Version:Insane
Source:MADLAX
Tags:Terebi Toukyou Anime-Syon [MADLAX] O.S.T 02. nowhere / FictionJunction YUUKA

[Difficulty]
HPDrainRate:7
CircleSize:4
OverallDifficulty:7
ApproachRate:8
SliderMultiplier:1.8
SliderTickRate:1

[Events]
//Background and Video events
0,0,"ibg.jpg"
//Break Periods
2,65942,71379
2,98458,119959
2,148006,148605
//Storyboard Layer 0 (Background)
//Storyboard Layer 1 (Fail)
//Storyboard Layer 2 (Pass)
//Storyboard Layer 3 (Foreground)
//Storyboard Sound Samples
//Background Colour Transformations
3,100,163,162,255

[TimingPoints]
710,387.096774193548,4,2,0,50,1,0
6780,-66.6666666666667,4,1,0,55,0,0
13189,-100,4,1,0,60,0,0
16651,-100,4,1,0,60,0,0
23329,-100,4,1,0,60,0,0
25361,-100,4,1,1,70,0,0
25554,-100,4,1,0,60,0,0
26522,-100,4,1,1,70,0,0
26716,-100,4,1,0,60,0,0
29619,-100,4,1,1,70,0,0
29813,-100,4,1,0,60,0,0
32329,-100,4,1,1,70,0,0
32522,-100,4,1,0,60,0,0
32716,-100,4,1,1,70,0,0
32909,-100,4,1,0,60,0,0
33877,-66.6666666666667,4,1,0,60,0,0
34264,-66.6666666666667,4,1,1,70,0,0
34458,-66.6666666666667,4,1,0,60,0,0
35038,-100,4,1,0,60,0,0
35813,-100,4,1,1,70,0,0
36006,-100,4,1,0,60,0,0
36200,-66.6666666666667,4,1,0,60,0,0
36780,-100,4,1,0,60,0,0
37167,-100,4,1,1,70,0,0
37748,-100,4,1,0,60,0,0
40845,-66.6666666666667,4,1,0,60,0,0
42393,-100,4,1,0,60,0,0
49361,-100,4,1,1,70,0,0
50329,-100,4,1,1,70,0,0
50377,-100,4,1,0,70,0,1
52845,-100,4,1,1,90,0,1
53232,-100,4,1,0,70,0,1
55990,-66.6666666666667,4,1,0,70,0,1
59038,-66.6666666666667,4,1,1,70,0,1
59425,-66.6666666666667,4,1,0,70,0,1
60587,-66.6666666666667,4,1,1,70,0,1
60780,-100,4,1,0,70,0,1
65619,-100,4,1,1,80,0,1
65813,-100,4,1,0,70,0,0
78587,-66.6666666666667,4,1,0,70,0,0
84200,-66.6666666666667,4,1,1,80,0,0
84393,-66.6666666666667,4,1,0,70,0,0
84974,-100,4,1,0,70,0,0
87877,-66.6666666666667,4,1,0,70,0,0
96006,-66.6666666666667,4,1,1,70,0,0
96200,-66.6666666666667,4,1,1,70,0,0
96683,-66.6666666666667,4,1,0,70,0,0
98135,-66.6666666666667,4,1,1,5,0,0
98329,-66.6666666666667,4,1,0,70,0,0
119909,-200,4,1,0,70,0,0
120587,-200,4,1,1,70,0,0
121554,-200,4,1,0,70,0,0
122135,-200,4,1,1,70,0,0
122329,-200,4,1,0,70,0,0
122909,-200,4,1,1,70,0,0
123103,-200,4,1,0,70,0,0
123683,-200,4,1,1,70,0,0
123877,-200,4,1,0,70,0,0
124458,-200,4,1,1,70,0,0
124651,-200,4,1,0,70,0,0
125232,-200,4,1,1,80,0,0
125425,-200,4,1,0,70,0,0
127167,-200,4,1,1,70,0,0
127361,-200,4,1,0,70,0,0
128716,-200,4,1,1,70,0,0
128909,-200,4,1,0,70,0,0
130264,-200,4,1,1,70,0,0
130458,-200,4,1,0,70,0,0
132974,-100,4,1,0,70,0,0
149232,-100,4,2,1,70,0,0
154845,-100,4,1,1,75,0,0
155425,-100,4,1,0,70,0,0
164909,-100,4,1,1,70,0,0
166458,-100,4,1,0,70,0,0
167087,-100,4,1,1,70,0,0
167619,-100,4,1,0,70,0,0
176329,-66.6666666666667,4,1,0,70,0,0
178651,-66.6666666666667,4,1,1,70,0,0
179425,-100,4,1,1,70,0,0
180393,-100,4,1,0,70,0,1
198393,-66.6666666666667,4,1,0,70,0,1
208071,-66.6666666666667,4,2,1,70,0,0
214264,-66.6666666666667,4,2,0,5,0,0

[Colours]
Combo1 : 220,190,71
Combo2 : 198,47,130
Combo3 : 55,92,189
Combo4 : 189,85,55

[HitObjects]
120,208,682,1,0
120,208,804,1,0
184,264,998,2,0,B|232:344|304:288|304:288,1,135
392,176,1482,1,0
392,176,1580,1,0
332,128,1772,2,0,B|284:52|216:104|216:104,1,135
136,140,2256,5,0
136,140,2353,1,0
200,188,2546,2,0,B|308:268|308:268,1,135
400,260,3032,2,0,B|460:188|428:112|352:60|280:112|280:112,1,270
132,164,3804,6,0,B|132:212|132:212,1,45
188,264,4095,2,0,B|196:320|300:320|300:320,1,135
380,220,4578,2,0,B|380:171|380:171,1,45
328,116,4869,2,0,B|320:60|216:60|216:60,1,135
128,72,5353,6,0,B|92:104|92:104,1,45
120,180,5643,2,0,B|184:304|184:304,1,135
276,248,6129,1,0
368,184,6322,1,0
380,156,6419,1,0
392,128,6516,1,0
360,24,6709,1,0
260,60,6901,6,0,B|144:56|112:152|112:152,1,134.999995976687
124,232,7288,2,0,B|240:236|272:144|272:144,1,134.999995976687
360,116,7675,2,0,B|388:108|472:148|476:220|460:252|460:252,1,134.999995976687
344,264,8062,2,0,B|342:293|277:359|207:339|200:312|200:312,1,134.999995976687
132,244,8449,5,0
128,144,8643,1,0
140,112,8740,1,0
168,84,8837,1,0
272,56,9030,1,0
348,160,9226,1,0
260,232,9417,1,0
200,136,9611,1,0
288,64,9804,1,0
376,100,9998,5,0
404,116,10095,1,0
428,140,10191,1,0
444,172,10288,1,0
448,208,10385,2,0,B|448:268|376:316|376:316,1,134.999995976687
240,304,10772,1,0
240,304,10869,1,0
176,268,11062,2,0,B|120:224|104:160|136:80|136:80,1,202.49999396503
264,44,11546,2,0,B|264:200,1,134.999995976687
384,280,11933,2,0,B|384:136|384:136,1,134.999995976687
256,192,12320,12,0,13095
160,88,13288,6,0,B|112:96|92:144|92:144,1,90
80,232,13675,1,0
112,316,13869,2,0,B|196:360|304:344|304:344,1,180
372,316,14449,1,0
456,280,14643,2,0,B|496:180|416:84|416:84,1,180
352,68,15224,1,0
256,256,15417,5,0
296,136,15611,1,0
188,212,15804,1,0
324,212,15998,1,0
216,136,16191,1,0
412,116,16772,6,0,B|452:204|404:232|404:232,1,90
312,288,17159,2,0,B|260:240|284:172|284:172,1,90
312,84,17546,1,0
192,64,17740,6,0,B|72:20|72:20,1,90
36,112,18129,2,0,B|152:156|152:156,1,90
160,252,18514,2,0,B|168:320|232:356|232:356,1,90
320,344,18901,2,0,B|388:352|424:288|424:288,1,90
388,200,19288,1,0
288,156,19484,5,0
248,60,19677,1,0
152,104,19871,2,0,B|84:144|104:216,1,90
192,300,20258,2,0,B|188:204|240:188|240:188,1,90
308,148,20645,1,0
408,96,20839,2,0,B|472:212|428:300|428:300,1,180
352,336,21419,1,0
264,348,21613,1,0
172,336,21806,1,0
96,296,22000,1,0
52,220,22193,1,0
60,136,22387,2,0,B|96:84|172:72|172:72,1,90
360,272,22968,6,0,B|296:268|252:216|312:116|312:116,1,180
408,180,23548,1,0
416,68,23742,1,0
296,56,23935,2,0,B|196:32|84:80|84:80,1,180
44,140,24516,2,0,B|28:260|80:348|80:348,1,180
192,344,25097,2,0,B|260:376|304:324|304:324,1,90
384,288,25484,1,8
448,180,25677,6,0,B|392:88|392:88,1,90
296,68,26064,1,0
240,168,26258,2,0,B|260:256|352:236|328:336|328:336,1,180,0|8
184,304,26839,5,0
100,192,27032,2,0,B|156:100|252:208|236:56|236:56,1,180
376,96,27613,1,0
440,204,27806,1,0
376,292,28000,1,0
316,204,28193,1,0
252,292,28387,1,0
188,208,28580,1,0
128,76,28774,5,0
128,76,28871,1,0
128,76,28968,2,0,B|168:40|240:64|240:64,1,90
312,92,29355,2,0,B|364:100|404:164|404:164,1,90
412,240,29742,2,0,B|422:291|375:351|375:351,1,90,8|0
296,348,30129,2,0,B|192:348|120:288|120:288,1,180
76,204,30709,1,0
160,112,30903,2,0,B|252:68|252:68,1,90
304,160,31290,2,0,B|212:204|212:204,1,90
124,200,31677,1,0
228,304,31871,5,0
228,304,31968,1,0
228,304,32064,2,0,B|288:348|348:288|348:288,1,90
408,260,32451,1,8
388,128,32645,1,0
408,260,32839,1,8
388,128,33032,1,0
244,120,33226,2,0,B|124:112|92:224|92:224,1,180
152,292,33806,1,0
256,312,34000,2,0,B|420:312,1,134.999995976687
392,176,34387,2,0,B|240:176|240:176,1,134.999995976687,8|0
128,128,34774,1,0
240,48,34968,5,0
240,48,35064,1,0
240,48,35161,2,0,B|344:48|344:48,1,90
420,48,35548,2,0,B|424:168|424:168,1,90
424,240,35935,1,8
348,324,36129,1,0
228,332,36322,6,0,B|108:232|96:100|96:100,1,269.999991953373
208,56,36903,2,0,B|208:240|208:240,1,180,0|8
344,292,37484,2,8,B|344:168|344:168,1,90
400,80,37871,5,0
256,272,38258,1,0
112,76,38645,1,0
256,60,39032,1,0
340,180,39226,1,0
256,304,39419,1,0
176,180,39613,1,0
256,60,39806,1,0
100,288,40193,2,0,B|184:232,2,90
372,304,40968,6,0,B|436:276|464:204|464:204,1,134.999995976687
416,80,41355,2,0,B|332:104|300:192|300:192,1,134.999995976687
140,304,41742,2,0,B|76:276|48:204|48:204,1,134.999995976687
96,80,42129,2,0,B|180:104|212:192|212:192,1,134.999995976687
256,284,42516,2,0,B|256:184,2,90
256,160,43097,1,0
256,72,43290,2,0,B|252:180,2,90
448,136,44064,5,0
344,184,44258,1,0
344,216,44355,1,0
344,248,44451,1,0
232,228,44645,1,0
232,260,44742,1,0
232,292,44839,1,0
112,260,45032,5,0
104,228,45129,1,0
96,200,45226,2,0,B|80:144|108:104|108:104,1,90
280,48,45613,1,0
384,224,45806,1,0
176,228,46000,1,0
400,100,46387,5,0
280,288,46580,1,0
156,104,46774,1,0
280,168,46968,1,0
364,64,47161,2,0,B|435:90|433:163|433:163,1,90
416,248,47548,2,0,B|389:319|316:317|316:317,1,90
228,312,47935,2,0,B|160:328|116:260|116:260,1,90
80,192,48322,6,0,B|96:172|96:172|60:176|60:176|84:144|84:144,1,90
96,48,48709,1,0
420,48,49097,1,0
264,304,49484,5,8
264,272,49580,1,8
264,240,49677,1,8
264,208,49774,1,8
264,176,49871,1,8
200,120,50064,1,8
328,120,50258,1,8
416,120,50451,5,0
440,140,50548,1,0
444,176,50645,2,0,B|444:268|444:268,1,90
320,216,51032,2,0,B|320:320|320:320,1,90
192,256,51419,2,0,B|192:160|192:160,1,90
60,300,51806,2,0,B|60:200|60:200,1,90
68,48,52193,2,0,B|136:112|136:112,1,90
288,52,52580,2,0,B|204:124|204:124,1,90
164,232,52968,1,8
164,264,53064,1,8
164,296,53161,1,8
348,308,53355,6,0,B|408:284|432:240|440:188|400:132|400:132,1,180
396,136,53839,1,0
368,124,53935,1,0
224,92,54129,1,0
192,92,54226,1,0
164,104,54322,1,0
68,184,54516,2,0,B|64:288|164:336|164:336,1,180
288,332,55097,1,0
372,220,55290,1,0
284,96,55484,1,0
136,136,55677,1,0
124,296,55871,5,0
152,312,55968,1,0
180,328,56064,2,0,B|248:356|320:328|320:328,1,134.999995976687
436,256,56451,2,0,B|472:180|424:100|424:100,1,134.999995976687
284,96,56839,2,0,B|320:192|280:260|280:260,1,134.999995976687
148,264,57226,2,0,B|180:180|136:120|136:120,1,134.999995976687
16,264,57613,2,0,B|-8:172|28:124|28:124,1,134.999995976687
116,44,58000,2,0,B|192:8|300:56|300:56,1,134.999995976687
180,184,58387,2,0,B|256:152|360:204|360:204,1,134.999995976687
232,304,58774,2,0,B|312:280|392:324|392:324,1,134.999995976687
444,204,59161,5,8
444,172,59258,1,8
444,140,59355,1,8
324,64,59548,2,0,B|236:24|180:72|180:72,1,134.999995976687
60,136,59935,1,0
60,168,60032,1,0
60,200,60129,1,0
124,300,60322,2,0,B|260:376|392:300|392:300,1,269.999991953373,0|8
428,216,60903,6,0,B|416:104|320:72|320:72,1,180
84,216,61484,2,0,B|96:104|192:72|192:72,1,180
256,168,62064,1,0
256,200,62161,1,0
256,232,62258,1,0
344,292,62451,1,0
172,296,62645,1,0
128,184,62839,5,0
124,152,62935,1,0
124,120,63032,2,0,B|120:60|180:36|180:36,1,90
388,120,63419,2,0,B|392:60|332:36|332:36,1,90
256,144,63806,2,0,B|256:240|256:240,1,90
124,264,64193,2,0,B|120:324|180:348|180:348,1,90
388,264,64580,2,0,B|392:324|332:348|332:348,1,90
256,248,64968,1,0
256,144,65161,1,0
256,108,65258,1,0
256,76,65355,1,0
256,248,65742,5,4
80,88,72129,6,0,B|140:172|140:172,1,90
80,296,72516,2,0,B|140:212|140:212,1,90
248,88,72903,2,0,B|188:172|188:172,1,90
248,296,73290,2,0,B|188:212|188:212,1,90
316,192,73677,6,0,B|404:192|404:192,2,45
316,192,74064,1,0
436,192,74258,1,0
352,276,74451,1,0
304,112,74645,1,0
268,276,74839,1,0
180,192,75032,1,0
392,56,75613,6,0,B|292:56|292:56,1,90
120,120,76000,2,0,B|224:120|224:120,1,90
392,184,76387,2,0,B|288:184|288:184,1,90
120,248,76774,2,0,B|224:248|224:248,1,90
280,324,77161,1,0
368,308,77355,1,0
424,236,77548,1,0
424,152,77742,1,0
368,80,77936,1,0
280,64,78129,1,0
68,320,78709,6,0,B|68:176|68:176,1,134.999995976687
168,64,79097,2,0,B|168:208|168:208,1,134.999995976687
272,324,79484,2,0,B|272:180|272:180,1,134.999995976687
376,64,79871,2,0,B|376:208|376:208,1,134.999995976687
240,200,80258,1,0
100,200,80451,2,0,B|24:200|16:144|104:112,4,134.999995976687
220,140,81419,5,0
248,124,81516,1,0
276,108,81613,1,0
420,56,81806,1,0
420,56,82000,1,0
256,76,82193,2,0,B|264:144|328:184|328:184,1,134.999995976687
464,240,82580,2,0,B|444:304|340:332|340:332,1,134.999995976687
228,324,82968,1,0
196,320,83064,1,0
168,304,83161,1,0
76,204,83355,2,0,B|64:112|108:48|108:48,1,134.999995976687
232,72,83742,2,0,B|240:168|196:232|196:232,1,134.999995976687
132,316,84129,1,0
264,340,84322,1,8
400,324,84516,6,0,B|452:276|464:204|464:204,1,134.999995976687
420,96,84903,1,0
308,56,85097,2,0,B|188:24|104:68|104:68,1,180
68,184,85677,1,0
68,184,85774,1,0
68,184,85871,2,0,B|56:320|184:312|184:312,1,180
312,312,86451,1,0
440,256,86645,2,0,B|440:136|440:136,1,90
440,48,87032,2,0,B|344:48|344:48,1,90
348,176,87419,1,0
88,64,88000,6,0,B|56:128|76:224|76:224,1,134.999995976687
156,304,88387,1,0
288,340,88580,2,0,B|376:340|436:280|436:280,1,134.999995976687
452,168,88968,2,0,B|416:84|336:72|336:72,1,134.999995976687
324,68,89258,1,0
284,64,89355,2,0,B|216:44|144:72|144:72,1,134.999995976687
80,160,89742,1,0
144,268,89935,1,0
184,160,90129,1,0
144,268,90322,1,0
256,240,90516,1,0
440,72,91097,6,0,B|440:212|440:212,1,134.999995976687
308,132,91484,2,0,B|308:276|308:276,1,134.999995976687
176,196,91871,2,0,B|176:340|176:340,1,134.999995976687
36,276,92258,1,0
36,244,92355,1,0
36,208,92451,2,0,B|36:72|36:72,1,134.999995976687
176,160,92839,2,0,B|176:24|176:24,1,134.999995976687
312,116,93226,2,0,B|312:260,2,134.999995976687
444,140,93806,5,0
444,172,93903,1,0
444,204,94000,2,0,B|444:276|384:320|384:320,1,134.999995976687
256,248,94387,2,0,B|256:108,3,134.999995976687
124,76,95161,2,0,B|164:144|164:144|56:108|56:108|108:192|108:192,1,269.999991953373
92,296,95742,2,0,B|200:380|360:344|360:344,1,269.999991953373,0|8
448,248,96322,1,8
456,216,96419,1,8
424,96,96613,1,8
256,192,96806,12,0,98258
352,72,120709,5,8
164,68,121097,1,8
160,232,121484,2,0,B|180:324|180:324,1,90,8|0
336,320,122258,2,0,B|360:216|360:216,1,90,8|0
416,76,123032,2,0,B|328:56|328:56,1,90,8|0
192,56,123806,2,0,B|104:76|104:76,1,90,8|0
144,240,124580,6,0,B|136:300|184:336|184:336,1,90,8|0
368,240,125355,2,0,B|376:300|328:336|328:336,1,90,8|0
256,212,126129,2,0,B|172:156|352:76|216:52|216:52,1,180
128,156,127290,5,8
176,288,127677,2,0,B|248:360|276:196|348:312|348:312,1,180
440,204,128839,1,8
336,96,129226,2,0,B|264:168|236:4|164:120|164:120,1,180
52,168,130387,1,8
208,304,130774,6,0,B|364:364|468:264|432:104|432:104,1,360
124,64,133097,6,0,B|128:188|12:188|12:188,1,180
116,324,133871,2,0,B|112:199|228:199|228:199,1,180
396,324,134645,2,0,B|400:199|284:199|284:199,1,180
388,64,135419,2,0,B|384:188|500:188|500:188,1,180
348,296,136193,1,0
256,48,136580,1,0
164,296,136968,1,0
200,128,137355,6,0,B|200:308|200:308,1,180
320,308,138129,2,0,B|320:124|320:124,1,180
256,224,138903,1,0
256,192,139290,12,0,142387
128,132,142774,5,0
256,48,143161,2,0,B|352:48|436:88|496:148|496:232|452:308|256:340,1,540
256,128,144709,1,0
256,192,145097,12,0,147806
412,240,149355,5,0
412,240,149451,1,0
332,240,149645,2,0,B|268:280|192:236|192:236,1,135
100,144,150129,1,0
100,144,150225,1,0
172,144,150419,2,0,B|236:105|312:149|312:149,1,135
184,252,150903,1,0
184,252,151000,1,0
244,204,151193,2,0,B|348:116|348:116,1,135
352,256,151677,2,0,B|424:232|448:152|448:152,1,135
300,172,152258,1,0
168,172,152451,5,0
164,204,152548,1,0
152,272,152742,2,0,B|224:312|300:280|300:280,1,135
356,208,153226,1,0
352,175,153323,1,0
348,104,153517,2,0,B|276:64|200:96|200:96,1,135
256,248,154000,1,0
256,216,154097,1,0
256,140,154290,2,0,B|256:0|256:0,1,135
160,112,154774,1,0
148,224,154968,5,8
152,252,155064,1,8
168,280,155161,1,8
184,300,155258,1,8
204,316,155355,2,0,B|272:328|320:284|320:284,1,90,8|0
396,244,155742,1,0
456,156,155935,6,0,B|440:88|376:72|376:72,1,90
344,164,156322,2,0,B|272:144|260:84|260:84,1,90
176,48,156709,2,0,B|104:44|60:92|60:92,1,90
152,160,157097,2,0,B|120:216|64:232,1,90
156,320,157484,2,0,B|212:352|280:324|280:324,1,90
368,276,157871,1,0
424,148,158064,1,0
280,184,158258,1,0
368,276,158451,1,0
424,148,158645,1,0
304,104,158839,5,0
272,84,158935,1,0
240,72,159032,2,0,B|132:128|132:128,1,90
56,152,159419,2,0,B|152:192|152:192,1,90
244,220,159806,2,0,B|136:276|136:276,1,90
48,300,160193,2,0,B|144:340|144:340,1,90
280,332,160580,5,0
376,308,160774,1,0
448,240,160968,1,0
468,144,161161,1,0
424,56,161355,1,0
328,24,161548,1,0
228,20,161742,5,0
152,64,161935,1,0
140,92,162032,1,0
128,120,162129,2,0,B|92:208|92:208,1,90
172,312,162516,2,0,B|272:268|272:268,1,90
384,320,162903,2,0,B|344:236|344:236,1,90
252,168,163290,2,0,B|352:124|352:124,1,90
472,188,163677,2,0,B|432:104|432:104,1,90
256,56,164064,5,0
156,128,164258,1,0
280,152,164451,1,0
176,224,164645,1,0
300,248,164839,1,0
424,188,165032,5,8
420,152,165129,1,8
416,120,165226,1,8
316,232,165419,5,8
312,196,165516,1,8
308,164,165613,1,8
196,276,165806,5,8
192,240,165903,1,8
188,208,166000,1,8
80,316,166193,5,8
76,284,166290,1,8
72,248,166387,2,0,B|60:156,2,90,8|0|0
180,136,166968,1,0
184,172,167064,1,0
188,208,167161,2,8,B|200:304,2,90
312,192,167742,6,0,B|308:140|340:104|340:104,1,90
436,188,168129,2,0,B|448:256|396:304|396:304,1,90
300,336,168516,2,0,B|228:336|188:292|188:292,1,90
128,224,168903,2,0,B|100:148|140:100|140:100,1,90
224,56,169290,6,0,B|296:36|348:76|348:76,1,90
428,128,169677,2,0,B|476:192|460:248|460:248,2,90
336,192,170258,1,0
236,192,170451,1,0
136,192,170645,1,0
188,276,170839,1,0
292,276,171032,1,0
420,256,171226,5,0
432,224,171322,1,0
440,192,171419,2,0,B|456:132|428:96|428:96,1,90
316,56,171806,2,0,B|240:40|192:56|192:56,1,90
192,56,172097,1,0
152,68,172193,2,0,B|96:96|68:144|68:144,1,90
120,244,172580,1,0
284,336,172774,1,0
284,140,172968,1,0
180,328,173355,5,0
348,240,173548,1,0
176,148,173742,1,0
252,44,173935,1,0
288,44,174032,1,0
320,44,174129,2,0,B|376:44|408:92|408:92,1,90
452,196,174516,2,0,B|480:248|456:320|456:320,1,90
344,320,174903,2,0,B|300:288|292:232|292:232,1,90
368,116,175290,2,0,B|336:68|276:72|276:72,1,90
168,72,175677,6,0,B|96:68|60:128|60:128,1,90
48,212,176064,2,0,B|40:276|88:324|88:324,1,90
204,300,176451,2,0,B|268:340|348:300,4,134.999995976687
436,196,177613,5,0
428,164,177709,1,0
416,136,177806,2,0,B|384:76|292:52|292:52,1,134.999995976687
188,44,178193,1,0
84,104,178387,2,0,B|56:184|48:252|48:252,1,134.999995976687
112,336,178774,2,0,B|188:416|256:400|260:322|264:244|348:212|424:352,1,404.99998793006
420,192,179548,5,8
356,88,179742,1,8
328,68,179839,1,8
296,56,179935,1,8
264,52,180032,1,8
228,56,180129,1,8
120,100,180322,1,8
72,200,180516,6,0,B|100:288,1,90
220,288,180903,1,0
336,284,181097,2,0,B|372:192|372:192,1,90
460,116,181484,2,0,B|440:56|384:48|384:48,1,90
272,48,181871,2,0,B|180:84|180:84,1,90
272,160,182258,2,0,B|180:196|180:196,1,90
272,272,182645,2,0,B|180:308|180:308,1,90
132,196,183032,1,0
152,56,183226,5,0
184,52,183322,1,0
216,48,183419,2,0,B|296:40|336:56|336:56,1,90
416,116,183806,2,0,B|448:176|416:224|416:224,1,90
356,304,184193,2,0,B|280:368|168:316|168:316,1,180
84,224,184774,2,0,B|148:156|264:196|264:196,1,180
376,248,185355,1,0
460,124,185548,1,0
300,124,185742,1,0
80,64,186129,5,0
80,96,186226,1,0
80,128,186322,1,0
216,96,186516,6,0,B|216:196|216:196,1,90
336,56,186903,2,0,B|336:152|336:152,1,90
456,96,187290,2,0,B|456:188|456:188,1,90
432,320,187677,5,0
432,288,187774,1,0
432,256,187870,1,0
296,288,188064,6,0,B|296:188|296:188,1,90
176,327,188451,2,0,B|176:232|176:232,1,90
56,287,188838,2,0,B|56:196|56:196,1,90
56,164,189129,1,0
56,136,189226,1,0
252,60,189613,6,0,B|308:44|348:64|348:64,1,90
368,80,189903,1,0
392,108,190000,2,0,B|428:156|408:208|408:208,1,90
392,308,190387,2,0,B|308:372|296:208|220:316|220:316,1,180
100,312,190968,2,0,B|40:224|40:224|116:160|116:160,1,180
184,128,191548,2,0,B|264:76|264:76,1,90
284,64,191839,1,0
304,52,191935,1,0
436,200,192322,6,0,B|408:300,1,90
276,312,192709,2,0,B|308:204|308:204,1,90
344,108,193097,2,0,B|256:76|256:76,1,90
152,164,193484,2,0,B|252:204|252:204,1,90
368,252,193871,2,0,B|396:144|396:144,1,90
320,72,194258,6,0,B|228:48|228:48,1,90
200,44,194548,1,0
168,48,194645,2,0,B|84:80|84:80,1,90
56,176,195032,1,0
56,272,195226,1,0
88,364,195419,2,0,B|180:364|180:364,1,90
172,268,195806,6,0,B|172:176|172:176|268:176|268:176,1,180
360,176,196387,1,0
360,76,196580,2,0,B|268:76|268:76|268:176|268:176,1,180
268,264,197161,2,0,B|324:360|428:332|428:332,1,180
480,240,197742,1,0
420,148,197935,1,0
400,120,198032,1,0
380,92,198129,1,0
256,88,198322,1,0
108,88,198516,6,0,B|152:184|152:184|188:184|188:184,1,134.999995976687
284,188,198903,1,0
400,188,199097,1,0
416,216,199193,1,0
432,248,199290,2,0,B|468:316|468:316|408:316|408:316,1,134.999995976687
276,316,199677,2,0,B|152:316|152:316|128:268|128:268,1,134.999995976687
132,276,199968,1,0
120,248,200064,1,0
192,160,200258,5,0
72,132,200451,2,0,B|40:72|40:72|112:72|112:72,1,134.999995976687
232,72,200839,2,0,B|300:72|300:72|332:132|332:132,1,134.999995976687
388,240,201226,2,0,B|428:320|428:320|340:320|340:320,1,134.999995976687
352,320,201516,1,0
320,320,201613,1,0
204,308,201806,1,0
120,216,202000,6,0,B|120:72|120:72,1,134.999995976687
232,152,202387,2,0,B|232:288|232:288,1,134.999995976687
344,216,202774,2,0,B|344:80|344:80,1,134.999995976687
452,148,203161,1,0
472,268,203355,6,0,B|384:388|220:336|220:336,1,269.999991953373
92,284,203935,2,0,B|32:248|28:152|28:152,1,134.999995976687
28,144,204226,1,0
36,112,204322,1,0
160,76,204516,5,0
264,152,204709,1,0
368,220,204903,2,0,B|424:268|424:268|368:320|368:320,1,134.999995976687
256,312,205290,1,0
224,312,205387,1,0
188,312,205484,2,0,B|120:312|120:312|68:232|68:232|176:232,1,269.999991953373
308,232,206064,5,0
344,232,206161,1,0
380,232,206258,2,0,B|448:232|448:232|412:164|412:164|288:164|288:164,1,269.999991953373
152,164,206839,2,0,B|16:164|16:164,1,134.999995976687
92,52,207226,2,0,B|232:52|232:52,1,134.999995976687
364,52,207613,2,0,B|436:180,2,134.999995976687
252,128,208193,5,0
216,128,208290,1,0
128,128,208484,2,0,B|96:268|252:272|252:272,1,202.49999396503
368,268,208968,1,0
404,268,209064,1,0
484,268,209258,2,0,B|515:128|359:124|359:124,1,202.49999396503
244,128,209742,5,0
216,128,209839,1,0
128,128,210032,2,0,B|56:128|56:128|128:244|128:244,1,202.49999396503
200,332,210516,2,0,B|232:376|232:376|312:376,2,134.999995976687
288,260,211097,1,0
396,180,211290,5,0
396,140,211387,1,0
400,56,211580,2,0,B|192:56|192:56,1,202.49999396503
196,168,212064,1,0
196,200,212161,1,0
196,284,212355,2,0,B|408:284|408:284,1,202.49999396503
456,192,212839,2,0,B|368:192|368:192,1,67.4999979883433
292,192,213129,2,0,B|84:192|84:192,1,202.49999396503
200,112,213613,5,0
332,116,213806,1,0
348,144,213903,1,0
364,172,214000,1,0
420,272,214193,1,4
256,192,214387,12,0,215935
