osu file format v9

[General]
AudioFilename: 03.nowhere.mp3
AudioLeadIn: 3000
PreviewTime: -1
Countdown: 0
SampleSet: Soft
StackLeniency: 0.7
Mode: 0
LetterboxInBreaks: 1

[Editor]
DistanceSpacing: 1.3
BeatDivisor: 4
GridSize: 4

[Metadata]
Title:Nowhere
Artist:FictionJunction YUUKA
Creator:o0cannian0o
Version:Hard
Source:MADLAX
Tags:Terebi Toukyou Anime-Syon [MADLAX] O.S.T 02. nowhere / FictionJunction YUUKA

[Difficulty]
HPDrainRate:6
CircleSize:4
OverallDifficulty:6
ApproachRate:7
SliderMultiplier:1.4
SliderTickRate:1

[Events]
//Background and Video events
0,0,"hbg.jpg"
//Break Periods
2,65944,70263
2,96785,119782
2,148753,154814
//Storyboard Layer 0 (Background)
//Storyboard Layer 1 (Fail)
//Storyboard Layer 2 (Pass)
//Storyboard Layer 3 (Foreground)
//Storyboard Sound Samples
//Background Colour Transformations
3,100,163,162,255

[TimingPoints]
710,387.096774193548,4,2,0,50,1,0
6776,-100,4,1,0,60,0,0
12389,-100,4,1,1,90,0,0
12970,-100,4,1,0,60,0,0
37163,-100,4,1,1,90,0,0
37744,-100,4,1,0,60,0,0
49357,-100,4,1,1,90,0,0
50131,-80,4,1,0,70,0,1
64841,-80,4,1,1,90,0,1
65421,-80,4,1,0,70,0,1
65615,-80,4,1,0,100,0,1
65809,-100,4,1,0,60,0,0
86518,193.548387096774,4,1,0,50,1,0
86566,-200,4,1,0,50,0,0
87388,387.096774193548,4,1,0,50,1,0
96000,-100,4,1,1,90,0,0
96678,-100,4,1,0,70,0,0
120581,-133.333333333333,4,1,1,70,0,1
120775,-133.333333333333,4,1,0,70,0,0
121355,-133.333333333333,4,1,1,70,0,1
121549,-133.333333333333,4,1,0,70,0,0
122129,-133.333333333333,4,1,1,70,0,1
122323,-133.333333333333,4,1,0,70,0,0
123871,-133.333333333333,4,1,0,70,0,0
124452,-133.333333333333,4,1,1,70,0,1
124646,-133.333333333333,4,1,0,70,0,0
127162,-133.333333333333,4,1,1,70,0,1
127355,-133.333333333333,4,1,0,70,0,0
127936,-133.333333333333,4,1,1,70,0,1
128129,-133.333333333333,4,1,0,70,0,0
128710,-133.333333333333,4,1,1,70,0,1
128904,-133.333333333333,4,1,0,70,0,0
129484,-133.333333333333,4,1,0,70,0,1
132387,-133.333333333333,4,1,0,70,0,0
136839,-133.333333333333,4,1,0,70,0,1
138968,-133.333333333333,4,1,0,70,0,0
142646,-133.333333333333,4,1,1,80,0,0
142839,-133.333333333333,4,1,0,70,0,0
155517,-100,4,1,0,70,0,0
167226,-100,4,1,1,90,0,0
168000,-100,4,1,0,70,0,0
178936,-100,4,2,0,60,0,0
179613,-100,4,1,0,70,0,0
180194,-100,4,1,0,70,0,1
185807,-100,4,1,1,80,0,1
186194,-100,4,1,0,70,0,1
186387,-66.6666666666667,4,1,0,70,0,1
207484,-66.6666666666667,4,1,1,80,0,1
208065,-100,4,1,0,70,0,0
213775,-100,4,1,0,65,0,0
213871,-100,4,1,0,60,0,0
213968,-100,4,1,0,50,0,0
214065,-100,4,1,0,40,0,0
214162,-100,4,1,0,30,0,0
214258,-100,4,2,0,20,0,0
214355,-100,4,2,0,35,0,0

[Colours]
Combo1 : 220,190,71
Combo2 : 198,47,130
Combo3 : 55,92,189
Combo4 : 189,85,55

[HitObjects]
64,64,714,2,0,B|152:184|152:184,1,140
216,124,1294,1,0
284,60,1488,2,0,B|364:184|364:184,1,140
416,116,2068,1,0
400,204,2262,6,0,B|320:328|320:328,1,140
256,268,2842,1,0
176,204,3036,2,0,B|88:332|88:332,1,140
60,232,3616,1,0
76,148,3810,6,0,B|112:104|112:104,1,35
180,92,4101,2,0,B|268:196|268:196,1,105
328,148,4584,2,0,B|364:104|364:104,1,35
432,92,4875,2,0,B|520:196|520:196,1,105
500,256,5359,6,0,B|464:300|464:300,1,35
396,304,5650,2,0,B|308:200|308:200,1,105
248,252,6133,2,0,B|212:296|212:296,1,35
144,308,6424,2,0,B|56:204|56:204,1,105
64,136,6907,6,0,B|112:60|112:60,1,70
184,60,7294,2,0,B|232:144|232:144,1,70
300,140,7681,2,0,B|348:64|348:64,1,70
420,64,8068,2,0,B|468:148|468:148,1,70
468,232,8455,6,0,B|468:288|416:308|416:308,1,70
348,304,8843,2,0,B|296:280|300:228|300:228,1,70
228,232,9230,2,0,B|228:288|172:308|172:308,1,70
108,304,9618,2,0,B|56:280|60:228|60:228,1,70
64,144,10004,6,0,B|64:92|64:92|100:64|100:64,1,70
144,80,10391,2,0,B|156:92|156:92|156:164|156:164,1,70
208,200,10778,2,0,B|208:252|208:252|244:280|244:280,1,70
292,264,11165,2,0,B|304:252|304:252|304:180|304:180,1,70
352,148,11552,2,0,B|352:96|352:96|388:68|388:68,1,70
432,84,11939,2,0,B|444:96|444:96|444:168|444:168,1,70
144,148,12520,5,8
216,124,12713,1,8
292,124,12907,1,8
360,152,13101,1,4
416,216,13294,6,0,B|472:292,2,70
336,192,13875,2,0,B|280:120,2,70
280,252,14455,6,0,B|224:336|224:336,1,70
164,308,14843,2,0,B|108:228|108:228,1,70
104,160,15230,1,0
108,72,15423,2,0,B|140:32|196:40,3,70
248,40,16197,1,0
388,276,16778,6,0,B|388:220|332:200|332:200,1,70
276,208,17165,2,0,B|228:228|224:288|224:288,1,70
188,320,17552,1,0
120,284,17746,2,0,B|60:220|112:136|112:136,1,140
164,92,18326,1,0
248,52,18520,6,0,B|332:52,3,70
392,52,19294,1,0
120,52,19875,6,0,B|64:72|60:128|60:128,1,70
64,172,20262,2,0,B|68:236|116:252|116:252,1,70
152,284,20649,1,0
232,304,20843,2,0,B|304:352|364:300|364:300,1,140
364,300,21423,1,0
340,216,21617,6,0,B|336:148|388:140|388:140,1,70
448,148,22004,2,0,B|444:84|396:76|396:76,1,70
328,64,22391,2,0,B|268:32|232:60|232:60,1,70
160,68,22778,1,0
76,124,22972,6,0,B|12:164|160:196|56:264|56:264,1,140
128,316,23552,2,0,B|168:272|216:296|216:296,1,70
272,296,23939,2,0,B|284:224|360:372|384:264|384:264,1,140
380,192,24520,2,0,B|368:120|292:268|268:160|268:160,1,140
188,164,25101,1,0
108,164,25294,1,0
196,52,25681,6,0,B|100:52,2,70
280,56,26262,2,0,B|320:136|388:-24|420:92|420:92,1,140,0|8
452,136,26843,1,0
456,220,27036,2,0,B|472:272|444:324|380:324|380:324,1,140
304,328,27617,1,0
220,324,27810,6,0,B|172:324|128:288|128:288,1,70
88,252,28197,2,0,B|48:208|44:168,2,70,8|0|0
260,68,29165,5,0
340,88,29359,1,0
404,140,29552,1,0
436,216,29746,1,8
436,300,29939,2,0,B|432:340|384:356,2,70
356,268,30520,6,0,B|336:236|292:240|292:240,1,70
212,232,30907,1,0
128,228,31101,2,0,B|80:232|68:180|68:180,1,70,0|8
68,108,31488,1,0
132,56,31681,2,0,B|176:32|220:48|220:48,1,70
284,44,32068,5,0
368,56,32262,2,0,B|412:60|444:100,3,70,0|0|0|8
456,164,33036,1,0
460,248,33230,2,0,B|424:320|424:320,1,70
344,312,33617,2,0,B|304:236|304:236,1,70
272,176,34004,5,0
224,108,34197,1,0
200,88,34294,1,0
172,76,34391,2,0,B|108:64|84:88|84:88,1,70,8|0
48,144,34778,1,0
248,296,35359,6,0,B|290:227|389:280|352:373|255:335|255:335,1,210
160,332,36133,1,0
84,268,36326,2,0,B|56:208|212:216|128:128|128:128,1,140
80,96,36907,2,0,B|100:32|164:24|224:48|224:48,1,140,0|8
276,60,37488,1,8
332,124,37681,1,8
388,60,37875,6,0,B|452:124|452:124,1,70
436,192,38262,2,0,B|380:244|380:244,1,70
300,240,38649,2,0,B|240:180|240:180,1,70
168,192,39036,2,0,B|112:244|112:244,1,70
112,324,39423,1,0
196,324,39617,1,0
280,324,39810,1,0
424,192,40197,5,0
340,192,40391,1,0
256,192,40584,1,0
88,192,40972,6,0,B|36:192|40:120|40:120,1,70
44,64,41359,2,0,B|44:20|104:20|104:20,1,70
176,24,41746,1,0
252,72,41939,1,0
176,124,42133,1,0
252,176,42326,1,0
172,224,42520,2,0,B|172:280|236:280|236:280,1,70
240,280,42810,1,0
280,280,42907,1,0
324,208,43101,1,0
364,280,43294,2,0,B|420:280|420:216|420:216,1,70
416,156,43681,2,0,B|416:96|352:96|352:96,1,70
300,80,44068,6,0,B|220:80|220:80,1,70
160,148,44455,2,0,B|248:148|248:148,1,70
300,216,44843,2,0,B|212:216|212:216,1,70
164,280,45230,2,0,B|240:280|240:280,1,70
320,280,45617,1,0
404,212,45810,1,0
320,140,46004,1,0
164,208,46391,6,0,B|252:208,2,70
92,56,47165,6,0,B|160:20|252:24|252:24,1,140
312,28,47746,1,0
396,40,47939,2,0,B|472:72|480:152|480:152,1,140
476,228,48520,1,0
476,312,48713,2,0,B|440:360|344:364|344:364,1,140
220,256,49488,2,8,B|248:228,4,35
160,312,50068,1,8
88,236,50262,6,0,B|68:108|188:64|188:64,1,174.999997392297
364,88,51036,2,0,B|440:120|432:256|432:256,1,174.999997392297
256,128,51810,2,0,B|216:168|216:168|284:176|284:176|256:216|256:216,1,174.999997392297
256,336,52584,1,0
428,104,53359,6,0,B|348:56|256:48|256:48,1,174.999997392297
164,80,53939,1,0
236,148,54133,2,0,B|328:160|404:204|404:204,1,174.999997392297
392,308,54713,2,0,B|304:332|192:312|192:312,1,174.999997392297
128,260,55294,1,0
76,160,55488,1,0
72,128,55584,1,0
68,88,55681,1,0
272,44,56068,6,0,B|336:40|360:72|360:72,1,87.4999986961484
412,156,56455,2,0,B|464:256|412:328|412:328,1,174.999997392297
204,320,57230,2,0,B|152:240|208:148|208:148,1,174.999997392297
308,128,57810,1,0
308,232,58004,2,0,B|392:268|216:312|336:368,2,174.999997392297
128,64,59552,6,0,B|80:152|80:256|80:256,1,174.999997392297
188,236,60133,1,0
292,232,60326,2,0,B|288:144|240:56|240:56,1,174.999997392297
348,60,60907,2,0,B|448:60|452:176|452:176,1,174.999997392297
452,284,61488,1,0
372,352,61681,1,0
292,284,61875,1,0
76,56,62455,6,0,B|140:120|140:120,1,87.4999986961484
164,328,63036,2,0,B|164:152,1,174.999997392297
236,76,63810,2,0,B|340:76|340:76,1,87.4999986961484
323,76,64197,1,0
428,76,64584,2,0,B|428:172|428:172,1,87.4999986961484
428,163,64972,1,8
428,163,65165,1,8
428,163,65359,1,8
256,192,65746,5,0
256,192,71165,12,0,71939
256,192,72133,5,0
188,132,72326,1,0
120,76,72520,1,0
120,168,72713,2,0,B|120:244|120:244|180:296|180:296,1,140
256,316,73294,1,0
340,284,73488,2,0,B|396:244|396:244|396:156|396:156,1,140
396,84,74068,1,0
304,84,74262,6,0,B|248:84|248:152|248:152,1,70
208,84,74649,2,0,B|264:84|264:152|264:152,1,70
256,216,75036,1,0
468,40,75617,6,0,B|468:128,1,70
380,88,76004,2,0,B|380:168|380:168,1,70
292,136,76391,2,0,B|292:208|292:208,1,70
212,248,76778,2,0,B|212:172|212:172,1,70
212,88,77165,1,0
120,88,77359,5,0
56,152,77552,1,0
56,244,77746,1,0
120,308,77939,1,0
212,312,78133,1,0
456,192,78713,6,0,B|456:120,2,70
364,192,79294,2,0,B|288:192,2,70
456,192,79875,1,0
456,224,79972,1,0
456,256,80068,2,0,B|456:316|396:316|396:316,1,70
328,312,80455,2,0,B|256:312,1,70
168,240,80843,2,0,B|244:240,1,70
328,240,81230,1,0
104,88,81810,6,0,B|64:148|88:236|88:236,1,140
136,300,82391,1,0
228,300,82584,1,0
320,300,82778,2,0,B|396:300|396:300|448:248|448:248,1,140
444,164,83359,2,0,B|444:96|444:96|364:96|364:96,1,140
280,96,83939,1,0
280,96,84133,1,0
100,96,84520,6,0,B|168:96|168:96,1,70
168,188,84907,2,0,B|252:188|252:188,1,70
236,280,85294,2,0,B|308:280|308:280,1,70
396,280,85681,2,0,B|396:208|396:208,1,70
396,120,86068,1,0
396,88,86165,1,0
396,56,86262,1,0
304,56,86455,1,0
212,56,86619,2,0,B|160:100|160:100|220:136|220:136|164:180|164:180|224:228|224:228,1,280
408,292,87972,6,0,B|424:220|424:220,1,70
356,164,88359,2,0,B|264:184|264:184,1,70
224,116,88746,2,0,B|244:40|244:40,1,70
332,52,89133,2,0,B|408:52,2,70
352,140,89714,5,0
452,140,89908,1,0
420,228,90101,1,0
320,228,90295,1,0
352,140,90488,1,0
80,172,91069,6,0,B|80:96,2,70
80,264,91650,2,0,B|132:332|132:332,1,70
212,320,92037,2,0,B|360:320|360:320,1,140
428,272,92617,1,0
432,180,92811,2,0,B|432:108,1,70
432,110,93198,2,0,B|432:36|432:36,1,70
340,40,93585,6,0,B|268:40,1,70
270,40,93875,1,0
270,40,93972,2,0,B|192:40|192:40,1,70
108,40,94359,2,0,B|56:40|56:40|56:88|56:88,1,70
56,148,94746,2,0,B|56:224|56:224,1,70
56,308,95133,1,0
256,192,95521,1,0
256,192,95714,1,0
436,192,96101,5,8
436,192,96295,2,8,B|436:252|436:252,1,35
436,320,96585,1,8
424,88,120682,6,0,B|308:56|308:56,1,104.999996870756,8|0
188,60,121456,2,0,B|76:92|76:92,1,104.999996870756,8|0
88,192,122230,2,0,B|148:296|236:72|280:216|280:216,1,209.999993741512,8|0
352,240,123391,1,0
436,304,123779,6,0,B|380:348|320:336|320:336,1,104.999996870756
204,328,124553,2,0,B|120:328|72:268|72:180|72:180,1,209.999993741512,8|0
80,56,125714,1,0
216,56,126101,1,0
88,88,126875,6,0,B|204:56|204:56,1,104.999996870756,0|8
324,60,127649,2,0,B|436:92|436:92,1,104.999996870756,0|8
428,200,128424,2,0,B|324:200,1,104.999996870756,0|8
188,196,129198,2,0,B|136:132|100:204|100:204,1,104.999996870756
76,304,129972,6,0,B|132:348|192:336|192:336,1,104.999996870756
308,328,130746,2,0,B|392:328|440:268|440:180|440:180,1,209.999993741512
432,56,131907,1,0
296,56,132294,1,0
448,192,133069,6,0,B|448:320|448:320,1,104.999996870756
320,348,133843,2,0,B|320:240|320:240,1,104.999996870756
192,192,134617,2,0,B|192:300|192:300,1,104.999996870756
64,348,135391,2,0,B|64:236,1,104.999996870756
60,108,136166,6,0,B|60:48|60:48|124:48|124:48,1,104.999996870756
240,52,136940,2,0,B|360:52,4,104.999996870756
104,56,138875,1,0
256,192,139262,12,0,142359
256,192,142742,5,8
140,192,143133,2,0,B|164:72|372:68|376:196|376:196,1,314.999990612269
256,192,144682,12,0,148553
440,72,155714,6,0,B|440:152,1,70
384,212,156101,1,0
316,272,156295,2,0,B|236:272,1,70
180,212,156682,1,0
120,144,156875,2,0,B|120:60,1,70
212,76,157262,6,0,B|304:76,1,70
280,168,157650,1,0
280,260,157843,2,0,B|352:260,1,70
432,296,158230,1,0
352,336,158424,2,0,B|268:336,1,70
200,296,158811,5,0
200,296,158908,1,0
200,296,159004,1,0
140,224,159198,2,0,B|96:164,1,70
100,76,159585,2,0,B|140:76,2,35
100,76,159972,1,0
192,76,160166,6,0,B|252:40,2,70
372,80,160940,2,0,B|296:32,2,70
448,128,161521,1,0
456,220,161714,6,0,B|456:272|416:304|416:304,1,70
344,284,162101,2,0,B|308:245|315:195|315:195,1,70
224,224,162488,2,0,B|224:276|184:308|184:308,1,70
112,284,162875,2,0,B|76:245|83:195|83:195,1,70
84,128,163262,6,0,B|84:60,2,70
84,128,163843,1,0
176,68,164037,1,0
196,176,164230,1,0
84,128,164424,1,0
176,68,164617,1,0
196,176,164811,1,0
196,268,165004,6,0,B|196:320|232:348,1,70
308,336,165391,2,0,B|336:308|328:248,1,70
328,180,165779,2,0,B|320:124|380:116,1,70
448,124,166166,2,0,B|480:156|476:204,1,70
476,186,166553,1,0
476,186,166746,1,0
332,300,167133,2,0,B|384:300|384:248,2,70,0|8|8
332,300,167714,1,8
332,208,167908,6,0,B|384:152,1,70,8|0
456,104,168295,2,0,B|428:48|376:52,1,70
316,48,168682,2,0,B|224:48|160:84,1,140
96,112,169262,1,0
52,192,169456,2,0,B|16:268|88:340,1,140
156,352,170037,1,0
272,352,170230,1,0
300,272,170424,1,0
228,316,170617,1,0
316,320,170811,1,0
244,272,171004,1,0
364,352,171198,6,0,B|404:352,2,35
428,248,171585,2,0,B|452:200,2,35
300,248,171972,2,0,B|268:212,2,35
364,180,172359,2,0,B|364:112,1,70
416,48,172746,1,0
312,48,172940,1,0
132,44,173323,5,0
48,116,173517,1,0
128,192,173710,1,0
256,324,174291,5,0
256,324,174387,1,0
256,324,174484,2,0,B|256:248,1,70
256,164,174871,2,0,B|256:20,1,140
256,24,175452,1,0
348,24,175646,2,0,B|348:168,1,140
440,164,176226,1,0
444,256,176420,2,0,B|400:324,1,70
316,316,176807,2,0,B|276:248,1,70
364,216,177194,1,0
128,80,177775,6,0,B|196:136|48:144|156:216,1,140
208,252,178355,2,0,B|232:300|288:240,1,70
352,228,178742,2,0,B|424:180|404:92,1,140
332,56,179323,2,0,B|256:24|184:60,1,140
264,116,179904,1,0
264,116,180000,1,0
264,116,180097,1,0
356,128,180291,6,0,B|304:212,1,70
228,188,180678,2,0,B|272:260,1,70
356,248,181065,2,0,B|308:328,1,70
228,308,181452,2,0,B|152:308,2,70
312,344,182033,1,0
384,312,182226,6,0,B|440:228,1,70
424,164,182613,1,0
424,72,182807,1,0
332,72,183000,1,0
176,56,183387,6,0,B|108:56|108:56,1,70
88,80,183678,1,0
68,104,183775,2,0,B|68:180,1,70
68,264,184162,2,0,B|104:340|200:336,1,140
272,340,184742,2,0,B|420:340,1,140
428,248,185323,2,0,B|512:280,2,70
436,160,185904,5,8
448,132,186000,1,8
460,104,186097,2,0,B|456:44|400:32,1,70,8|0
312,44,186484,6,0,B|272:160,1,104.999996870756
168,144,186871,2,0,B|128:36,1,104.999996870756
20,48,187258,2,0,B|64:168,1,104.999996870756
112,248,187646,2,0,B|168:252,2,52.4999984353781
144,344,188033,2,0,B|264:344,1,104.999996870756
364,344,188420,2,0,B|471:344,1,104.999996870756
420,236,188807,1,0
404,72,189581,6,0,B|328:24|192:28,1,209.999993741512
100,52,190162,1,0
108,160,190355,2,0,B|164:252|292:268,1,209.999993741512
388,268,190936,2,0,B|452:164|376:64,1,209.999993741512
276,72,191517,1,0
280,180,191710,1,0
280,284,191904,1,0
88,68,192484,5,0
88,176,192678,2,0,B|84:304|208:348,1,209.999993741512
336,340,193452,2,0,B|452:304|447:162,1,209.999993741512
368,108,194033,1,0
256,80,194226,5,0
124,284,194613,1,0
388,284,195000,1,0
112,192,195775,6,0,B|224:192|228:48,1,209.999993741512
308,52,196355,1,0
388,48,196549,2,0,B|392:200|500:200,1,209.999993741512
496,292,197129,2,0,B|416:368|252:356,1,209.999993741512
188,340,197710,1,0
108,260,197904,1,0
108,260,198000,1,0
108,260,198097,1,0
372,192,198484,5,0
372,76,198678,1,0
448,136,198871,2,0,B|308:136,1,104.999996870756
420,200,199258,2,0,B|304:200,1,104.999996870756
392,264,199646,2,0,B|280:264,1,104.999996870756
176,264,200033,5,0
176,148,200226,1,0
100,204,200420,2,0,B|240:204,1,104.999996870756
128,140,200807,2,0,B|244:140,1,104.999996870756
156,76,201195,2,0,B|268:76,1,104.999996870756
424,68,201968,6,0,B|424:184|344:268,1,209.999993741512
256,280,202549,1,0
152,280,202742,2,0,B|4:280|48:100,1,209.999993741512
104,68,203323,2,0,B|152:-20|224:176|288:56,1,209.999993741512
376,52,203904,1,0
464,120,204097,1,0
472,152,204194,1,0
480,184,204291,1,0
112,312,204871,5,0
224,308,205065,2,0,B|324:260,1,104.999996870756
248,208,205452,2,0,B|348:160,1,104.999996870756
268,108,205839,2,0,B|372:60,1,104.999996870756
288,8,206226,2,0,B|192:52,1,104.999996870756
80,132,206613,6,0,B|168:204,1,104.999996870756
224,128,207000,2,0,B|316:200,1,104.999996870756
404,248,207387,1,0
320,320,207581,1,8
284,332,207678,1,8
248,332,207775,1,8
96,236,208162,6,0,B|68:104,1,105
168,112,208742,1,0
268,132,208936,2,0,B|296:264,1,105
380,256,209517,1,0
464,236,209710,2,0,B|432:104,1,105
340,104,210291,1,0
248,104,210484,2,0,B|140:24|48:116,1,210
56,200,211258,6,0,B|56:248,1,35
56,328,211549,2,0,B|188:328,1,105
164,236,212033,2,0,B|164:184,1,35
164,108,212323,2,0,B|280:108,1,105
268,200,212807,2,0,B|268:260,1,35
268,328,213097,2,0,B|376:328,1,105
428,256,213581,2,0,B|448:240,16,17.5
