osu file format v5

[General]
AudioFilename: 05-Nowhere.mp3
AudioLeadIn: 0
PreviewTime: -1
Countdown: 1
SampleSet: Normal
StackLeniency: 0.7
Mode: 0
LetterboxInBreaks: 0
EditorDistanceSpacing: 1

[Metadata]
Title:Nowhere
Artist:FictionJunction YUUKA
Creator:nullPointLOL
Version:Normal
Source:
Tags:madlax, nowhere

[Difficulty]
HPDrainRate:4
CircleSize:4
OverallDifficulty:5
SliderMultiplier:1
SliderTickRate:2

[Events]
//Background and Video events
0,0,"Madlax_wall.jpg"
//Break Periods
2,65695,70489
2,98212,101457
//Storyboard Layer 0 (Background)
//Storyboard Layer 1 (Fail)
//Storyboard Layer 2 (Pass)
//Storyboard Layer 3 (Foreground)
//Storyboard Sound Samples
//Background Colour Transformations
3,100,0,0,0

[TimingPoints]
12851,387.096774193548,4,1,0,45,1,0
37431,-100,4,2,0,59,0,0
49238,-100,4,1,0,86,0,0
97238,-100,4,2,0,68,0,0
120850,-100,4,2,0,85,0,1
147560,-100,4,2,0,0,0,0

[Colours]
Combo1 : 91,36,159
Combo2 : 64,0,64
Combo3 : 128,0,0
Combo4 : 175,18,73

[HitObjects]
80,184,13044,1,0
80,184,13238,2,0,B|96:120|160:104,1,100,0|4
176,192,14012,2,0,B|224:168|288:200,1,100,0|4
328,264,14786,2,0,B|392:256|400:200,1,100,0|4
344,136,15560,2,0,B|288:88,2,50,0|4|8
272,200,16334,5,0
195,253,16721,1,8
195,253,16915,1,0
195,253,17109,2,0,B|267:261|275:317,1,100,0|8
176,328,17883,2,0,B|104:320|96:264,1,100,0|8
48,184,18657,2,0,B|24:160|40:120,2,50,4|8|8
160,184,19431,5,0
256,184,19818,1,8
256,184,20012,1,0
256,184,20205,2,0,B|264:248|336:264,1,100,0|8
336,160,20980,1,0
248,104,21367,1,8
248,104,21560,1,0
248,104,21754,2,0,B|288:56|360:96,1,100,0|8
312,184,22528,6,0,B|272:232|208:200,2,100,4|0|8
248,104,23689,6,0,B|200:48,2,50,0|0|8
176,176,24463,2,8,B|168:240|224:264,2,100,8|8|8
64,144,25625,5,0
64,144,25818,2,0,B|128:144,1,50,4|8
168,216,26399,1,4
264,216,26786,2,0,B|320:184|288:120,1,100,8|0
240,128,27367,6,0,C|176:128,1,50,0|8
152,104,27754,2,0,C|184:56,1,50,0|8
144,32,28141,2,0,C|72:32,1,50,4|8
48,120,28721,5,0
80,216,29109,2,0,B|88:272|160:264,2,100,0|8|0
112,120,30270,2,0,B|184:40,1,100,8|0
264,96,31044,5,8
264,96,31238,1,4
264,96,31431,2,0,B|312:56|368:104,1,100,8|0
304,176,32205,5,8
360,256,32592,5,8
448,208,32980,6,0,B|488:248|448:304,1,100,4|0
360,256,33754,1,8
360,256,33947,1,0
360,256,34141,2,0,B|240:256,2,100,0|8|0
360,152,35302,1,8
272,104,35689,6,0,B|168:104,1,100,4|8
168,200,36463,2,8,B|120:200|64:200,2,100,0|8|8
328,152,37625,6,0,B|369:184|369:184|310:224,1,100,0|2
184,208,38399,2,0,B|143:176|143:176|202:136,1,100,0|2
288,248,39173,6,0,B|256:289|256:289|216:230,1,100,0|2
224,112,39947,2,0,B|256:71|256:71|296:130,1,100,0|2
336,192,40721,5,2
336,192,40915,1,0
336,192,41109,2,0,B|392:160|440:200,1,100,2|0
336,192,41883,1,2
248,240,42270,6,0,B|176:240,1,50
160,272,42657,2,0,B|88:272,1,50,2|0
64,240,43044,1,4
112,152,43431,1,0
210,133,43818,6,0,B|251:165|251:165|192:205,1,100,0|2
312,192,44592,2,0,B|271:160|271:160|330:120,1,100,0|2
231,215,45367,6,0,B|263:174|263:174|303:233,1,100,0|2
290,111,46141,2,0,B|258:152|258:152|218:93,1,100,0|2
128,112,46915,1,2
128,112,47109,1,2
128,112,47302,6,0,B|112:168|152:216,1,100,2|0
240,184,48076,2,0,B|296:144,2,50,2|0|0
256,192,48850,12,4,49625
200,104,50399,5,0
312,104,50786,1,0
256,192,51173,1,0
352,192,51560,6,0,B|416:176|408:112,2,100
256,192,52721,1,8
160,192,53109,6,0,B|88:192|88:272,2,100,0|8|0
256,192,54270,1,8
200,104,54657,5,0
256,192,55044,1,8
200,104,55431,1,0
312,104,55818,1,8
312,104,56012,1,0
312,104,56205,2,0,B|368:96|392:160,1,100,0|8
256,192,56980,5,0
200,104,57367,5,8
200,104,57560,1,0
200,104,57754,2,0,B|144:96|120:160,1,100,0|8
200,104,58528,1,0
256,192,58915,5,8
168,240,59302,2,0,B|240:336,1,100,0|8
228,320,60076,6,8,B|296:232,1,100,0|8
289,240,60850,6,0,B|352:328,1,100,0|8
448,304,61625,5,0
384,232,62012,1,8
384,232,62205,1,0
384,232,62399,2,0,B|384:176|448:160,2,100,0|8|0
328,152,63560,6,0,B|312:120|272:120,1,50,8|0
248,112,63947,2,0,B|240:168|168:192,1,100,4|8
232,264,64721,2,8,B|288:296|328:248,2,100,8|8|4
256,192,71689,5,0
256,192,71883,1,0
256,192,72076,2,0,B|192:176|192:96,2,100,0|0|0
320,120,73238,2,0,B|360:88|424:112,1,100,0|0
376,200,74012,1,0
376,200,74205,5,0
376,200,74399,2,0,B|400:256|312:288,1,100,0|0
256,336,75173,1,0
168,280,75560,1,0
168,280,75947,2,0,B|104:280|80:224,1,100
176,184,76721,6,0,B|216:120,1,50
328,128,77302,1,0
328,128,77496,2,0,B|312:184|384:224,2,100,0|0|0
272,40,78657,1,0
176,80,79044,1,0
144,168,79431,2,0,B|72:168,2,50
240,168,80205,6,0,B|288:160|336:208,1,100,0|0
272,280,80980,2,0,B|240:320|160:312,1,100
112,240,81754,5,0
112,144,82141,1,8
112,144,82334,2,0,B|112:80,1,50,0|0
200,48,82915,1,8
200,48,83109,2,0,B|272:16|355:52,1,150,0|8
416,120,84076,5,4
416,216,84463,1,0
416,216,84657,2,0,B|360:280|272:269,1,150,0|0
352,344,85625,5,0
283,270,86012,1,0
208,200,86399,1,0
208,200,86592,1,0
208,200,86786,2,0,B|144:160|184:104,1,100,0|0
56,168,87754,5,0
56,168,87947,2,8,B|112:256,1,100,0|0
192,208,88721,5,0
264,152,89109,1,0
296,56,89496,2,0,B|232:50|200:112,2,100
176,144,90851,5,0
176,144,91044,1,0
176,144,91238,2,0,B|136:192,1,50,0|0
80,264,91818,1,0
145,182,92205,5,0
232,232,92592,1,0
312,272,92980,1,8
312,272,93173,2,0,B|376:256|400:208,1,100
440,216,93754,5,8
440,112,94141,1,0
352,64,94528,1,8
352,64,94721,1,0
352,64,94915,2,0,B|304:40|240:64,1,100,0|8
256,112,95496,6,0,B|200:120,1,50
208,168,95883,2,8,B|272:192,1,50,4|8
301,203,96270,1,4
256,192,96657,12,4,98012
384,232,102657,6,4,B|424:176|376:136,2,100,4|2|0
256,192,103818,1,4
136,144,104205,2,4,B|88:184|144:240,2,100,4|2|0
256,192,105367,5,4
352,96,105754,2,4,B|256:40|160:96,1,200,4|0
256,192,106915,5,4
160,288,107302,2,4,B|256:344|352:288,1,200,4|0
256,192,108463,5,4
128,152,108851,2,4,B|80:192|136:248,2,100,4|2|0
320,160,110205,1,2
320,224,110399,5,4
320,96,110786,2,4,B|272:56|216:104,2,100,4|2|0
256,208,111947,1,4
128,256,112334,1,4
128,256,112528,6,4,B|80:184|128:112,1,150,0|4
160,24,113496,5,2
208,112,113883,1,0
208,208,114270,1,2
208,208,114463,1,0
208,208,114657,2,0,B|312:208,2,100,4|0|2
308,208,115818,5,8
408,208,116205,1,4
360,120,116592,1,8
264,80,116980,1,2
216,72,117173,1,0
176,96,117367,5,8
240,176,117754,1,4
176,96,118141,1,8
112,176,118528,1,2
128,224,118721,1,0
168,256,118915,1,8
264,264,119302,5,4
264,160,119689,1,8
264,264,120076,1,2
312,256,120270,1,0
352,224,120463,1,8
352,96,120851,6,2,B|256:64|152:96,2,200,2|2|2
384,176,122786,1,2
352,256,123173,6,2,B|256:288|152:256,2,200,2|2|2
440,256,125109,1,2
400,176,125496,1,2
440,96,125883,1,2
360,56,126270,6,0,B|256:8|152:64,1,200,2|4
152,144,127431,1,2
80,104,127818,1,2
32,168,128205,1,2
104,208,128592,1,2
152,144,128980,6,0,B|256:120,1,100,2|0
256,208,129754,2,0,B|360:232,1,100,2|4
416,296,130528,2,0,B|312:328,1,100,2|0
232,328,131302,2,0,B|128:272,1,100,2|4
56,288,132076,2,2,B|8:192|64:88,2,200
144,280,134012,5,8
184,200,134399,2,4,B|296:184,1,100,0|4
344,120,135173,1,2
264,80,135560,1,8
184,120,135947,6,0,B|80:184,1,100,0|4
160,240,136721,1,2
200,256,136915,1,2
248,256,137109,1,8
328,208,137496,2,0,B|400:120,2,100,2|4|2
248,160,138657,6,0,B|152:96,1,100,8|4
336,64,139818,5,2
384,144,140205,1,8
336,64,140592,1,2
152,64,141367,1,2
120,144,141754,6,0,B|24:88,1,100,8|2
120,144,142528,1,4
176,216,142915,2,4,B|264:272|368:216,1,200
408,136,144076,5,4
360,56,144463,2,4,B|264:0|168:56,2,200
256,192,146399,12,4,149109
