osu file format v6

[General]
AudioFilename: FictionJunction KEIKO - Synchronicity.mp3
AudioLeadIn: 0
PreviewTime: 91468
Countdown: 0
SampleSet: Soft
StackLeniency: 0.6
Mode: 0
LetterboxInBreaks: 1

[Editor]
Bookmarks: 7229,51476,54029,60837,62965,92336,115306,117868,126378
DistanceSpacing: 0.800000011920929
BeatDivisor: 4
GridSize: 8

[Metadata]
Title:Synchronicity
Artist:FictionJunction KEIKO
Creator:Lissette
Version:Easy
Source:Tsubasa TOKYO REVELATIONS
Tags:kajiura Yuki Tsubasa Chronicle Everlasting Songs Lizbeth

[Difficulty]
HPDrainRate:2
CircleSize:3
OverallDifficulty:2
SliderMultiplier:1
SliderTickRate:1

[Events]
//Background and Video events
0,0,"tsubasaseason3.jpg"
//Break Periods
2,21030,32887
2,92519,104376
//Storyboard Layer 0 (Background)
//Storyboard Layer 1 (Fail)
//Storyboard Layer 2 (Pass)
//Storyboard Layer 3 (Foreground)
Sprite,Foreground,Centre,"TSC.jpg",320,240 S,0,14074,,0.999079 F,0,14029,17008,0,1 S,0,14074,20830,0.999079,0.9966398 F,0,17008,20837,1,0 F,0,34455,35743,1,0 F,0,37859,39135,1,0 F,0,41263,42540,1,0 F,0,44667,45944,1,0 F,0,46369,48923,1,0 F,0,51476,52752,0,1 F,0,52744,53915,1,0 F,0,54021,,1 F,0,54021,,1 F,0,54021,,1 F,0,54029,,0 F,0,54021,55298,1,0 F,0,55298,,0 F,0,56574,57851,1,0 F,0,59978,60723,1,0 F,0,60837,,0 F,0,61893,,1 F,0,60837,61901,0,1 F,0,61893,62851,1,0 F,0,62965,,0 F,0,62957,64234,1,0 F,0,65093,,1 F,0,65085,66681,1,0 F,0,66787,68383,1,0 F,0,68491,71044,1,0 F,0,73595,74872,1,0 F,0,75306,76582,1,0 F,0,77008,78284,1,0 F,0,80412,81689,1,0 F,0,82114,83391,1,0 F,0,83816,85093,1,0 F,0,105936,107213,1,0 F,0,107646,108923,1,0 F,0,109340,110617,1,0 F,0,111050,112327,1,0 F,0,114455,115199,1,0 F,0,115306,116582,0,1 F,0,116582,117859,1,0 F,0,118710,119029,1,0 F,0,119135,119455,1,0 F,0,119561,119880,1,0 S,0,34393,128489,1.01712 F,0,126361,128489,1,0
//Storyboard Sound Samples
//Background Colour Transformations
3,100,163,162,255

[TimingPoints]
7213,425.531914893617,4,2,0,85,1,0
74889,-100,4,1,0,85,0,0

[Colours]
Combo1 : 0,128,192
Combo2 : 128,128,192
Combo3 : 72,164,255
Combo4 : 184,184,220

[HitObjects]
128,88,14021,2,0,B|432:88,1,300,2|0
376,176,15723,6,0,B|72:176,1,300,2|0
128,264,17425,6,0,B|432:264,1,300,2|0
256,208,19127,12,4,20830
256,72,34447,5,6
304,224,35298,6,0,B|192:224,1,100
120,224,36149,1,0
72,72,37000,6,0,B|184:72,1,100
248,72,37851,1,4
400,24,38702,6,0,B|400:128,1,100
400,200,39553,1,2
248,256,40404,6,0,B|248:152,1,100
176,200,41255,2,0,B|176:-8,1,200,4|0
336,0,42957,5,2
336,160,43808,1,0
336,320,44659,2,0,B|128:320,1,200,4|0
136,240,45936,6,0,B|240:240,1,100,0|4
136,112,48064,5,0
296,112,48915,1,2
384,248,49766,1,0
224,248,50617,1,2
256,88,51468,6,0,B|496:72|576:200|512:352|248:320,1,600,0|4
144,200,54872,5,0
256,88,55723,1,2
368,200,56574,1,4
96,312,58276,5,0
256,312,59127,1,2
416,312,59978,1,6
456,152,60830,6,0,B|408:24|224:24|288:264|104:264|64:120,1,500,0|4
208,328,64234,6,0,B|320:328,2,100,2|0|2
208,168,65936,6,0,B|320:168,2,100,2|0|2
208,8,67638,6,0,B|320:8,2,100,2|0|2
104,128,69340,5,0
256,176,70191,1,0
408,128,71042,1,0
256,64,71893,1,2
256,64,72744,2,0,B|256:271,1,200,0|4
96,32,75298,5,4
416,32,77000,1,4
416,192,77851,1,0
256,192,78702,1,0
96,192,79553,1,0
96,352,80404,1,4
416,352,82106,5,4
96,352,83808,1,4
96,192,84659,1,0
256,192,85510,1,0
416,192,86361,1,0
416,32,87213,1,0
256,32,88064,1,0
96,32,88915,1,4
256,208,89127,12,4,92319
256,184,105936,5,4
416,184,106787,1,0
416,264,107213,2,0,B|352:264,2,50,0|0|4
256,192,109340,5,0
96,192,110191,1,0
96,112,110617,2,0,B|160:112,2,50,0|0|4
256,96,111893,5,4
176,232,112744,1,0
336,232,113595,1,0
280,288,114021,2,4,B|224:288,2,50,4|0|0
152,192,115298,6,4,B|256:8,1,200,4|4
252,20,117000,6,4,B|356:204,1,200,0|0
256,320,118702,5,0
256,240,119127,1,0
256,160,119553,1,4
256,208,120191,12,4,126361
